Скачать через торрент фильм дневной свет в хорошем качестве


Дневной свет 1996 - скачать бесплатно через торрент в хорошем качестве. Без регистрации

Название: Дневной свет / Daylight (1996) BDRip 720p by msltel | D, P, P1, 3 x A
Качество видео: BDRip 720p Сравнение с исходником
Перевод: дублированный, профессиональный многоголосый, профессиональный одноголосый, авторский
Формат видео: MKV
Видео: H.264 4747 Кбит/с, 1280x694, 23.976 кадра/с, 0.223 bpp
Аудио: AC3 AC3русский, AC3, 192 kbps, 2 ch, 48 kHz [дублированный]русский, AC3, 192 kbps, 2 ch, 48 kHz [профессиональный многоголосый, СТС]русский, AC3, 192 kbps, 2 ch, 48 kHz [профессиональный одноголосый, Сергей Визгунов, перевод - Krasnovv]русский, AC3, 448 kbps, 6 ch, 48 kHz [авторский, Андрей Гаврилов]русский, AC3, 448 kbps, 6 ch, 48 kHz [авторский, Юрий Живов]русский, AC3, 448 kbps, 6 ch, 48 kHz [авторский, Юрий Медведев]английский, AC3, 448 kbps, 6 ch, 48 kHz [оригинал]
Скачать

Загрузка начнется в течение 5 сек.

5.81 GB

Название: Дневной свет / Daylight (1996) BDRip-AVC by msltel | D, P, P1, 3 x A
Качество видео: BDRip-AVC Сравнение с исходником
Перевод: дублированный, профессиональный многоголосый, профессиональный одноголосый, авторский
Формат видео: MKV
Видео: H.264 2890 Кбит/с, 1024x554, 23.976 кадра/с, bpp
Аудио: AC3 AC3русский, AC3, 192 kbps, 2 ch, 48 kHz [дублированный]русский, AC3, 192 kbps, 2 ch, 48 kHz [профессиональный многоголосый, СТС]русский, AC3, 192 kbps, 2 ch, 48 kHz [профессиональный одноголосый, Сергей Визгунов, перевод - Krasnovv]русский, AC3, 448 kbps, 6 ch, 48 kHz [авторский, Андрей Гаврилов]русский, AC3, 448 kbps, 6 ch, 48 kHz [авторский, Юрий Живов]русский, AC3, 448 kbps, 6 ch, 48 kHz [авторский, Юрий Медведев]английский, AC3, 448 kbps, 6 ch, 48 kHz [оригинал]
Скачать

Загрузка начнется в течение 5 сек.

4.29 GB

Название: Дневной свет / Daylight (1996) HDRip от Scarabey | D
Качество видео: HDRip
Перевод: Профессиональный (дублированный)
Формат видео: AVI
Видео: 624x336 (1.86:1), 23.976 fps, XviD build 73 ~1611 kbps avg, 0.32 bit/pixel
Аудио: 48 kHz, AC3 Dolby Digital, 2/0 (L,R) ch, ~192.00 kbps avg[/font]
Скачать

Загрузка начнется в течение 5 сек.

1.45 GB

Название: Дневной свет / Daylight (1996) HDRip от Scarabey | D
Качество видео: HDRip
Перевод: Профессиональный (дублированный)
Формат видео: AVI
Видео: 624x336 (1.86:1), 23.976 fps, XviD build 73 ~770 kbps avg, 0.15 bit/pixel
Аудио: 48 kHz, MPEG Layer 3, 2 ch, ~128.00 kbps avg
Скачать

Загрузка начнется в течение 5 сек.

743.41 MB

Название: Дневной свет / Daylight (1996) BDRip | D
Качество видео: BDRip
Перевод: Профессиональный (полное дублирование)
Видео: XviD, 720x384, 23.976 fps, 1430 kbps avg, 0.216 bit/pixel
Аудио: 48 kHz, AC3 Dolby Digital, 2 ch, ~384.00 kbps avg
Скачать

Загрузка начнется в течение 5 сек.

1.46 GB

Название: Дневной свет / Daylight (1996) Blu-ray Disc CEE
Качество видео: Blu-ray
Перевод: Дублированный
Формат видео: M2TS
Видео: VC-1 Video, 30779 kbps, 1920x1080p, 23,976 fps, 16:9, Advanced Profile 3
Скачать

Загрузка начнется в течение 5 сек.

34.36 GB

Название: Дневной свет / Daylight (1996) BDRip 1080p от Freeisland
Качество видео: BDRip 1080
Перевод: Дублированный + Авторские отдельно
Видео: н264 1920х1040 (16:9), 5022 Кбит/сек, 23,976 кадр/сек, 0.105 bit/pixel
Аудио: 48 kHz, AC3 Dolby Digital, 2/0 (L,R) ch, ~448 kbps (Dubl)
Скачать

Загрузка начнется в течение 5 сек.

5.75 GB

Название: Дневной свет / Daylight (1996) BDRip 720p от Element team
Качество видео: BDRip 720p
Перевод: авторский одноголосый (Гаврилов)
Видео: h.264 1280x692 (1.85:1)at 23.976 fps, 2pass, ~2 350 Kbps avg
Аудио: AC-3,384 Kbps,6 channels,48.0 KHz
Скачать

Загрузка начнется в течение 5 сек.

2.19 GB

www.kinovit.net

Скачать фильм Дневной свет через торрент в хорошем качестве бесплатно BDRip-AVC] DUB

Размер: 4.29 GB | Добавлен: 2 года 6 мес. назад | Торрент скачан:76 раз
Реклама Дарим 3000 рублей за регистрацию, не упусти свой шанс получить шикарный бонус!!!

29-03-2015 07:44 Дневной свет Скачать торрент  

Дневной свет / Daylight

Год выпуска: 1996Страна: СШАЖанр: боевик, триллер, приключенияПродолжительность: 01:54:30Перевод: дублированный, профессиональный многоголосый, профессиональный одноголосый, авторскийСубтитры: нет

Режиссёр: Роб Коэн

В ролях: Сильвестр Сталлоне, Вигго Мортенсен, Эми Бреннеман, Дэн Хедайя, Джей О. Сандерс, Карен Янг, Клер Блум, Ванесса Белл Кэллоуэй, Реноли Сантьяго, Колин Фокс, Дэниэль Харрис, Трина МакГи, Марсело Тедфорд, Сэйдж Сталлоне, Марк Ролстон, Розмари Форсайт, Лю Ен Вань, Барри Ньюман, Стэн Шоу, Марк Чадвик, Ли Оукс, Сакина Джаффри, Альберт Маклин, Тони Мунафо, Джозеф Раньо, Нестор Серрано, Джон Лииз, Марк Де Алессандро, Лиза МакКалло, Эд Вилер, Дэн Дэйли, Стивен Джеймс, Харольд Брэдли, Пенни Кроун, Виктор Бохон, Роб Коэн, Пина Де Роза, Кари Портман, Джои Сонтц, Майкл Верхан

Описание: Машина таксиста Кита Латуры в момент взрыва оказывается на въезде в огромный подводный тоннель, ведущий в Нью-Джерси. Огромный огненный шар проносится по тоннелю. В живых остаётся только дюжина испуганных людей. Без посторонней помощи им не выбраться. Кит Латура совершает отчаянную попытку пробраться в тоннель и вывести из него людей. Много лет назад он работал в службе спасения, но был уволен, когда сотрудники, находившиеся у него в подчинении, погибли, выполняя его приказы. Теперь у Латуры появляется шанс искупить свою вину. Он должен спасти беззащитных людей...

Качество: BDRip-AVC Сравнение с исходникомФормат: MKVВидео кодек: H.264Аудио кодек: AC3Видео: 2890 Кбит/с, 1024x554, 23.976 кадра/с, 0.212 bppАудио 1: русский, AC3, 192 kbps, 2 ch, 48 kHz [дублированный]Аудио 2: русский, AC3, 192 kbps, 2 ch, 48 kHz [профессиональный многоголосый, СТС]Аудио 3: русский, AC3, 192 kbps, 2 ch, 48 kHz [профессиональный одноголосый, Сергей Визгунов, перевод - Krasnovv]Аудио 4: русский, AC3, 448 kbps, 6 ch, 48 kHz [авторский, Андрей Гаврилов]Аудио 5: русский, AC3, 448 kbps, 6 ch, 48 kHz [авторский, Юрий Живов]Аудио 5: русский, AC3, 448 kbps, 6 ch, 48 kHz [авторский, Юрий Медведев]Аудио 7: английский, AC3, 448 kbps, 6 ch, 48 kHz [оригинал]

frame I:1229 Avg QP:17.60 size: 61059frame P:35251 Avg QP:18.95 size: 29077frame B:128107 Avg QP:21.42 size: 11491

ОбщееУникальный идентификатор : 201884103691326876768672511939903388635 (0x97E176CC9A4EB8B29DD51070CAA67BDB)Полное имя : D:VideoDnevnoj svet.1996.BDRip.AVC.mkvФормат : MatroskaВерсия формата : Version 4 / Version 2Размер файла : 4,29 ГбайтПродолжительность : 1 ч. 54 м.Общий поток : 5365 Кбит/секДата кодирования : UTC 2015-03-28 14:33:19Программа кодирования : mkvmerge v7.7.0 ('Six Voices') 64bit built on Feb 28 2015 23:39:33Библиотека кодирования : libebml v1.3.1 + libmatroska v1.4.2_STATISTICS_WRITING_APP : mkvmerge v7.7.0 ('Six Voices') 64bit built on Feb 28 2015 23:39:33_STATISTICS_WRITING_DATE_UTC : 2015-03-28 14:33:19_STATISTICS_TAGS : BPS DURATION NUMBER_OF_FRAMES NUMBER_OF_BYTESDURATION : 01:54:24.672000000NUMBER_OF_FRAMES : 214521NUMBER_OF_BYTES : 384421632

ВидеоИдентификатор : 1Формат : AVCФормат/Информация : Advanced Video CodecПрофиль формата : [email protected]Параметр CABAC формата : ДаПараметр ReFrames формата : 9 кадровИдентификатор кодека : V_MPEG4/ISO/AVCПродолжительность : 1 ч. 54 м.Битрейт : 2890 Кбит/секШирина : 1024 пикселяВысота : 554 пикселяСоотношение сторон : 1,85:1Режим частоты кадров : ПостоянныйЧастота кадров : 23,976 кадра/секЦветовое пространство : YUVСубдискретизация насыщенности : 4:2:0Битовая глубина : 8 битТип развёртки : ПрогрессивнаяБит/(Пиксели*Кадры) : 0.212Размер потока : 2,31 Гбайт (54%)Заголовок : BDRip -- STarankovБиблиотека кодирования : x264 core 142 r2431 ac76440Настройки программы : cabac=1 / ref=9 / deblock=1:-1:-1 / analyse=0x3:0x113 / me=umh / subme=10 / psy=1 / psy_rd=1.00:0.15 / mixed_ref=1 / me_range=32 / chroma_me=1 / trellis=2 / 8x8dct=1 / cqm=0 / deadzone=21,11 / fast_pskip=1 / chroma_qp_offset=-3 / threads=6 / lookahead_threads=1 / sliced_threads=0 / nr=0 / decimate=1 / interlaced=0 / bluray_compat=0 / constrained_intra=0 / bframes=8 / b_pyramid=2 / b_adapt=2 / b_bias=0 / direct=3 / weightb=1 / open_gop=0 / weightp=2 / keyint=230 / keyint_min=23 / scenecut=40 / intra_refresh=0 / rc_lookahead=40 / rc=crf / mbtree=0 / crf=19.5 / qcomp=0.60 / qpmin=0 / qpmax=69 / qpstep=4 / vbv_maxrate=40000 / vbv_bufsize=50000 / crf_max=0.0 / nal_hrd=none / filler=0 / ip_ratio=1.40 / pb_ratio=1.30 / aq=1:1.00Язык : EnglishDefault : ДаForced : Нет_STATISTICS_WRITING_APP : mkvmerge v7.7.0 ('Six Voices') 64bit built on Feb 28 2015 23:39:33_STATISTICS_WRITING_DATE_UTC : 2015-03-28 14:33:19_STATISTICS_TAGS : BPS DURATION NUMBER_OF_FRAMES NUMBER_OF_BYTESDURATION : 01:54:24.650000000NUMBER_OF_FRAMES : 164587NUMBER_OF_BYTES : 2572133958

Аудио #1Идентификатор : 2Формат : AC-3Формат/Информация : Audio Coding 3Расширение режима : CM (complete main)Параметр Endianness формата : BigИдентификатор кодека : A_AC3Продолжительность : 1 ч. 54 м.Вид битрейта : ПостоянныйБитрейт : 192 Кбит/секКаналы : 2 каналаРасположение каналов : Front: L RЧастота : 48,0 КГцБитовая глубина : 16 битМетод сжатия : С потерямиРазмер потока : 157 Мбайт (4%)Заголовок : DUBЯзык : RussianDefault : ДаForced : Нет

Аудио #2Идентификатор : 3Формат : AC-3Формат/Информация : Audio Coding 3Расширение режима : CM (complete main)Параметр Endianness формата : BigИдентификатор кодека : A_AC3Продолжительность : 1 ч. 54 м.Вид битрейта : ПостоянныйБитрейт : 192 Кбит/секКаналы : 2 каналаРасположение каналов : Front: L RЧастота : 48,0 КГцБитовая глубина : 16 битМетод сжатия : С потерямиРазмер потока : 157 Мбайт (4%)Заголовок : MVO (CTC)Язык : RussianDefault : НетForced : Нет

Аудио #3Идентификатор : 4Формат : AC-3Формат/Информация : Audio Coding 3Расширение режима : CM (complete main)Параметр Endianness формата : BigИдентификатор кодека : A_AC3Продолжительность : 1 ч. 54 м.Вид битрейта : ПостоянныйБитрейт : 192 Кбит/секКаналы : 2 каналаРасположение каналов : Front: L RЧастота : 48,0 КГцБитовая глубина : 16 битМетод сжатия : С потерямиЗадержка видео : 24 мс.Размер потока : 157 Мбайт (4%)Заголовок : VO (Сергей Визгунов, перевод - Krasnovv)Язык : RussianDefault : НетForced : Нет

Аудио #4Идентификатор : 5Формат : AC-3Формат/Информация : Audio Coding 3Расширение режима : CM (complete main)Параметр Endianness формата : BigИдентификатор кодека : A_AC3Продолжительность : 1 ч. 54 м.Вид битрейта : ПостоянныйБитрейт : 448 Кбит/секКаналы : 6 каналовРасположение каналов : Front: L C R, Side: L R, LFEЧастота : 48,0 КГцБитовая глубина : 16 битМетод сжатия : С потерямиРазмер потока : 367 Мбайт (8%)Заголовок : AVO (Андрей Гаврилов)Язык : RussianDefault : НетForced : Нет

Аудио #5Идентификатор : 6Формат : AC-3Формат/Информация : Audio Coding 3Расширение режима : CM (complete main)Параметр Endianness формата : BigИдентификатор кодека : A_AC3Продолжительность : 1 ч. 54 м.Вид битрейта : ПостоянныйБитрейт : 448 Кбит/секКаналы : 6 каналовРасположение каналов : Front: L C R, Side: L R, LFEЧастота : 48,0 КГцБитовая глубина : 16 битМетод сжатия : С потерямиРазмер потока : 367 Мбайт (8%)Заголовок : AVO (Юрий Живов)Язык : RussianDefault : НетForced : Нет

Аудио #6Идентификатор : 7Формат : AC-3Формат/Информация : Audio Coding 3Расширение режима : CM (complete main)Параметр Endianness формата : BigИдентификатор кодека : A_AC3Продолжительность : 1 ч. 54 м.Вид битрейта : ПостоянныйБитрейт : 448 Кбит/секКаналы : 6 каналовРасположение каналов : Front: L C R, Side: L R, LFEЧастота : 48,0 КГцБитовая глубина : 16 битМетод сжатия : С потерямиРазмер потока : 367 Мбайт (8%)Заголовок : AVO (Юрий Медведев)Язык : RussianDefault : НетForced : Нет

Аудио #7Идентификатор : 8Формат : AC-3Формат/Информация : Audio Coding 3Расширение режима : CM (complete main)Параметр Endianness формата : BigИдентификатор кодека : A_AC3Продолжительность : 1 ч. 54 м.Вид битрейта : ПостоянныйБитрейт : 448 Кбит/секКаналы : 6 каналовРасположение каналов : Front: L C R, Side: L R, LFEЧастота : 48,0 КГцБитовая глубина : 16 битМетод сжатия : С потерямиРазмер потока : 367 Мбайт (8%)Заголовок : OriginalЯзык : EnglishDefault : НетForced : Нет

Скачать Дневной свет через торрент http://i60.fastpic.ru/big/2015/0329/14/cb33314712e82d46ece9618ba257c314.jpg Скачать фильм Дневной свет через торрент бесплантно в хорошем качестве Описание: Машина таксиста Кита Латуры в момент взрыва оказывается на въезде в огромный подводный тоннель, ведущий в Нью-Джерси. Огромный ... 2015-03-29 07:44 9.8 10 4

Loading...

Loading...

Рекламный пират

Дорогой пользователь! Огромная просьба, поблагодарите релизера, оцените раздачу и оставьте свои комментарий, если Вы скачали Дневной свет через торрент бесплатно! Внесите свою лепту в развитие PiratBit!

Комментировать посты могут только пользователи прошедшие не сложную регистрацию

Дневной свет через торрент Скачать бесплатно Дневной свет Дневной свет скачать торрент Дневной свет смотреть онлайн Cкачать фильм Дневной свет бесплатно Дневной свет скачать торрент в хорошем качестве Дневной свет смотреть онлайн бесплатно в хорошем качестве

Вы не можете начинать темыВы не можете отвечать на сообщенияВы не можете редактировать свои сообщенияВы не можете удалять свои сообщенияВы не можете голосовать в опросахВы не можете прикреплять файлы к сообщениямВы можете скачивать файлы

piratbit.ru

Скачать фильм Дневной свет через торрент в хорошем качестве бесплатно 1080p

Размер: 13.23 GB | Добавлен: 6 лет 8 мес. назад | Торрент скачан:1 раз
Реклама Дарим 3000 рублей за регистрацию, не упусти свой шанс получить шикарный бонус!!!

12-02-2011 16:47 Дневной свет Скачать торрент  

Дневной свет | Daylight «Нет Воздуха. Нет Спасения. Нет Времени.» Год выпуска: 5 декабря 1996Страна: СШАЖанр: боевик, триллер, приключенияПродолжительность: 01:54:24Перевод:
  • Авторский (одноголосый, закадровый) - [Алексей Медведев]
  • Авторский (одноголосый, закадровый) - [Андрей Гаврилов]
  • Авторский (одноголосый, закадровый) - [Юрий Живов]
  • Профессиональный (полное дублирование) - [Ист-Вест]
Субтитры:
  • Английские - [Внутренние(.pgs)]
Режиссер:В ролях:
    Сильвестр Сталлоне, Эми Бреннеман, Вигго Мортенсен, Дэн Хедайя, Джей О. Сэндерс, Карен Янг, Клер Блум, Ванесса Белл Кэллоуэй, Реноли Сантьяго, Колин Фокс
Описание: Машина таксиста Кита Латуры в момент взрыва оказывается на въезде в огромный подводный тоннель, ведущий в Нью-Джерси. Огромный огненный шар проносится по тоннелю. В живых остается только дюжина испуганных людей. Без посторонней помощи им не выбраться. Кит Латура совершает отчаянную попытку пробраться в тоннель и вывести из него людей.

Много лет назад он работал в службе спасения, но был уволен, когда сотрудники, находившиеся у него в подчинении, погибли, выполняя его приказы. Теперь у Латуры появляется шанс искупить свою вину. Он должен спасти беззащитных людей.

Качество: BDRip [CHD] Формат: MKVВидео кодек: H.264Аудио кодек: АС3 | DTSВидео: H.264 | 1920x1040 (16:9) | 23,976 fps | 10376 Кбит/секАудио Rus : AC3 | 6 ch | 48 KHz | 448 kbps - [Алексей Медведев] - отдельноАудио Rus : DTS | 6 ch | 48 KHz | 1510 kbps - [Андрей Гаврилов] - отдельноАудио Rus : DTS | 6 ch | 48 KHz | 1510 kbps - [Юрий Живов] - отдельноАудио Rus : DTS | 2 ch | 48 KHz | 448 kbps - [Ист-Вест] - в контейнереАудио Rus : DTS | 6 ch | 48 KHz | 755 kbps - [Ист-Вест*] - в контейнереАудио Eng : DTS | 6 ch| 48 KHz | 1510 kbps*Дубляж наложен только на центральный канал, поэтому в некоторых моментах будет слышна английская речь. Оформление by Romeo0502 Скачать Дневной свет через торрент http://piratbit.in.ua/f2b7c05b3f51f6b25dc8b5c57a886a56.gif Скачать фильм Дневной свет через торрент бесплантно в хорошем качестве Описание: Машина таксиста Кита Латуры в момент взрыва оказывается на въезде в огромный подводный тоннель, ведущий в Нью-Джерси. Огромный ... 2011-02-12 16:47 5 10 4

Loading...

Loading...

Рекламный пират

12-02-2011 17:16 Дневной свет Скачать торрент  

Размер: 13,23 GB -01:54:24 ? )))))Что несколько серий?

12-02-2011 17:22 Дневной свет Скачать торрент  

ВОВА 9999 писал(а):

Размер: 13,23 GB -01:54:24 ? )))))Что несколько серий?

ага, 4 сезона

12-02-2011 19:03 Дневной свет Скачать торрент  

ВОВА 9999 писал(а):

Размер: 13,23 GB -01:54:24 ? )))))Что несколько серий?

Качество: BDRip [CHD]Формат: MKVВидео кодек: H.264Аудио кодек: АС3 | DTSВидео: H.264 | 1920x1040 (16:9) | 23,976 fps | 10376 Кбит/секна качество посмотри......

Дорогой пользователь! Огромная просьба, поблагодарите релизера, оцените раздачу и оставьте свои комментарий, если Вы скачали Дневной свет через торрент бесплатно! Внесите свою лепту в развитие PiratBit!

Комментировать посты могут только пользователи прошедшие не сложную регистрацию

Дневной свет через торрент Скачать бесплатно Дневной свет Дневной свет скачать торрент Дневной свет смотреть онлайн Cкачать фильм Дневной свет бесплатно Дневной свет скачать торрент в хорошем качестве Дневной свет смотреть онлайн бесплатно в хорошем качестве

Вы не можете начинать темыВы не можете отвечать на сообщенияВы не можете редактировать свои сообщенияВы не можете удалять свои сообщенияВы не можете голосовать в опросахВы не можете прикреплять файлы к сообщениямВы можете скачивать файлы

piratbit.ru

Скачать фильм Дневной свет через торрент в хорошем качестве бесплатно 720p] DUB

Размер: 5.81 GB | Добавлен: 2 года 6 мес. назад | Торрент скачан:52 раза
Реклама Дарим 3000 рублей за регистрацию, не упусти свой шанс получить шикарный бонус!!!

29-03-2015 08:37 Дневной свет Скачать торрент  

Дневной свет / Daylight

Год выпуска: 1996Страна: СШАЖанр: боевик, триллер, приключенияПродолжительность: 01:54:30Перевод: дублированный, профессиональный многоголосый, профессиональный одноголосый, авторскийСубтитры: нет

Режиссёр: Роб Коэн

В ролях: Сильвестр Сталлоне, Вигго Мортенсен, Эми Бреннеман, Дэн Хедайя, Джей О. Сандерс, Карен Янг, Клер Блум, Ванесса Белл Кэллоуэй, Реноли Сантьяго, Колин Фокс, Дэниэль Харрис, Трина МакГи, Марсело Тедфорд, Сэйдж Сталлоне, Марк Ролстон, Розмари Форсайт, Лю Ен Вань, Барри Ньюман, Стэн Шоу, Марк Чадвик, Ли Оукс, Сакина Джаффри, Альберт Маклин, Тони Мунафо, Джозеф Раньо, Нестор Серрано, Джон Лииз, Марк Де Алессандро, Лиза МакКалло, Эд Вилер, Дэн Дэйли, Стивен Джеймс, Харольд Брэдли, Пенни Кроун, Виктор Бохон, Роб Коэн, Пина Де Роза, Кари Портман, Джои Сонтц, Майкл Верхан

Описание: Машина таксиста Кита Латуры в момент взрыва оказывается на въезде в огромный подводный тоннель, ведущий в Нью-Джерси. Огромный огненный шар проносится по тоннелю. В живых остаётся только дюжина испуганных людей. Без посторонней помощи им не выбраться. Кит Латура совершает отчаянную попытку пробраться в тоннель и вывести из него людей. Много лет назад он работал в службе спасения, но был уволен, когда сотрудники, находившиеся у него в подчинении, погибли, выполняя его приказы. Теперь у Латуры появляется шанс искупить свою вину. Он должен спасти беззащитных людей...

Качество: BDRip 720p Сравнение с исходникомФормат: MKVВидео кодек: H.264Аудио кодек: AC3Видео: 4747 Кбит/с, 1280x694, 23.976 кадра/с, 0.223 bppАудио 1: русский, AC3, 192 kbps, 2 ch, 48 kHz [дублированный]Аудио 2: русский, AC3, 192 kbps, 2 ch, 48 kHz [профессиональный многоголосый, СТС]Аудио 3: русский, AC3, 192 kbps, 2 ch, 48 kHz [профессиональный одноголосый, Сергей Визгунов, перевод - Krasnovv]Аудио 4: русский, AC3, 448 kbps, 6 ch, 48 kHz [авторский, Андрей Гаврилов]Аудио 5: русский, AC3, 448 kbps, 6 ch, 48 kHz [авторский, Юрий Живов]Аудио 5: русский, AC3, 448 kbps, 6 ch, 48 kHz [авторский, Юрий Медведев]Аудио 7: английский, AC3, 448 kbps, 6 ch, 48 kHz [оригинал]

frame I:1155 Avg QP:17.38 size: 84937frame P:35636 Avg QP:18.68 size: 44765frame B:127796 Avg QP:21.07 size: 19605

ОбщееУникальный идентификатор : 237379979287735533795430597724701083820 (0xB295B89579EE19D791A3FA34D39248AC)Полное имя : D:VideoDnevnoj svet.1996.BDRip.720p.mkvФормат : MatroskaВерсия формата : Version 4 / Version 2Размер файла : 5,81 ГбайтПродолжительность : 1 ч. 54 м.Общий поток : 7259 Кбит/секДата кодирования : UTC 2015-03-29 03:56:09Программа кодирования : mkvmerge v7.7.0 ('Six Voices') 64bit built on Feb 28 2015 23:39:33Библиотека кодирования : libebml v1.3.1 + libmatroska v1.4.2_STATISTICS_WRITING_APP : mkvmerge v7.7.0 ('Six Voices') 64bit built on Feb 28 2015 23:39:33_STATISTICS_WRITING_DATE_UTC : 2015-03-29 03:56:09_STATISTICS_TAGS : BPS DURATION NUMBER_OF_FRAMES NUMBER_OF_BYTESDURATION : 01:54:24.672000000NUMBER_OF_FRAMES : 214521NUMBER_OF_BYTES : 384421632

ВидеоИдентификатор : 1Формат : AVCФормат/Информация : Advanced Video CodecПрофиль формата : [email protected]Параметр CABAC формата : ДаПараметр ReFrames формата : 9 кадровИдентификатор кодека : V_MPEG4/ISO/AVCПродолжительность : 1 ч. 54 м.Битрейт : 4747 Кбит/секШирина : 1280 пикселейВысота : 694 пикселяСоотношение сторон : 1,85:1Режим частоты кадров : ПостоянныйЧастота кадров : 23,976 кадра/секЦветовое пространство : YUVСубдискретизация насыщенности : 4:2:0Битовая глубина : 8 битТип развёртки : ПрогрессивнаяБит/(Пиксели*Кадры) : 0.223Размер потока : 3,80 Гбайт (65%)Заголовок : BDRip -- STarankovБиблиотека кодирования : x264 core 142 r2431 ac76440Настройки программы : cabac=1 / ref=9 / deblock=1:-1:-1 / analyse=0x3:0x113 / me=umh / subme=10 / psy=1 / psy_rd=1.00:0.15 / mixed_ref=1 / me_range=32 / chroma_me=1 / trellis=2 / 8x8dct=1 / cqm=0 / deadzone=21,11 / fast_pskip=1 / chroma_qp_offset=-3 / threads=6 / lookahead_threads=1 / sliced_threads=0 / nr=0 / decimate=1 / interlaced=0 / bluray_compat=0 / constrained_intra=0 / bframes=8 / b_pyramid=2 / b_adapt=2 / b_bias=0 / direct=3 / weightb=1 / open_gop=0 / weightp=2 / keyint=230 / keyint_min=23 / scenecut=40 / intra_refresh=0 / rc_lookahead=40 / rc=crf / mbtree=0 / crf=19.5 / qcomp=0.60 / qpmin=0 / qpmax=69 / qpstep=4 / vbv_maxrate=40000 / vbv_bufsize=50000 / crf_max=0.0 / nal_hrd=none / filler=0 / ip_ratio=1.40 / pb_ratio=1.30 / aq=1:1.00Язык : EnglishDefault : ДаForced : НетDURATION : 01:54:24.650000000NUMBER_OF_FRAMES : 164587NUMBER_OF_BYTES : 4198832691_STATISTICS_WRITING_APP : mkvmerge v7.7.0 ('Six Voices') 64bit built on Feb 28 2015 23:39:33_STATISTICS_WRITING_DATE_UTC : 2015-03-29 03:56:09_STATISTICS_TAGS : BPS DURATION NUMBER_OF_FRAMES NUMBER_OF_BYTES

Аудио #1Идентификатор : 2Формат : AC-3Формат/Информация : Audio Coding 3Расширение режима : CM (complete main)Параметр Endianness формата : BigИдентификатор кодека : A_AC3Продолжительность : 1 ч. 54 м.Вид битрейта : ПостоянныйБитрейт : 192 Кбит/секКаналы : 2 каналаРасположение каналов : Front: L RЧастота : 48,0 КГцБитовая глубина : 16 битМетод сжатия : С потерямиРазмер потока : 157 Мбайт (3%)Заголовок : DUBЯзык : RussianDefault : ДаForced : Нет

Аудио #2Идентификатор : 3Формат : AC-3Формат/Информация : Audio Coding 3Расширение режима : CM (complete main)Параметр Endianness формата : BigИдентификатор кодека : A_AC3Продолжительность : 1 ч. 54 м.Вид битрейта : ПостоянныйБитрейт : 192 Кбит/секКаналы : 2 каналаРасположение каналов : Front: L RЧастота : 48,0 КГцБитовая глубина : 16 битМетод сжатия : С потерямиРазмер потока : 157 Мбайт (3%)Заголовок : MVO (CTC)Язык : RussianDefault : НетForced : Нет

Аудио #3Идентификатор : 4Формат : AC-3Формат/Информация : Audio Coding 3Расширение режима : CM (complete main)Параметр Endianness формата : BigИдентификатор кодека : A_AC3Продолжительность : 1 ч. 54 м.Вид битрейта : ПостоянныйБитрейт : 192 Кбит/секКаналы : 2 каналаРасположение каналов : Front: L RЧастота : 48,0 КГцБитовая глубина : 16 битМетод сжатия : С потерямиЗадержка видео : 24 мс.Размер потока : 157 Мбайт (3%)Заголовок : VO (Сергей Визгунов, перевод - Krasnovv)Язык : RussianDefault : НетForced : Нет

Аудио #4Идентификатор : 5Формат : AC-3Формат/Информация : Audio Coding 3Расширение режима : CM (complete main)Параметр Endianness формата : BigИдентификатор кодека : A_AC3Продолжительность : 1 ч. 54 м.Вид битрейта : ПостоянныйБитрейт : 448 Кбит/секКаналы : 6 каналовРасположение каналов : Front: L C R, Side: L R, LFEЧастота : 48,0 КГцБитовая глубина : 16 битМетод сжатия : С потерямиРазмер потока : 367 Мбайт (6%)Заголовок : AVO (Андрей Гаврилов)Язык : RussianDefault : НетForced : Нет

Аудио #5Идентификатор : 6Формат : AC-3Формат/Информация : Audio Coding 3Расширение режима : CM (complete main)Параметр Endianness формата : BigИдентификатор кодека : A_AC3Продолжительность : 1 ч. 54 м.Вид битрейта : ПостоянныйБитрейт : 448 Кбит/секКаналы : 6 каналовРасположение каналов : Front: L C R, Side: L R, LFEЧастота : 48,0 КГцБитовая глубина : 16 битМетод сжатия : С потерямиРазмер потока : 367 Мбайт (6%)Заголовок : AVO (Юрий Живов)Язык : RussianDefault : НетForced : Нет

Аудио #6Идентификатор : 7Формат : AC-3Формат/Информация : Audio Coding 3Расширение режима : CM (complete main)Параметр Endianness формата : BigИдентификатор кодека : A_AC3Продолжительность : 1 ч. 54 м.Вид битрейта : ПостоянныйБитрейт : 448 Кбит/секКаналы : 6 каналовРасположение каналов : Front: L C R, Side: L R, LFEЧастота : 48,0 КГцБитовая глубина : 16 битМетод сжатия : С потерямиРазмер потока : 367 Мбайт (6%)Заголовок : AVO (Юрий Медведев)Язык : RussianDefault : НетForced : Нет

Аудио #7Идентификатор : 8Формат : AC-3Формат/Информация : Audio Coding 3Расширение режима : CM (complete main)Параметр Endianness формата : BigИдентификатор кодека : A_AC3Продолжительность : 1 ч. 54 м.Вид битрейта : ПостоянныйБитрейт : 448 Кбит/секКаналы : 6 каналовРасположение каналов : Front: L C R, Side: L R, LFEЧастота : 48,0 КГцБитовая глубина : 16 битМетод сжатия : С потерямиРазмер потока : 367 Мбайт (6%)Заголовок : OriginalЯзык : EnglishDefault : НетForced : Нет

Скачать Дневной свет через торрент http://i60.fastpic.ru/big/2015/0329/14/cb33314712e82d46ece9618ba257c314.jpg Скачать фильм Дневной свет через торрент бесплантно в хорошем качестве Описание: Машина таксиста Кита Латуры в момент взрыва оказывается на въезде в огромный подводный тоннель, ведущий в Нью-Джерси. Огромный ... 2015-03-29 08:37 10 10 3

Loading...

Loading...

Рекламный пират

29-03-2015 10:36 Дневной свет Скачать торрент  

Не смотрел, странно.Спасибо

Дорогой пользователь! Огромная просьба, поблагодарите релизера, оцените раздачу и оставьте свои комментарий, если Вы скачали Дневной свет через торрент бесплатно! Внесите свою лепту в развитие PiratBit!

Комментировать посты могут только пользователи прошедшие не сложную регистрацию

Дневной свет через торрент Скачать бесплатно Дневной свет Дневной свет скачать торрент Дневной свет смотреть онлайн Cкачать фильм Дневной свет бесплатно Дневной свет скачать торрент в хорошем качестве Дневной свет смотреть онлайн бесплатно в хорошем качестве

Вы не можете начинать темыВы не можете отвечать на сообщенияВы не можете редактировать свои сообщенияВы не можете удалять свои сообщенияВы не можете голосовать в опросахВы не можете прикреплять файлы к сообщениямВы можете скачивать файлы

piratbit.ru


Смотрите также