Скачать через торрент фильм мы купили зоопарк в хорошем качестве


Скачать фильм Мы купили зоопарк через торрент в хорошем качестве бесплатно 720p)

Размер: 7.25 GB | Добавлен: 5 лет 5 мес. назад | Торрент скачан:111 раз
Реклама Дарим 3000 рублей за регистрацию, не упусти свой шанс получить шикарный бонус!!!

28-04-2012 07:03 Мы купили зоопарк Скачать торрент  

Мы купили зоопарк / We Bought a Zoo

Год выпуска: 2011Страна: США / Twentieth Century Fox Film Corporation, LBI Entertainment, Vinyl FilmsЖанр: драма, комедия, семейныйПродолжительность: 02:03:54Перевод: Дубляж + Оригинал

Режиссер: Кэмерон Кроу

В ролях: Мэтт Дэймон, Скарлетт Йоханссон, Томас Хейден Чёрч, Колин Форд, Мэгги Джонс, Энгус МакФадьен, Эль Фаннинг, Патрик Фьюджит, Джон Майкл Хиггинс, Карла Галло

Описание: Лента рассказывает о том, как британское семейство Ми потратило все сбережения, чтобы спасти заброшенный сельский зверинец с двумя сотнями экзотических животных, которым грозила гибель.

Качество: BDRip (720p)Формат: MKVВидео кодек:AVCАудио кодек: DTS,AC3Видео: AVC, 1280x694 (16:9), 23.976 fps, 5 647 Kbps (0.265 bit/pixel)Аудио#1: DTS, 48.0 KHz, 6 ch, 755 Kbps, CBR (Russian)Аудио#2: AC-3, 48.0 KHz, 6 ch, 448 Kbps, CBR (Ukrainian)Аудио#3: DTS, 48.0 KHz, 6 ch, 1 510 Kbps, CBR (English)Субтитры: Русские, украинские, английские

GeneralUnique ID : 171208809576878290649604160450063823658 (0x80CD9E0812F4DAFAA20CE1707128F32A)Complete name : D:\Софт\Хлам\MKVToolnix 5.5.0.439 + Portable\My.kupili.zoopark.2011.x264.BDRip.720p.Uniongang.mkvFormat : MatroskaFile size : 7.25 GiBDuration : 2h 3mnOverall bit rate : 8 376 KbpsMovie name : My.kupili.zoopark.2011.D.BDRip.720p.[uniongang.tv] by sstonecoldEncoded date : UTC 2012-04-27 22:24:01Writing application : mkvmerge v5.2.0 ('I can't explain') built on Dec 18 2011 18:12:03Writing library : libebml v1.2.3 + libmatroska v1.3.0

VideoID : 1Format : AVCFormat/Info : Advanced Video CodecFormat profile : [email protected] settings, CABAC : YesFormat settings, ReFrames : 9 framesCodec ID : V_MPEG4/ISO/AVCDuration : 2h 3mnBit rate : 5 647 KbpsWidth : 1 280 pixelsHeight : 694 pixelsDisplay aspect ratio : 16:9Frame rate : 23.976 fpsColor space : YUVChroma subsampling : 4:2:0Bit depth : 8 bitsScan type : ProgressiveBits/(Pixel*Frame) : 0.265Stream size : 4.76 GiB (66%)Title : My.kupili.zoopark.2011.D.BDRip.720p.[uniongang.tv] by sstonecoldWriting library : x264 core 122 r2184 5c85e0aEncoding settings : cabac=1 / ref=9 / deblock=1:-3:-3 / analyse=0x3:0x113 / me=tesa / subme=11 / psy=1 / psy_rd=1.10:0.02 / mixed_ref=1 / me_range=32 / chroma_me=1 / trellis=2 / 8x8dct=1 / cqm=0 / deadzone=21,11 / fast_pskip=0 / chroma_qp_offset=-3 / threads=12 / sliced_threads=0 / nr=0 / decimate=1 / interlaced=0 / bluray_compat=0 / constrained_intra=0 / bframes=6 / b_pyramid=2 / b_adapt=2 / b_bias=0 / direct=3 / weightb=1 / open_gop=0 / weightp=2 / keyint=240 / keyint_min=23 / scenecut=40 / intra_refresh=0 / rc_lookahead=80 / rc=2pass / mbtree=1 / bitrate=5647 / ratetol=1.0 / qcomp=0.60 / qpmin=0 / qpmax=69 / qpstep=4 / cplxblur=20.0 / qblur=0.5 / vbv_maxrate=40000 / vbv_bufsize=40000 / nal_hrd=none / ip_ratio=1.40 / aq=1:0.80 / zones=171050,178249,b=0.1Language : English

Audio #1ID : 2Format : DTSFormat/Info : Digital Theater SystemsCodec ID : A_DTSDuration : 2h 3mnBit rate mode : ConstantBit rate : 755 KbpsChannel(s) : 6 channelsChannel positions : Front: L C R, Side: L R, LFESampling rate : 48.0 KHzBit depth : 24 bitsCompression mode : LossyStream size : 669 MiB (9%)Language : Russian

Audio #2ID : 3Format : AC-3Format/Info : Audio Coding 3Mode extension : CM (complete main)Codec ID : A_AC3Duration : 2h 3mnBit rate mode : ConstantBit rate : 448 KbpsChannel(s) : 6 channelsChannel positions : Front: L C R, Side: L R, LFESampling rate : 48.0 KHzBit depth : 16 bitsCompression mode : LossyStream size : 397 MiB (5%)Language : Ukrainian

Audio #3ID : 4Format : DTSFormat/Info : Digital Theater SystemsCodec ID : A_DTSDuration : 2h 3mnBit rate mode : ConstantBit rate : 1 510 KbpsChannel(s) : 6 channelsChannel positions : Front: L C R, Side: L R, LFESampling rate : 48.0 KHzBit depth : 24 bitsCompression mode : LossyStream size : 1.31 GiB (18%)Language : English

Text #1ID : 5Format : UTF-8Codec ID : S_TEXT/UTF8Codec ID/Info : UTF-8 Plain TextLanguage : Russian

Text #2ID : 6Format : UTF-8Codec ID : S_TEXT/UTF8Codec ID/Info : UTF-8 Plain TextLanguage : Ukrainian

Text #3ID : 7Format : UTF-8Codec ID : S_TEXT/UTF8Codec ID/Info : UTF-8 Plain TextLanguage : English

Menu00:00:00.000 : en:00:00:00.00000:04:35.150 : en:00:04:35.15000:08:08.238 : en:00:08:08.23800:11:03.496 : en:00:11:03.49600:14:33.873 : en:00:14:33.87300:16:50.509 : en:00:16:50.50900:21:23.699 : en:00:21:23.69900:24:29.051 : en:00:24:29.05100:26:37.429 : en:00:26:37.42900:30:45.260 : en:00:30:45.26000:35:46.895 : en:00:35:46.89500:40:48.696 : en:00:40:48.69600:44:19.949 : en:00:44:19.94900:47:20.087 : en:00:47:20.08700:50:14.303 : en:00:50:14.30300:56:31.888 : en:00:56:31.88801:00:10.190 : en:01:00:10.19001:03:01.987 : en:01:03:01.98701:07:29.671 : en:01:07:29.67101:11:31.287 : en:01:11:31.28701:15:40.411 : en:01:15:40.41101:19:30.307 : en:01:19:30.30701:24:01.578 : en:01:24:01.57801:26:47.911 : en:01:26:47.91101:30:31.426 : en:01:30:31.42601:34:01.177 : en:01:34:01.17701:37:34.307 : en:01:37:34.30701:44:03.028 : en:01:44:03.02801:48:26.250 : en:01:48:26.25001:52:46.385 : en:01:52:46.38501:55:57.701 : en:01:55:57.70101:58:56.004 : en:01:58:56.004

Скачать Мы купили зоопарк через торрент http://linkme.ufanet.ru/images/525f7952ab2f52094bddc1a3a986f805.png Скачать фильм Мы купили зоопарк через торрент бесплантно в хорошем качестве Описание: Лента рассказывает о том, как британское семейство Ми потратило все сбережения, чтобы спасти заброшенный сельский зверинец с ... 2012-04-28 07:03 5 10 2

Loading...

Loading...

Последний раз редактировалось: ~Relizer~ (2012-04-28 07:22), всего редактировалось 2 раз(а)

Рекламный пират

28-04-2012 07:12 Мы купили зоопарк Скачать торрент  

Действительно, семейный фильм. Для меня малость скучноват, но в целом неплох.7 из 10 - моя оценка.

Последний раз редактировалось: Monarch (2012-04-30 09:22), всего редактировалось 1 раз

28-04-2012 07:15 Мы купили зоопарк Скачать торрент  

Monarch писал(а):

На раздачу встань.

НЕ ВСЕ СРАЗУ ЖДИТЕ

28-04-2012 07:34 Мы купили зоопарк Скачать торрент  

спс, посмотримс!

28-04-2012 07:41 Мы купили зоопарк Скачать торрент  

1080 на подходе)

Дорогой пользователь! Огромная просьба, поблагодарите релизера, оцените раздачу и оставьте свои комментарий, если Вы скачали Мы купили зоопарк через торрент бесплатно! Внесите свою лепту в развитие PiratBit!

Комментировать посты могут только пользователи прошедшие не сложную регистрацию

Мы купили зоопарк через торрент Скачать бесплатно Мы купили зоопарк Мы купили зоопарк скачать торрент Мы купили зоопарк смотреть онлайн Cкачать фильм Мы купили зоопарк бесплатно Мы купили зоопарк скачать торрент в хорошем качестве Мы купили зоопарк смотреть онлайн бесплатно в хорошем качестве

Вы не можете начинать темыВы не можете отвечать на сообщенияВы не можете редактировать свои сообщенияВы не можете удалять свои сообщенияВы не можете голосовать в опросахВы не можете прикреплять файлы к сообщениямВы можете скачивать файлы

piratbit.ru

Скачать фильм Мы купили зоопарк через торрент в хорошем качестве бесплатно HDRip

Размер: 747 MB | Добавлен: 4 года 4 мес. назад | Торрент скачан:69 раз
Реклама Дарим 3000 рублей за регистрацию, не упусти свой шанс получить шикарный бонус!!!

23-06-2013 14:19 Мы купили зоопарк Скачать торрент  

Мы купили зоопарк / We Bought a Zoo
  • Год выпуска
  • :2011
  • Страна: США
  • Жанр:драма, семейный
  • Продолжительность: 02:03:54
  • Перевод:Профессиональный (полное дублирование)[Лицензия ]
  • Субтитры: Нет
    • Режиссер
    • : Кэмерон Кроу / Cameron Crowe
    • Продюсер: Кэмерон Кроу / Cameron Crowe, Джули Силверман / Julie Silverman, Рик Йорн / Rick Yorn, Пол Дисон / Paul Deason, Марк Гордон / Marc Gordon
    • Сценарий:Алин Брош МакКенна / Aline Brosh McKenna, Кэмерон Кроу / Cameron Crowe, Бенжамин Ми / Benjamin Mee
  • В ролях
  • :Мэтт Дэймон (Benjamin Mee), Скарлетт Йоханссон (Kelly Foster), Томас Хейден Чёрч (Duncan Mee), Колин Форд (Dylan Mee), Мэгги Элизабет Джонс (Rosie Mee), Энгус МакФадьен (Peter MacCready), Эль Фаннинг (Lily Miska), Патрик Фьюджит (Robin Jones), Джон Майкл Хиггинс (Walter Ferris), Карла Галло (Rhonda Blair), Дж.Б. Смув (Mr. Stevens), Стефани Зостак (Katherine Mee)
    • Описание
    • :Лента рассказывает о том, как британское семейство Ми потратило все сбережения, чтобы спасти заброшенный сельский зверинец с двумя сотнями экзотических животных, которым грозила гибель.
  • Рейтингkinopoisk.ru: 7.703 (19 493)imdb.com: 7.10 (61 769)MPAA: PG - Рекомендуется присутствие родителей
    • Качество
    • : HDRip
    • Формат
    : AVI
  • Видео кодек
  • : XviD
  • Аудио кодек
  • : MP3
  • Видео: XviD, 592x320 (1.850), 705 kbps, 23,976 fps, 0,155 bpp
  • Аудио: MP3 / 2.0 / 48 kHz / 128 kbps / GeneralComplete name : D:ТорентыMy.kupili.zoopark.2011.HDRip.by.Scarabey.aviFormat : AVIFormat/Info : Audio Video InterleaveFile size : 747 MiBDuration : 2h 3mnOverall bit rate : 843 KbpsWriting application : VirtualDubMod 1.5.10.2 (build 2540/release)Writing library : VirtualDubMod build 2540/release

    VideoID : 0Format : MPEG-4 VisualFormat profile : Advanced [email protected] settings, BVOP : 1Format settings, QPel : NoFormat settings, GMC : No warppointsFormat settings, Matrix : CustomCodec ID : XVIDCodec ID/Hint : XviDDuration : 2h 3mnBit rate : 705 KbpsWidth : 592 pixelsHeight : 320 pixelsDisplay aspect ratio : 1.850Frame rate : 23.976 fpsColor space : YUVChroma subsampling : 4:2:0Bit depth : 8 bitsScan type : ProgressiveCompression mode : LossyBits/(Pixel*Frame) : 0.155Stream size : 625 MiB (84%)Writing library : XviD 1.2.1 (UTC 2008-12-04)

    AudioID : 1Format : MPEG AudioFormat version : Version 1Format profile : Layer 3Codec ID : 55Codec ID/Hint : MP3 Duration : 2h 3mnBit rate mode : ConstantBit rate : 128 KbpsChannel(s) : 2 channelsSampling rate : 48.0 KHzCompression mode : LossyStream size : 113 MiB (15%)Alignment : Aligned on interleavesInterleave, duration : 42 ms (1.00 video frame)Interleave, preload duration : 504 msWriting library : LAME3.97 Encoding settings : -m s -V 4 -q 2 -lowpass 17 -b 128

    • В фильме в камео появляется вся семья Ми - отец Бенджамин и дети Мило и Элла. Это первая семья в очереди посетителей, когда герой Мэтта Дэймона перелезает через дерево. Среди публики в зоопарке также можно заметить детей режиссера Кэмерона Кроу, одиннадцатилетних на тот момент близнецов Уильяма Джеймса и Кёртиса Уилсона.
    • В реальной истории дети Бенжамина Ми были значительно младше, чем в фильме. На момент покупки зоопарка брату и сестре было соответственно 6 и 4 года.
    • По согласованию с самим Бенжамином Ми место нахождения зоопарка было перенесено из Англии в Калифорнию. Это было сделано ради большего успеха фильма у американской публики. Структура зоопарка и расположение основных секций в фильме были сохранены.
    • Основой для фильма послужили опубликованные в феврале 2009 года мемуары Бенжамина Ми под названием «We Bought a Zoo: The Amazing True Story of a Broken-Down Zoo, and the 200 Animals That Changed a Family Forever» («Мы купили зоопарк: Потрясающая подлинная история разбитого зоопарка и 200 животных, которые изменили семью навсегда»). Права на экранизацию его книги были практически сразу же куплены студией 20th Century Fox.
    • В августе 2006 года Бенжамин Ми со своей семьей приобрёл за 1,1 млн британских фунтов на тот момент закрытый Дартмурский зоопарк, который расположен в окрестностях деревушки Спарквелл, графство Девоншир, юго-западная Англия. После серьёзной реорганизации и перестройки зоопарк был снова открыт для публики 7 июля 2007 года.
    • Обезьянка капуцин Кристал уже имела большой опыт «работы» в кино. Перед этим она «снималась» в таких фильмах как «Ночь в музее» (2006), «Мальчишник 2: Из Вегаса в Бангкок» (2011) и «Мой парень из зоопарка» (2011).
    • Помимо Скарлетт Йоханссон другими кандидатурами на роль Келли Фостер были Эми Адамс, Мэри Элизабет Уинстэд и Рэйчел МакАдамс.
    • еще 4 факта
    Сценарий: Алин Брош МакКенна / Aline Brosh McKenna, Кэмерон Кроу / Cameron Crowe, Бенжамин Ми / Benjamin MeeПродюсер: Кэмерон Кроу / Cameron Crowe, Джули Силверман / Julie Silverman, Рик Йорн / Rick Yorn, Пол Дисон / Paul Deason, Марк Гордон / Marc GordonОператор: Родриго Прието / Rodrigo PrietoКомпозитор: Йоун Тоур Биргиссон / Jón Þór Birgisson

    Сборы в США: $75 624 550Сборы в России: $1 573 000Сборы в мире: $120 081 841

    Мировая премьера: 26 ноября 2011Релиз на DVD: 17 мая 2012, «Двадцатый Век Фокс СНГ»Релиз на Blu-ray: 17 мая 2012, «Двадцатый Век Фокс СНГ»

  • © Оформление by Vetal Скачать Мы купили зоопарк через торрент http://i47.fastpic.ru/big/2013/0623/30/8cc68a4740ae3814ac682583fca50030.png Скачать фильм Мы купили зоопарк через торрент бесплантно в хорошем качестве Описание:Лента рассказывает о том, как британское семейство Ми потратило все сбережения, чтобы спасти заброшенный сельский зверинец с двумя ... 2013-06-23 14:19 8 10 3

    Loading...

    Loading...

    Рекламный пират

    23-06-2013 15:13 Мы купили зоопарк Скачать торрент  

    Фильм норм ? Или стоит смотреть только из за Йоханссон ?

    Дорогой пользователь! Огромная просьба, поблагодарите релизера, оцените раздачу и оставьте свои комментарий, если Вы скачали Мы купили зоопарк через торрент бесплатно! Внесите свою лепту в развитие PiratBit!

    Комментировать посты могут только пользователи прошедшие не сложную регистрацию

    Мы купили зоопарк через торрент Скачать бесплатно Мы купили зоопарк Мы купили зоопарк скачать торрент Мы купили зоопарк смотреть онлайн Cкачать фильм Мы купили зоопарк бесплатно Мы купили зоопарк скачать торрент в хорошем качестве Мы купили зоопарк смотреть онлайн бесплатно в хорошем качестве

    Вы не можете начинать темыВы не можете отвечать на сообщенияВы не можете редактировать свои сообщенияВы не можете удалять свои сообщенияВы не можете голосовать в опросахВы не можете прикреплять файлы к сообщениямВы можете скачивать файлы

    piratbit.ru

    Скачать фильм Мы купили зоопарк через торрент в хорошем качестве бесплатно 1080p)

    GeneralUnique ID : 215451932728910832929753094237682876621 (0xA216886AF2422C9D9B4090031F5F40CD)Complete name : D:\We.Bought.A.Zoo.2011.D.BDRip.1080p.IRONCLUB.mkvFormat : MatroskaFile size : 14.6 GiBDuration : 2h 3mnOverall bit rate : 16.9 MbpsMovie name : Мы Купили Зоопарк / We Bought A Zoo (2011) .....:::IRONCLUB:::..... [JTR]Encoded date : UTC 2012-04-27 23:23:32Writing application : mkvmerge v5.5.0 ('Healer') built on Apr 6 2012 21:43:24Writing library : libebml v1.2.3 + libmatroska v1.3.0

    VideoID : 1Format : AVCFormat/Info : Advanced Video CodecFormat profile : [email protected] settings, CABAC : YesFormat settings, ReFrames : 4 framesCodec ID : V_MPEG4/ISO/AVCDuration : 2h 3mnBit rate : 13.5 MbpsWidth : 1 920 pixelsHeight : 1 040 pixelsDisplay aspect ratio : 16:9Frame rate : 23.976 fpsColor space : YUVChroma subsampling : 4:2:0Bit depth : 8 bitsScan type : ProgressiveBits/(Pixel*Frame) : 0.282Stream size : 11.4 GiB (78%)Title : We.Bought.A.Zoo.2011.1080p.Blu-ray.DTS.x264-ESiRWriting library : x264 core 122 r2184 5c85e0aEncoding settings : cabac=1 / ref=4 / deblock=1:-3:-3 / analyse=0x3:0x133 / me=tesa / subme=11 / psy=1 / psy_rd=1.05:0.10 / mixed_ref=1 / me_range=32 / chroma_me=1 / trellis=2 / 8x8dct=1 / cqm=0 / deadzone=21,11 / fast_pskip=0 / chroma_qp_offset=-3 / threads=6 / sliced_threads=0 / nr=0 / decimate=1 / interlaced=0 / bluray_compat=0 / constrained_intra=0 / bframes=16 / b_pyramid=2 / b_adapt=2 / b_bias=0 / direct=3 / weightb=1 / open_gop=0 / weightp=2 / keyint=250 / keyint_min=23 / scenecut=40 / intra_refresh=0 / rc_lookahead=60 / rc=2pass / mbtree=1 / bitrate=13500 / ratetol=1.0 / qcomp=0.60 / qpmin=0 / qpmax=69 / qpstep=4 / cplxblur=20.0 / qblur=0.5 / ip_ratio=1.40 / aq=2:0.80Language : English

    Audio #1ID : 2Format : AC-3Format/Info : Audio Coding 3Mode extension : CM (complete main)Codec ID : A_AC3Duration : 2h 3mnBit rate mode : ConstantBit rate : 640 KbpsChannel(s) : 6 channelsChannel positions : Front: L C R, Side: L R, LFESampling rate : 48.0 KHzBit depth : 16 bitsCompression mode : LossyStream size : 567 MiB (4%)Title : AC3 5.1 @ 640 kb/s [Russian DUB, Blu-ray EUR]Language : Russian

    Audio #2ID : 3Format : DTSFormat/Info : Digital Theater SystemsCodec ID : A_DTSDuration : 2h 3mnBit rate mode : ConstantBit rate : 755 KbpsChannel(s) : 6 channelsChannel positions : Front: L C R, Side: L R, LFESampling rate : 48.0 KHzBit depth : 24 bitsCompression mode : LossyStream size : 669 MiB (4%)Title : DTS 5.1 @ 755 kb/s [Russian DUB, Blu-ray EUR]Language : Russian

    Audio #3ID : 4Format : AC-3Format/Info : Audio Coding 3Mode extension : CM (complete main)Codec ID : A_AC3Duration : 2h 3mnBit rate mode : ConstantBit rate : 448 KbpsChannel(s) : 6 channelsChannel positions : Front: L C R, Side: L R, LFESampling rate : 48.0 KHzBit depth : 16 bitsCompression mode : LossyStream size : 397 MiB (3%)Title : AC3 5.1 @ 448 kb/s [Ukrainian DUB, Blu-ray EUR]Language : Ukrainian

    Audio #4ID : 5Format : DTSFormat/Info : Digital Theater SystemsCodec ID : A_DTSDuration : 2h 3mnBit rate mode : ConstantBit rate : 1 510 KbpsChannel(s) : 6 channelsChannel positions : Front: L C R, Side: L R, LFESampling rate : 48.0 KHzBit depth : 24 bitsCompression mode : LossyStream size : 1.31 GiB (9%)Title : DTS 5.1 @ 1510 kb/s [English]Language : English

    Text #1ID : 6Format : UTF-8Codec ID : S_TEXT/UTF8Codec ID/Info : UTF-8 Plain TextTitle : RussianLanguage : Russian

    Text #2ID : 7Format : UTF-8Codec ID : S_TEXT/UTF8Codec ID/Info : UTF-8 Plain TextTitle : EnglishLanguage : English

    Menu00:00:00.000 : en:00:00:00.00000:04:35.150 : en:00:04:35.15000:08:08.238 : en:00:08:08.23800:11:03.496 : en:00:11:03.49600:14:33.873 : en:00:14:33.87300:16:50.509 : en:00:16:50.50900:21:23.699 : en:00:21:23.69900:24:29.051 : en:00:24:29.05100:26:37.429 : en:00:26:37.42900:30:45.260 : en:00:30:45.26000:35:46.895 : en:00:35:46.89500:40:48.696 : en:00:40:48.69600:44:19.949 : en:00:44:19.94900:47:20.087 : en:00:47:20.08700:50:14.303 : en:00:50:14.30300:56:31.888 : en:00:56:31.88801:00:10.190 : en:01:00:10.19001:03:01.987 : en:01:03:01.98701:07:29.671 : en:01:07:29.67101:11:31.287 : en:01:11:31.28701:15:40.411 : en:01:15:40.41101:19:30.307 : en:01:19:30.30701:24:01.578 : en:01:24:01.57801:26:47.911 : en:01:26:47.91101:30:31.426 : en:01:30:31.42601:34:01.177 : en:01:34:01.17701:37:34.307 : en:01:37:34.30701:44:03.028 : en:01:44:03.02801:48:26.250 : en:01:48:26.25001:52:46.385 : en:01:52:46.38501:55:57.701 : en:01:55:57.70101:58:56.004 : en:01:58:56.004

    piratbit.ru

    Скачать фильм Мы купили зоопарк (2011) через торрент

    21 января 2016 13:26 Мы купили зоопарк / We Bought a Zoo (2011) HDRip от Scarabey | D .torrent   [Информация о файле (нажмите для просмотра)] Перевод: Профессиональный (полное дублирование) [Лицензия]Видео: 704x384 (1.83:1), 23.976 fps, XviD build 50 ~1475 kbps avg, 0.23 bit/pixelАудио: 48 kHz, AC3 Dolby Digital, 2/0 (L,R) ch, ~192.00 kbps avg 1,45 Gb 96 10 21 января 2016 13:26 Мы купили зоопарк / We Bought a Zoo (2011) HDRip-AVC | D .torrent   [Информация о файле (нажмите для просмотра)] Перевод: ДубляжСубтитры: Русские [Full, Forced], Английские [Full, SDH]Кодек: x264,Качество: HDRip-AVCВидео: 896x504 (16:9), 23.976 fps, ~717 kbps avg,Аудио: 48 kHz, AAC-HE, 2 ch, Front: L R ~120 kbps avgВидео: Идентификатор : 1 Формат : AVC Формат/Информация : Advanced Video Codec Профиль формата : [email protected] Параметр CABAC формата : Да Параметр ReFrames формата : 8 кадров Идентификатор кодека : V_MPEG4/ISO/AVC Продолжительность : 2 ч. 3 м. Номинальный битрейт : 717 Кбит/сек Ширина : 896 пикселей Высота : 504 пикселя Соотношение сторон : 16:9 Режим частоты кадров : Постоянный Частота кадров : 23,976 кадра/сек Цветовое пространство : YUV Субдискретизация насыщенности : 4:2:0 Битовая глубина : 8 бит Тип развёртки : Прогрессивная Бит/(Пиксели*Кадры) : 0.066 Заголовок : Мы купили зоопарк Библиотека кодирования : x264 core 116 r2074 2641b9e Настройки программы : cabac=1 / ref=8 / deblock=1:-1:-1 / analyse=0x3:0x133 / me=umh / subme=7 / psy=1 / psy_rd=1.00:0.10 / mixed_ref=1 / me_range=16 / chroma_me=1 / trellis=2 / 8x8dct=1 / cqm=0 / deadzone=21,11 / fast_pskip=0 / chroma_qp_offset=-3 / threads=6 / sliced_threads=0 / nr=0 / decimate=1 / interlaced=0 / bluray_compat=0 / constrained_intra=0 / bframes=3 / b_pyramid=2 / b_adapt=2 / b_bias=0 / direct=3 / weightb=1 / open_gop=0 / weightp=2 / keyint=250 / keyint_min=23 / scenecut=40 / intra_refresh=0 / rc_lookahead=50 / rc=2pass / mbtree=1 / bitrate=717 / ratetol=1.0 / qcomp=0.60 / qpmin=0 / qpmax=69 / qpstep=4 / cplxblur=20.0 / qblur=0.5 / ip_ratio=1.40 / aq=1:1.00 Язык : English Default : Да Forced : НетАудио: Идентификатор : 2 Формат : AAC Формат/Информация : Advanced Audio Codec Профиль формата : HE-AAC / LC Идентификатор кодека : A_AAC Продолжительность : 2 ч. 3 м. Каналы : 2 канала Расположение каналов : Front: L R Частота : 48,0 КГц / 24,0 КГц Метод сжатия : С потерями Задержка видео : 31 мс. Заголовок : Дубляж (120 Кбит/сек) Язык : Russian Default : Да Forced : Нет 743,61 Mb 17 4 21 января 2016 13:26 Мы купили зоопарк / We Bought a Zoo (2011) BDRip-AVC | iPad .torrent   [Информация о файле (нажмите для просмотра)] Перевод: ДублированныйСубтитры: русские, английскиеФормат: MP4 (контейнер m4v)Видео: AVC, 1024x560 (16:9) at 23.976 fps, AVC at 2398 kbps avg, 0.174 bit/pixelАудио: Русский: 48 kHz, AAC, 2ch, 160 kbps | ДублированныйАудио: Английский: 48 kHz, AAC, 2ch, 160 Kbps | Оригинал 2,37 Gb 14 5 21 января 2016 13:26 Мы купили зоопарк / We Bought a Zoo (2011) DVD9 от New-Team | D | лицензия .torrent   [Информация о файле (нажмите для просмотра)] Перевод: Профессиональный (дублированный) [лицензия]Контейнер: DVD-VideoВидео: PAL 16:9 (720x576) VBR 5312 Kbps, 25 fps, Auto LetterboxedАудио 1: Английский (Dolby AC3, 6 ch) 448 Kbps 48kHzАудио 2: Русский (Dolby AC3, 6 ch) 384 Kbps 48kHzАудио 3: Польский (Dolby AC3, 6 ch) 384 Kbps 48kHzАудио 4: Украинский (Dolby AC3, 6 ch) 384 Kbps 48kHz 6,76 Gb 7 12 21 января 2016 13:26 Мы купили зоопарк / We Bought a Zoo (2011) HDRip от Scarabey .torrent   [Информация о файле (нажмите для просмотра)] Перевод: Профессиональный (дублированный) [лицензия]Кодек: XviDКачество: HDRipВидео: 592x320 (1.85:1), 23.976 fps, XviD build 50 ~705 kbps avg, 0.16 bit/pixelЗвук: 48 kHz, MPEG Layer 3, 2 ch, ~128.00 kbps avgСубтитры: нет 746,9 Mb 25 2 21 января 2016 13:26 Мы купили зоопарк / We Bought a Zoo (2011) BDRemux .torrent   [Информация о файле (нажмите для просмотра)] Качество: BD RemuxПеревод: профессиональный (полное дублирование)Субтитры: русские (форсирование), русские, английские (форсирование), английские, украинскиеФормат: MKVВидео: MPEG-4 AVC, 1080p, High Profile 4.1, 1920x1080 16:9, 23.976 fps, ~ 18593 kbpsАудио 1: Английский: DTS-HD Master Audio, ~ 3738 kbps, 5.1, 48 kHz, 24-bit (DTS Core: 5.1, 48 kHz, ~ 1509 kbps, 24-bit)Аудио 2: Русский: DTS Audio, ~ 768 kbps, 5.1, 48 kHz, 24-bitАудио 3: Украинский: Dolby Digital Audio, ~ 448 kbps, 5.1, 48 kHz 20,3 Gb 6 2 21 января 2016 13:26 Мы купили зоопарк / We Bought a Zoo (2011) BDRip-AVC от R.G. AVI | AVC | Лицензия .torrent   [Информация о файле (нажмите для просмотра)] Перевод: Профессиональный (полное дублирование) [лицензия]Субтитры: Русские (Full, Forced), английские (Full, SDH), украинские (Full, Forced)Качество: BDRip-AVC [BDRemux]Формат: MKVВидео: H.264, 920x496 (1.85:1), 23,976 кадр/сек, 1750 Кбит/сек, 0.160 bit/pixelАудио #1: 48 kHz, AC3 Dolby Digital, 3/2 (L,C,R,l,r) + LFE ch, ~384.00 kbps avg |RUSАудио #2: 48 kHz, AC3 Dolby Digital, 3/2 (L,C,R,l,r) + LFE ch, ~384.00 kbps avg |ENGАудио #3: 48 kHz, AC3 Dolby Digital, 3/2 (L,C,R,l,r) + LFE ch, ~448.00 kbps avg |UKR (narod.ru) 2,18 Gb 33 5 21 января 2016 13:26 Мы купили зоопарк / We Bought a Zoo (2011) BDRip от HQCLUB .torrent   [Информация о файле (нажмите для просмотра)] Перевод: профессиональный (полное дублирование)Субтитры: русские (полные, форсированные), английские (полные, SDH), украинские (полные, форсированные)Формат: AVIКачество: BDRip (источник:Видео: 704x384 (1.83:1), 23.976 fps, XviD build 64 ~2069 kbps avg, 0.32 bit/pixelАудио #1: 48 kHz, AC3, 3/2 (L,C,R,l,r) + LFE ch, ~448 kbps avg (RUS)Аудио #2: 48 kHz, AC3, 3/2 (L,C,R,l,r) + LFE ch, ~448 kbps avg (UKR)(отдельно)Аудио #3: 48 kHz, AC3, 3/2 (L,C,R,l,r) + LFE ch, ~448 kbps avg (ENG)(отдельно) 2,18 Gb 51 4 21 января 2016 13:25 Мы купили зоопарк / We Bought a Zoo (2011) HDRip-AVC от ExKinoRay .torrent   [Информация о файле (нажмите для просмотра)] Перевод: ДублированныйСубтитры: Русские, английскиеКодек: H.264Качество: HDRip-AVCВидео: MPEG-4 AVC, 2000 Кбит/с, 1024x556, 23.976 кадра/сЗвук: Русский, английский (AC3, 6 ch, 448 Кбит/с) 2,51 Gb 15 2 21 января 2016 13:25 Мы купили зоопарк / We Bought a Zoo (2011) BDRip 1080p от FREEISLAND | лицензия .torrent   [Информация о файле (нажмите для просмотра)] Перевод: ДублированныйКодек: H.264Качество: BDRip 1080pВидео: 4666 Кбит/сек, 1920*1040 (16:9), в 23,976 кадр/сек, AVC ()Звук: Russian, 384 Кбит/сек, 48,0 КГц, 16 бит, 6 каналов, AC-3 RUS DubСубтитры: Russian, Ukrainian , English (srt)Видео: Идентификатор : 1 Формат : AVC Формат/Информация : Advanced Video Codec Профиль формата : [email protected] Параметр CABAC формата : Да Параметр ReFrames формата : 4 кадра Идентификатор кодека : V_MPEG4/ISO/AVC Продолжительность : 2 ч. 3 м. Битрейт : 4666 Кбит/сек Ширина : 1920 пикс. Высота : 1040 пикс. Соотношение сторон : 16:9 Частота кадров : 23,976 кадр/сек Цветовое пространство : YUV Подвыборка цветности : 4:2:0 Битовая глубина : 8 бит Тип развёртки : Прогрессивная Бит/(Пиксели*Кадры) : 0.097 Размер потока : 3,95 Гбайт (90%) Библиотека кодирования : x264 core 124 r2197 69a0443 Настройки программы : cabac=1 / ref=4 / deblock=1:-3:-3 / analyse=0x3:0x113 / me=umh / subme=10 / psy=1 / psy_rd=0.75:0.10 / mixed_ref=1 / me_range=32 / chroma_me=1 / trellis=2 / 8x8dct=1 / cqm=0 / deadzone=21,11 / fast_pskip=0 / chroma_qp_offset=-3 / threads=6 / sliced_threads=0 / nr=0 / decimate=1 / interlaced=0 / bluray_compat=0 / constrained_intra=0 / bframes=7 / b_pyramid=2 / b_adapt=2 / b_bias=0 / direct=3 / weightb=1 / open_gop=0 / weightp=2 / keyint=240 / keyint_min=23 / scenecut=40 / intra_refresh=0 / rc=2pass / mbtree=0 / bitrate=4666 / ratetol=1.0 / qcomp=0.70 / qpmin=0 / qpmax=69 / qpstep=4 / cplxblur=20.0 / qblur=0.5 / ip_ratio=1.40 / pb_ratio=1.30 / aq=2:0.90 Язык : English Основные цвета : BT.709-5, BT.1361, IEC 61966-2-4, SMPTE RP177 Характеристики трансфера : BT.709-5, BT.1361 Коэффициенты матрицы : BT.709-5, BT.1361, IEC 61966-2-4 709, SMPTE RP177Аудио: Идентификатор : 2 Формат : AC-3 Формат/Информация : Audio Coding 3 Расширение режима : CM (complete main) Идентификатор кодека : A_AC3 Продолжительность : 2 ч. 3 м. Вид битрейта : Постоянный Битрейт : 384 Кбит/сек Каналы : 6 каналов Расположение каналов : Front: L C R, Side: L R, LFE Частота : 48,0 КГц Битовая глубина : 16 бит Метод сжатия : С потерями Размер потока : 340 Мбайт (8%) Язык : Russian 4,37 Gb 57 1 21 января 2016 13:25 Мы купили зоопарк / We Bought a Zoo (2011) BDRip от HELLYWOOD .torrent   [Информация о файле (нажмите для просмотра)] Перевод: Профессиональный (Полное дублирование)[Лицензия]Субтитры: Русские[Full, Forced], Английские [Full, SDH]Формат: AVIКачество: BDRip (источник: HDClub /Blu-Ray Disc/ 1080p) Видео: 704x384 (1.83:1), 23.976 fps, XviD build 65, 2065 kbps avg, 0.32 bit/pixelАудио #1: 48 kHz, AC3 Dolby Digital, 3/2 (L,C,R,l,r) + LFE ch, 448 kbps|DUB|Аудио #2: 48 kHz, AC3 Dolby Digital, 3/2 (L,C,R,l,r) + LFE ch, 448 kbps|UKR|Аудио #3: 48 kHz, AC3 Dolby Digital, 3/2 (L,C,R,l,r) + LFE ch, 448 kbps|ENG| 2,18 Gb 10 1 21 января 2016 13:25 Мы купили зоопарк / We Bought a Zoo (2011) BDRip 720p от FREEISLAND | лицензия .torrent   [Информация о файле (нажмите для просмотра)] Перевод: ДублированноеКодек: H.264Качество: BDRip 720pВидео: 4539 Кбит/сек, 1280*694 (16:9), в 23,976 кадра/сек, AVC ()Звук: Russian, 448 Кбит/сек, 48,0 КГц, 16 бит, 6 каналов, AC-3 RUS DubСубтитры: Русские, украинские, английские(srt)Видео: Идентификатор : 1 Формат : AVC Формат/Информация : Advanced Video Codec Профиль формата : [email protected] Параметр CABAC формата : Да Параметр ReFrames формата : 9 кадров Идентификатор кодека : V_MPEG4/ISO/AVC Продолжительность : 2 ч. 3 м. Битрейт : 4539 Кбит/сек Ширина : 1280 пикс. Высота : 694 пикс. Соотношение сторон : 16:9 Частота кадров : 23,976 кадр/сек Цветовое пространство : YUV Подвыборка цветности : 4:2:0 Битовая глубина : 8 бит Тип развёртки : Прогрессивная Бит/(Пиксели*Кадры) : 0.213 Размер потока : 3,84 Гбайт (89%) Заголовок : FREEISLAND Библиотека кодирования : x264 core 122 r2184 5c85e0a Настройки программы : cabac=1 / ref=9 / deblock=1:-3:-3 / analyse=0x3:0x113 / me=umh / subme=10 / psy=1 / psy_rd=1.10:0.15 / mixed_ref=1 / me_range=32 / chroma_me=1 / trellis=2 / 8x8dct=1 / cqm=0 / deadzone=21,11 / fast_pskip=0 / chroma_qp_offset=-3 / threads=6 / sliced_threads=0 / nr=0 / decimate=1 / interlaced=0 / bluray_compat=0 / constrained_intra=0 / bframes=8 / b_pyramid=2 / b_adapt=2 / b_bias=0 / direct=3 / weightb=1 / open_gop=0 / weightp=2 / keyint=240 / keyint_min=22 / scenecut=40 / intra_refresh=0 / rc=2pass / mbtree=0 / bitrate=4539 / ratetol=1.0 / qcomp=0.70 / qpmin=0 / qpmax=69 / qpstep=4 / cplxblur=20.0 / qblur=0.5 / ip_ratio=1.40 / pb_ratio=1.30 / aq=1:0.80 Язык : English Основные цвета : BT.709-5, BT.1361, IEC 61966-2-4, SMPTE RP177 Характеристики трансфера : BT.709-5, BT.1361 Коэффициенты матрицы : BT.709-5, BT.1361, IEC 61966-2-4 709, SMPTE RP177Аудио: Идентификатор : 2 Формат : AC-3 Формат/Информация : Audio Coding 3 Расширение режима : CM (complete main) Идентификатор кодека : A_AC3 Продолжительность : 2 ч. 3 м. Вид битрейта : Постоянный Битрейт : 448 Кбит/сек Каналы : 6 каналов Расположение каналов : Front: L C R, Side: L R, LFE Частота : 48,0 КГц Битовая глубина : 16 бит Метод сжатия : С потерями Размер потока : 397 Мбайт (9%) Язык : Russian 4,31 Gb 16 1 21 января 2016 13:25 Мы купили зоопарк / We Bought a Zoo (2011) BDRip 720p | Лицензия .torrent   [Информация о файле (нажмите для просмотра)] Формат: MKVКачество: BDRip 720p | ЛицензияВидео: MPEG-4 AVC, 5647 Кбит/с, 1280x694Аудио: Русский (DTS, 6 ch, 755 Кбит/с), украинский (AC3, 6 ch, 448 Кбит/с), английский (DTS, 6 ch, 1510 Кбит/с)Субтитры: Русские, украинские, английскиеВидео: ID Аудио #1: ID Аудио #2: ID Аудио #3: ID 7,25 Gb 22 3 21 января 2016 13:25 Мы купили зоопарк / We Bought a Zoo (2011) HDRip | Лицензия .torrent   [Информация о файле (нажмите для просмотра)] Формат: AVI (XviD)Качество: HDRipВидео: 720x384, 1122 kb/sАудио: AC3, 448 kb/s (6 ch) 1,37 Gb 308 12

    gig-torrent.net

    Мы купили зоопарк через торрент

    Размер: 2.18 GB | Добавлен: 4 года 11 мес. назад | Торрент скачан:299 раз
    Реклама Дарим 3000 рублей за регистрацию, не упусти свой шанс получить шикарный бонус!!!

    30-10-2012 05:35 Мы купили зоопарк Скачать торрент  

    Мы купили зоопарк / We Bought a Zoo Год выпуска: 2011Страна: США / 20th Century Fox Film Corporation, LBI Entertainment, Vinyl FilmsЖанр: Драма, комедия, семейныйПродолжительность: 02:03:54Перевод: Профессиональный (полное дублирование) Субтитры: Русские (Full, Forced), английские (Full, SDH), украинские (Full, Forced)Режиссер: Кэмерон Кроу

    В ролях: Мэтт Дэймон, Скарлетт Йоханссон, Томас Хейден Чёрч, Колин Форд, Мэгги Джонс, Энгус Макфадьен, Эль Фаннинг, Патрик Фьюджит, Джон Майкл Хиггинс, Карла Галло

    Описание: Лента рассказывает о том, как британское семейство Ми потратило все сбережения, чтобы спасти заброшенный сельский зверинец с двумя сотнями экзотических животных, которым грозила гибель.

    Бюджет: $50 000 000 Сборы в мире: $120 081 841Сборы в России: $1 545 863 Официальный сайтКачество: BDRip-AVC [BDRemux]Формат: MKVВидео кодек: H.264Аудио кодек: AC3Видео: 920x496 (1.85:1), 23,976 кадр/сек, 1750 Кбит/сек, 0.160 bit/pixelАудио #1: 48 kHz, AC3 Dolby Digital, 3/2 (L,C,R,l,r) + LFE ch, ~384.00 kbps avg | RUSАудио #2: 48 kHz, AC3 Dolby Digital, 3/2 (L,C,R,l,r) + LFE ch, ~384.00 kbps avg | ENG Автор рипа: Скачать Мы купили зоопарк через торрент http://firepic.org/images/2012-10/30/1un1swga2otg.png Скачать фильм Мы купили зоопарк через торрент бесплантно в хорошем качестве Описание: Лента рассказывает о том, как британское семейство Ми потратило все сбережения, чтобы спасти заброшенный сельский зверинец с ... 2012-10-30 05:35 10 10 2

    Loading...

    Loading...

    Рекламный пират

    Дорогой пользователь! Огромная просьба, поблагодарите релизера, оцените раздачу и оставьте свои комментарий, если Вы скачали Мы купили зоопарк через торрент бесплатно! Внесите свою лепту в развитие PiratBit!

    Комментировать посты могут только пользователи прошедшие не сложную регистрацию

    Мы купили зоопарк через торрент Скачать бесплатно Мы купили зоопарк Мы купили зоопарк скачать торрент Мы купили зоопарк смотреть онлайн Cкачать фильм Мы купили зоопарк бесплатно Мы купили зоопарк скачать торрент в хорошем качестве Мы купили зоопарк смотреть онлайн бесплатно в хорошем качестве

    Вы не можете начинать темыВы не можете отвечать на сообщенияВы не можете редактировать свои сообщенияВы не можете удалять свои сообщенияВы не можете голосовать в опросахВы не можете прикреплять файлы к сообщениямВы можете скачивать файлы

    piratbit.ru


    Смотрите также