Скачать через торрент фильм рэй в хорошем качестве


Скачать фильм Рэй через торрент в хорошем качестве бесплатно BDRip

Размер: 1.47 GB | Добавлен: 2 года 7 мес. назад | Торрент скачан:104 раза
Реклама Дарим 3000 рублей за регистрацию, не упусти свой шанс получить шикарный бонус!!!

01-03-2015 14:18 Рэй Скачать торрент  

Рэй / Ray Год выпуска: 2004Страна: СШАЖанр: драма, биография, музыкаПродолжительность: 02:32:25Перевод: Профессиональный (полное дублирование)субтитры: нет

Режиссер: Тейлор Хекфорд / Taylor Hackford

В ролях: Джэми Фокс, Керри Вашингтон, Реджина Кинг, Клифтон Пауэлл, Гарри Дж. Ленникс, Букем Вудбайн, Онжаню Эллис, Шаррон Уоррен, С.Дж. Сандерс, Кертис Армстронг, Ричард Шифф, Лоренц Тейт, Терренс Дэшон Ховард, Дэвид Крумхольц, Уенделл Пирс, Крис Томас Кинг, Томас Джеффресон Бёрд, Рик Гомез, Денис Й. Даус, Уорвик Дэвис, Патрик Буше

История жизни великого американского музыканта Рэя Чарльза. Нищее детство, потеря брата, ранняя слепота, наркотики, женщины, 12 детей, борьба с расизмом, а также незаурядный талант, блестящая карьера и настоящая революция в музыке.

Качество: BDRipФормат: AVIВидео кодек: XviDАудио кодек: МР3Видео: 720x384 (1.88:1), 23.976 fps, XviD build 73 ~1239 kbps avg, 0.19 bit/pixelАудио: 48 kHz, MPEG Layer 3, 2 ch, ~128.00 kbps avg

ОбщееПолное имя : D:\003 Мои раздачи\Рэй 1,46\rai_1.46_[torrents.ru]_by_bm11.aviФормат : AVIФормат/Информация : Audio Video InterleaveРазмер файла : 1,47 ГиБПродолжительность : 2 ч. 32 м.Общий поток : 1377 Кбит/секПрограмма кодирования : VirtualDubModRus 1.5.10.2 (build 2542/release)Библиотека кодирования : VirtualDubMod build 2542/releaseВидеоИдентификатор : 0Формат : MPEG-4 VisualПрофайл формата : Advanced [email protected]Параметры BVOP формата : ДаПараметры QPel формата : НетПараметры GMC формата : Без точки переходаПараметры матрицы формата : ВыборочнаяИдентификатор кодека : XVIDИдентификатор кодека/Подсказка : XviDПродолжительность : 2 ч. 32 м.Битрейт : 1240 Кбит/секШирина : 720 пикс.Высота : 384 пикс.Соотношение кадра : 1,875Частота кадров : 23,976 кадр/секColorSpace : YUVChromaSubsampling : 4:2:0BitDepth/String : 8 битТип развёртки : ПрогрессивнаяБит/(Пиксели*Кадры) : 0.187Размер потока : 1,32 ГиБ (90%)Библиотека кодирования : XviD 73АудиоИдентификатор : 1Формат : MPEG AudioВерсия формата : Version 1Профайл формата : Layer 3Идентификатор кодека : 55Идентификатор кодека/Подсказка : MP3Продолжительность : 2 ч. 32 м.Вид битрейта : ПостоянныйБитрейт : 128 Кбит/секКанал(ы) : 2 канала(ов)Частота : 48,0 КГцРазмер потока : 140 МиБ (9%)Выравнивание : Соединение по промежуткамПродолжительность промежутка : 42 мс. (1,00 видеокадр)Время предзагрузки промежутка : 504 msБиблиотека кодирования : LAME3.99rНастройки программы : -m s -V 4 -q 2 -lowpass 17 -b 128

Скачать Рэй через торрент http://i67.fastpic.ru/big/2015/0227/7e/e0b9fc1f86bb4a0f3fffabdff33d4b7e.jpg Скачать фильм Рэй через торрент бесплантно в хорошем качестве В ролях: Джэми Фокс, Керри Вашингтон, Реджина Кинг, Клифтон Пауэлл, Гарри Дж. Ленникс, Букем Вудбайн, Онжаню Эллис, Шаррон Уоррен, С.Дж. ... 2015-03-01 14:18 10 10 5

Loading...

Loading...

Рекламный пират

Дорогой пользователь! Огромная просьба, поблагодарите релизера, оцените раздачу и оставьте свои комментарий, если Вы скачали Рэй через торрент бесплатно! Внесите свою лепту в развитие PiratBit!

Комментировать посты могут только пользователи прошедшие не сложную регистрацию

Рэй через торрент Скачать бесплатно Рэй Рэй скачать торрент Рэй смотреть онлайн Cкачать фильм Рэй бесплатно Рэй скачать торрент в хорошем качестве Рэй смотреть онлайн бесплатно в хорошем качестве

Вы не можете начинать темыВы не можете отвечать на сообщенияВы не можете редактировать свои сообщенияВы не можете удалять свои сообщенияВы не можете голосовать в опросахВы не можете прикреплять файлы к сообщениямВы можете скачивать файлы

piratbit.ru

Рэй Донован / Ray Donovan / Сезон 5 / Серии 1-11 из 12 [2017 WEBRip 1080p] MVO [Jaskier] скачать через торрент

ОбщееУникальный идентификатор : 211229784656055948618752626504193031927 (0x9EE9607222787C5A8BDC36E5FDE03EF7)Полное имя : D:\Ray.Donovan. Season 5 (WEBRip l 1080p l Jaskier)\Ray.Donovan.S05E01.1080p.AMZN.WEBRip.DD5.1.x264-Jaskier.mkvФормат : MatroskaВерсия формата : Version 2Размер файла : 2,58 ГбайтПродолжительность : 54 м. 49 с.Режим общего битрейта : ПеременныйОбщий поток : 6727 Кбит/секДата кодирования : UTC 2017-08-15 07:39:33Программа кодирования : mkvmerge v7.8.0 ('River Man') 32bit built on Apr 3 2015 12:11:22Библиотека кодирования : libebml v1.3.1 + libmatroska v1.4.2

ВидеоИдентификатор : 1Формат : AVCФормат/Информация : Advanced Video CodecПрофиль формата : [email protected]Параметр CABAC формата : ДаПараметр ReFrames формата : 4 кадраИдентификатор кодека : V_MPEG4/ISO/AVCПродолжительность : 54 м. 49 с.Вид битрейта : ПеременныйБитрейт : 5826 Кбит/секМаксимальный битрейт : 15,0 Мбит/секШирина : 1920 пикселейВысота : 1080 пикселейСоотношение сторон : 16:9Режим частоты кадров : ПостоянныйЧастота кадров : 23,976 (24000/1001) кадра/секЦветовое пространство : YUVСубдискретизация насыщенности : 4:2:0Битовая глубина : 8 битТип развёртки : ПрогрессивнаяБит/(Пиксели*Кадры) : 0.117Размер потока : 2,23 Гбайт (87%)Язык : EnglishDefault : ДаForced : НетЦветовой диапазон : LimitedОсновные цвета : BT.709Характеристики трансфера : BT.709Коэффициенты матрицы : BT.709

Аудио #1Идентификатор : 2Формат : AC-3Формат/Информация : Audio Coding 3Расширение режима : CM (complete main)Параметр Endianness формата : BigИдентификатор кодека : A_AC3Продолжительность : 54 м. 49 с.Вид битрейта : ПостоянныйБитрейт : 384 Кбит/секКаналы : 6 каналовРасположение каналов : Front: L C R, Side: L R, LFEЧастота : 48,0 КГцЧастота кадров : 31,250 кадров/сек (1536 spf)Метод сжатия : С потерямиРазмер потока : 151 Мбайт (6%)Заголовок : JaskierЯзык : RussianDefault : ДаForced : Нет

Аудио #2Идентификатор : 3Формат : AC-3Формат/Информация : Audio Coding 3Расширение режима : CM (complete main)Параметр Endianness формата : BigИдентификатор кодека : A_AC3Продолжительность : 54 м. 49 с.Вид битрейта : ПостоянныйБитрейт : 384 Кбит/секКаналы : 6 каналовРасположение каналов : Front: L C R, Side: L R, LFEЧастота : 48,0 КГцЧастота кадров : 31,250 кадров/сек (1536 spf)Метод сжатия : С потерямиРазмер потока : 151 Мбайт (6%)Язык : EnglishDefault : НетForced : Нет

Текст #1Идентификатор : 4Формат : UTF-8Идентификатор кодека : S_TEXT/UTF8Идентификатор кодека/Информация : UTF-8 Plain TextЯзык : RussianDefault : НетForced : Нет

Текст #2Идентификатор : 5Формат : UTF-8Идентификатор кодека : S_TEXT/UTF8Идентификатор кодека/Информация : UTF-8 Plain TextЯзык : EnglishDefault : НетForced : Нет

piratbit.ru

Скачать фильм Рэй Донован через торрент в хорошем качестве бесплатно 720p от qqss44

Размер: 11.07 GB | Добавлен: 1 год назад | Торрент скачан:26 раз
Реклама Дарим 3000 рублей за регистрацию, не упусти свой шанс получить шикарный бонус!!!

qqss44 (он и не он)

23-10-2016 12:08 Рэй Донован Скачать торрент  

═╬ Рэй Донован ╬═ ═ Информация о фильме ═✦ Название: Рэй Донован✦ Оригинальное название: Ray Donovan✦ Год выхода: 2016✦ Жанр: Драма, криминал✦ Режиссер: Такер Гейтс, Дэниэл Эттиэс, Майкл Аппендаль✦ В ролях: Лив Шрайбер, Девон Бэгби, Уильям Стэнфорд Дэвис, Кэтрин Менниг, Фрэнк Уэйли, Октавиус Дж. Джонсон

═ Описание фильма ═Сериал расскажет о Рэе Доноване, профессиональном "разруливателе проблем", которого вызывают, когда у кого-то из "богатых и знаменитых" жителей Лос-Анджелеса возникают сложности.

✦ Страна: США✦ Продолжительность: ~ 00:50:00 серия✦ Перевод: профессиональный (многоголосый, закадровый) - Amedia

═ Информация о файле ═✦ Формат: | X264 | MKV |✦ Качество: WEBRip 720p | чистый видеоряд |✦ Видео: ~ 2000 kbps | 1280x720 (16:9) | 25 fps✦ Аудио Rus: AC3 | 48.0 KHz | 2 ch | 192 kbps ✦ Аудио Eng: AC3 | 48.0 KHz | 2 ch | 192 kbps ✦ Субтитры: | русские (амедиа) | английские |

Когда раздача ведётся путём добавления новых серий, при каждом добавлении создётся новый торрент. Чтобы начать докачку новой серии, пользователям необходимо сделать следующее:(1) остановить скачивание,(2) удалить старый торрент у себя из клиента (старые серии удалять не надо),(3) скачать новый торрент и запустить его у себя в клиенте вместо старого, при этом указать клиенту путь в старую папку, куда и должно происходить скачивание новых серий.Ваш клиент при этом должен произвести хеширование (проверку) старой папки (если не производит сам - помогите ему сделать это), и будет докачивать только те серии, которых у вас ещё нет. Старые серии при этом не удаляются, а продолжают раздаваться!Eсли вы уже удалили старые серии, то предотвратить повторную закачку старых серий можно, отжав галочку в соответсвующих местах при запуске нового торрента. По возможности, желательно не удалять старые серии как можно дольше, чтобы релизёр не столько продолжал раздавать старые серии, а смог сконцентрироваться на новых.

Скачать Рэй Донован через торрент http://i77.fastpic.ru/big/2016/0709/31/d87d80d1fafc9050a9b563e033f04931.png Скачать фильм Рэй Донован через торрент бесплантно в хорошем качестве Описание фильма ═Сериал расскажет о Рэе Доноване, профессиональном "разруливателе проблем", которого вызывают, когда у кого-то из "богатых ... 2016-10-23 12:08 10 10 1

Loading...

Loading...

Рекламный пират

Дорогой пользователь! Огромная просьба, поблагодарите релизера, оцените раздачу и оставьте свои комментарий, если Вы скачали Рэй Донован через торрент бесплатно! Внесите свою лепту в развитие PiratBit!

Комментировать посты могут только пользователи прошедшие не сложную регистрацию

Рэй Донован через торрент Скачать бесплатно Рэй Донован Рэй Донован скачать торрент Рэй Донован смотреть онлайн Cкачать фильм Рэй Донован бесплатно Рэй Донован скачать торрент в хорошем качестве Рэй Донован смотреть онлайн бесплатно в хорошем качестве

Вы не можете начинать темыВы не можете отвечать на сообщенияВы не можете редактировать свои сообщенияВы не можете удалять свои сообщенияВы не можете голосовать в опросахВы не можете прикреплять файлы к сообщениямВы можете скачивать файлы

piratbit.ru

5 / Серии 1-11 из 12 [2017 WEB-DLRip] MVO [NewStudio] скачать через торрент

Раздают: 6 [ 358 KB/s ] Качают: 14 [ 0 KB/s ]
Размер: 6.79 GB | Добавлен: 22 ч. назад | Торрент скачан:9 раз
Реклама Дарим 3000 рублей за регистрацию, не упусти свой шанс получить шикарный бонус!!!

10-08-2017 00:22 Рэй Донован Скачать торрент  

Рэй Донован / Ray Donovan«Никто не должен знать...»
  • Год выпуска: 2017
  • Страна: США
  • Жанр: драма, криминал
  • Продолжительность: 00:55:22 (Серия)
  • Перевод: Профессиональный многоголосый
  • В ролях: Лив Шрайбер (Ray Donovan), Паула Малкомсон (Abby Donovan), Эдди Марсан (Terry Donovan), Дэш Майок (Bunchy Donovan), Джон Войт (Mickey Donovan), Стивен Бауэр (Avi), Кэтрин Менниг (Lena), Пуч Холл (Daryll), Кэррис Дорси (Bridget Donovan), Девон Бэгби (Conor Donovan), Эллиотт Гулд (Ezra Goodman), Майкл МакГрэйди (Frank Barnes)
  • Рэй Донован - первоклассный специалист по устранению проблем любой сложности. Его клиенты - самые знаменитые и влиятельные люди Лос-Анджелеса, для которых он исполняет практически любые задания. Единственные проблемы, которые Рэю не под силу уладить, возникают в его собственной семье в Южном Бостоне. Одна из них - освобожденный из тюрьмы папаша-гангстер, угрожающий благополучию семейства. Помимо этого, один из братьев Рэя никак не может прийти в себя после совершенного над ним насилия, а второй страдает от болезни Паркинсона. Рэю Доновану предстоит не только помочь близким, но и защитить собственную жену и детей от своего коварного отца, который жаждет вновь занять позицию главы семьи.
  • Рейтинг:
  • Качество: WEB-DLRip
  • Формат: :AVI
  • Видео кодек: XviD
  • Аудио кодек: MP3
  • Видео: 720x400 (16:9), 1497 kbps, 23,976 fps, 0,217 bpp
  • Аудио №1: Русский 2.0 / 48 kHz / 128 kbps /
  • Аудио №2: Английский 2.0 / 48 kHz / 128 kbps /

    Внимание! Раздача ведётся путём добавления новых серий; при каждом добавлении создаётся новый торрент. Чтобы начать докачку новой серии, пользователям необходимо сделать следующее:(1) остановить скачивание,(2) удалить старый торрент у себя из клиента (старые серии удалять не надо),(3) скачать новый торрент и запустить его у себя в клиенте вместо старого, при этом указать клиенту путь в старую папку куда и должно происходить скачивание новых серий.Ваш клиент при этом должен произвести хеширование (проверку) старой папки (если не производит сам - помогите ему сделать это), и будет докачивать только те серии которых у вас ещё нет. Старые серии при этом не удаляются, а продолжают раздаваться!Eсли вы уже удалили старые серии, то предотвратить повторную закачку старых серий можно, отжав галочку в соответствующих местах при запуске нового торрента. По возможности, желательно не удалять старые серии как можно дольше чтобы релизёр не столько продолжал раздавать старые серии, а смог сконцентрироваться на новых.

    GeneralComplete name : F:\Ray.Donovan.s05e01.WEBDLRip.NewStudio.TV.aviFormat : AVIFormat/Info : Audio Video InterleaveFile size : 700 MiBDuration : 55 minOverall bit rate : 1 767 kb/sWriting application : VirtualDubMod 1.5.10.2 (build 2540/release)Writing library : VirtualDubMod build 2540/release

    VideoID : 0Format : MPEG-4 VisualFormat profile : Advanced [email protected] settings, BVOP : 2Format settings, QPel : YesFormat settings, GMC : No warppointsFormat settings, Matrix : Default (MPEG)Muxing mode : Packed bitstreamCodec ID : XVIDCodec ID/Hint : XviDDuration : 55 minBit rate : 1 497 kb/sWidth : 720 pixelsHeight : 400 pixelsDisplay aspect ratio : 16:9Frame rate : 23.976 (23976/1000) FPSColor space : YUVChroma subsampling : 4:2:0Bit depth : 8 bitsScan type : ProgressiveCompression mode : LossyBits/(Pixel*Frame) : 0.217Stream size : 593 MiB (85%)Writing library : XviD 73

    Audio #1ID : 1Format : MPEG AudioFormat version : Version 1Format profile : Layer 3Mode : Joint stereoMode extension : MS StereoCodec ID : 55Codec ID/Hint : MP3Duration : 55 minBit rate mode : ConstantBit rate : 128 kb/sChannel(s) : 2 channelsSampling rate : 48.0 kHzCompression mode : LossyStream size : 50.7 MiB (7%)Alignment : Aligned on interleavesInterleave, duration : 42 ms (1.00 video frame)Interleave, preload duration : 504 ms

    Audio #2ID : 2Format : MPEG AudioFormat version : Version 1Format profile : Layer 3Mode : Joint stereoCodec ID : 55Codec ID/Hint : MP3Duration : 55 minBit rate mode : ConstantBit rate : 128 kb/sChannel(s) : 2 channelsSampling rate : 48.0 kHzCompression mode : LossyStream size : 50.7 MiB (7%)Alignment : Aligned on interleavesInterleave, duration : 42 ms (1.00 video frame)Interleave, preload duration : 504 msWriting library : LAME3.99rEncoding settings : -m j -V 4 -q 2 -lowpass 17 -b 128

    Скриншоты:                       
  • Раздача ведётся путём добавления новых серий. Добавлена 11 серия (25.10.2017).Просьба перекачать торрент файл. Скачать Рэй Донован через торрент http://pic1.pb.wtf/images/10/64ull.jpg Скачать фильм Рэй Донован через торрент бесплантно в хорошем качестве qw.png Рэй Донован - первоклассный специалист по устранению проблем любой сложности. Его клиенты - самые знаменитые и влиятельные люди ... 2017-10-24 23:01 9.7 10 15

    Loading...

    Loading...

    Последний раз редактировалось: GEKADOL (2017-10-24 23:02), всего редактировалось 13 раз(а)

    Рекламный пират

    17-08-2017 11:24 Рэй Донован Скачать торрент  

    спасибо! отличный сериал!

    18-08-2017 07:00 Рэй Донован Скачать торрент  

    ROBOCOP писал(а):

    спасибо! отличный сериал!

    Согласен!

    27-09-2017 12:48 Рэй Донован Скачать торрент  

    Переводчики и озвукари вы супер, но (это конечно не по вашему бюджету -нужна адаптация) когда слышишь фразу "кого любишь, тем всегда делаешь больно,а те кого любишь, всегда делают больно тебе"....очевидно имелось в виду: любящие тебя получают по полной, и те кого любишь ты платят тебе тем же...актеры озвучки офигенны, крутые ребята, с переводом ребята постарались, но им бы хотя бы к Гоблину на пару уроков либо народ на адаптацию подпрягать, спасибо всем очень все качественно и красиво. Ждемс нетерпением новых озвучек, (не поймите не правильно ), Вы просто СУПЕР, низкий поклон Вам и добавить больше нечего PS^ не уверен что ребята из NewStudio прочитают отзыв у нас :)

    28-09-2017 11:22 Рэй Донован Скачать торрент  

    Цитата:

    Рэй Донован / Ray Donovan / Сезон: 5 / Серии 1-7 из 12 (Майкл Аппендаль / Michael Uppendahl, Дэниэл Эттиэс / Daniel Attias, Джон Дал / John Dahl) [2017, США, драма, криминал, WEB-DLRip] MVO [NewStudio]

    спасибо Огромное

    05-10-2017 11:43 Рэй Донован Скачать торрент  

    раздача завязла

    Дорогой пользователь! Огромная просьба, поблагодарите релизера, оцените раздачу и оставьте свои комментарий, если Вы скачали Рэй Донован через торрент бесплатно! Внесите свою лепту в развитие PiratBit!

    Комментировать посты могут только пользователи прошедшие не сложную регистрацию

    Рэй Донован через торрент Скачать бесплатно Рэй Донован Рэй Донован скачать торрент Рэй Донован смотреть онлайн Cкачать фильм Рэй Донован бесплатно Рэй Донован скачать торрент в хорошем качестве Рэй Донован смотреть онлайн бесплатно в хорошем качестве

    Вы не можете начинать темыВы не можете отвечать на сообщенияВы не можете редактировать свои сообщенияВы не можете удалять свои сообщенияВы не можете голосовать в опросахВы не можете прикреплять файлы к сообщениямВы можете скачивать файлы

    piratbit.ru

    1-12 из 12 HDTVRip / NewStudio скачать через торрент

    Раздают: 4 [ 2 MB/s ] Качают: 3 [ 1 MB/s ]
    Размер: 8.2 GB | Добавлен: 4 года 1 мес. назад | Торрент скачан:2691 раз
    Реклама Дарим 3000 рублей за регистрацию, не упусти свой шанс получить шикарный бонус!!!

    22-06-2013 20:58 Рэй Донован Скачать торрент  

    Рэй Донован / Ray Donovan

    Год выпуска: 2013 Страна: США, ShowtimeЖанр: драма, криминал,Продолжительность: ~00:58:00Перевод: Профессиональный многоголосый закадровый (NewStudio)Субтитры: нетРежиссер: Аллен КултерВ ролях: Лив Шрайбер, Девон Бэгби, Уильям Стэнфорд Дэвис, Кэтрин Менниг, Фрэнк Уэйли, Октавиус Дж. Джонсон, Майкл МакГрэйди, Андре Брукс, Рональд Митчелл, Роберт Дж. Брюэр и др.,Премьера в мире: 30.06.2013Описание: Рэй Донован решает любые проблемы богатых и знаменитых людей Лос-Анджелеса, но при этом не может разобраться со своей собственной семьей… Качество: HDTVRipФормат: AVIВидео кодек: XviDАудио кодек: MP3 Видео: 720x400 (16:9), 23,976 fps, ~1395 kb/s, 0,202 bit/pixelАудио Rus: MP3 , 128 kb/s, 2 ch, 48,0 KHzАудио Eng: MP3 , 128 kb/s, 2 ch, 48,0 KHz ВНИМАНИЕ! В сериале присутствует ненормативная лексика!Возрастное ограничение: 18+GeneralComplete name : D:РаздачиРэй Донован (Сезон 1) Ray Donovan (2013) HDTVRip - NewStudioRay.Donovan.s01e01.HDTVRip.NewStudio.TV.aviFormat : AVIFormat/Info : Audio Video InterleaveFile size : 700 MiBDuration : 58mn 47sOverall bit rate : 1 665 KbpsWriting application : VirtualDubMod 1.5.10.2 (build 2540/release)Writing library : VirtualDubMod build 2540/release

    VideoID : 0Format : MPEG-4 VisualFormat profile : Advanced [email protected] settings, BVOP : 2Format settings, QPel : NoFormat settings, GMC : No warppointsFormat settings, Matrix : Default (MPEG)Codec ID : XVIDCodec ID/Hint : XviDDuration : 58mn 47sBit rate : 1 395 KbpsWidth : 720 pixelsHeight : 400 pixelsDisplay aspect ratio : 16:9Frame rate : 23.976 fpsColor space : YUVChroma subsampling : 4:2:0Bit depth : 8 bitsScan type : ProgressiveCompression mode : LossyBits/(Pixel*Frame) : 0.202Stream size : 587 MiB (84%)Writing library : XviD 64

    Audio #1ID : 1Format : MPEG AudioFormat version : Version 1Format profile : Layer 3Mode : Joint stereoMode extension : MS StereoCodec ID : 55Codec ID/Hint : MP3 Duration : 58mn 47sBit rate mode : ConstantBit rate : 128 KbpsChannel(s) : 2 channelsSampling rate : 48.0 KHzCompression mode : LossyStream size : 53.8 MiB (8%)Alignment : Aligned on interleavesInterleave, duration : 42 ms (1.00 video frame)Interleave, preload duration : 504 ms

    Audio #2ID : 2Format : MPEG AudioFormat version : Version 1Format profile : Layer 3Mode : Joint stereoCodec ID : 55Codec ID/Hint : MP3 Duration : 58mn 47sBit rate mode : ConstantBit rate : 128 KbpsChannel(s) : 2 channelsSampling rate : 48.0 KHzCompression mode : LossyStream size : 53.8 MiB (8%)Alignment : Aligned on interleavesInterleave, duration : 42 ms (1.00 video frame)Interleave, preload duration : 504 msWriting library : LAME3.99rEncoding settings : -m j -V 4 -q 2 -lowpass 17 -b 128

    Внимание! Раздача ведётся путём добавления новых серий; при каждом добавлении создётся новый торрент. Чтобы начать докачку новой серии, пользователям необходимо сделать следующее: (1) остановить скачивание, (2) удалить старый торрент у себя из клиента (старые серии удалять не надо), (3) скачать новый торрент и запустить его у себя в клиенте вместо старого, при этом указать клиенту путь в старую папку куда и должно происходить скачивание новых серий.

    Ваш клиент при этом должен произвести хеширование (проверку) старой папки (если не производит сам - помогите ему сделать это), и будет докачивать только те серии которых у вас ещё нет. Старые серии при этом не удаляются, а продолжают раздаваться!

    Eсли вы уже удалили старые серии, то предотвратить повторную закачку старых серий можно, отжав галочку в соответсвующих местах при запуске нового торрента. По возможности, желательно не удалять старые серии как можно дольше чтобы релизёр не столько продолжал раздавать старые серии, а смог сконцентрироваться на новых.

    22.09.2013 12 Same Exactly15.09.2013 11 Bucky Fuckin' Dent 08.09.2013 10 Fite Nite 25.08.2013 09 Road Trip18.08.2013 08 Bridget11.08.2013 07 New Birthday04.08.2013 06 Housewarming 28.07.2013 05 The Golem21.07.2013 04 Black Cadillac14.07.2013 03 Twerk07.07.2013 02 A Mouth is a Mouth40.06.2013 01 The Bag or the Bat

    Добавлена 12 серия!Сезон окончен!Сериал продлён на второй сезон. Скачать Рэй Донован через торрент http://i47.fastpic.ru/big/2013/0622/3e/b13ffec37498c71065b8a366eb3f7c3e.png Скачать фильм Рэй Донован через торрент бесплантно в хорошем качестве Описание: Рэй Донован решает любые проблемы богатых и знаменитых людей Лос-Анджелеса, но при этом не может разобраться со своей собственной ... 2013-09-24 20:11 9.5 10 215

    Loading...

    Loading...

    Последний раз редактировалось: Messa-fan (2013-09-24 20:10), всего редактировалось 16 раз(а)

    Рекламный пират

    18-07-2013 06:05 Рэй Донован Скачать торрент  

    классный сериал! спасибо!

    24-07-2013 18:55 Рэй Донован Скачать торрент  

    сериал зачетный актеры клас советую не пожалеете

    25-07-2013 06:15 Рэй Донован Скачать торрент  

    ТРЕЙЛЕР запломбирован* печаль!!! И если можно календарь выхода серий)спс :pirat:

    25-07-2013 06:59 Рэй Донован Скачать торрент  

    newhattabпод спойлером есть календарь

    26-07-2013 07:25 Рэй Донован Скачать торрент  

    Вопрос.Какие сроки перевода серии,кто знает?ведь оригинал вышел по календарю уже давненько..

    26-07-2013 15:31 Рэй Донован Скачать торрент  

    Добавлена 4 серия!

    30-07-2013 01:30 Рэй Донован Скачать торрент  

    Интересный сериал,спасибо!

    30-07-2013 07:56 Рэй Донован Скачать торрент  

    Посмотрел первую серию, да, вроде ничего сериальчик, необычный )) бум дальше смотреть!

    Pекламный агент PB

    31-07-2013 19:37 Рэй Донован Скачать торрент  

    Хмм..ShowTime обычно как правило хорошие сериалы выпускает, думаю стоит посмотреть)

    31-07-2013 20:59 Рэй Донован Скачать торрент  

    Добавлена 5 серия!

    31-07-2013 21:12 Рэй Донован Скачать торрент  

    в раздаче только 4 серии где 5-я?

    31-07-2013 21:22 Рэй Донован Скачать торрент  

    Sneik7прошу прощения, действительно мой косяк, видимо спать уже пора)))Сейчас уже всё нормально, в раздаче 5 серий.

    31-07-2013 23:56 Рэй Донован Скачать торрент  

    Хороший сериал, мне понравился.

    01-08-2013 04:32 Рэй Донован Скачать торрент  

    КАКИЕ-ТО ЧМОШНИКИ ПИШУ ТО НЕЗНАЮ ПРОШТО НО СЕРИАЛ НОРМ ТЕБЕ СПС

    03-08-2013 18:31 Рэй Донован Скачать торрент  

    Спасибо сериал пока радует.

    06-08-2013 09:06 Рэй Донован Скачать торрент  

    Сериал огонь, где 6 серия, господа?

    Pекламный агент PB

    06-08-2013 12:42 Рэй Донован Скачать торрент  

    Серия в неделю-это издевательство.

    08-08-2013 06:25 Рэй Донован Скачать торрент  

    Когда будет 6 серия!?

    08-08-2013 21:55 Рэй Донован Скачать торрент  

    ну да серия в неделю жостко но помойму все сериалы так выходят

    09-08-2013 06:35 Рэй Донован Скачать торрент  

    В нашем случае, раз в две недели...

    09-08-2013 16:19 Рэй Донован Скачать торрент  

    Добавлена 6 серия!

    10-08-2013 04:14 Рэй Донован Скачать торрент  

    Messa-fan писал(а):

    Добавлена 6 серия!

    Спасибо! Очень радует, сериал хорош.

    12-08-2013 16:05 Рэй Донован Скачать торрент  

    когда будет 7 серия ?

    14-08-2013 19:01 Рэй Донован Скачать торрент  

    Добавлена 7 серия!

    Pекламный агент PB

    Дорогой пользователь! Огромная просьба, поблагодарите релизера, оцените раздачу и оставьте свои комментарий, если Вы скачали Рэй Донован через торрент бесплатно! Внесите свою лепту в развитие PiratBit!

    Комментировать посты могут только пользователи прошедшие не сложную регистрацию

    Рэй Донован через торрент Скачать бесплатно Рэй Донован Рэй Донован скачать торрент Рэй Донован смотреть онлайн Cкачать фильм Рэй Донован бесплатно Рэй Донован скачать торрент в хорошем качестве Рэй Донован смотреть онлайн бесплатно в хорошем качестве

    Вы не можете начинать темыВы не можете отвечать на сообщенияВы не можете редактировать свои сообщенияВы не можете удалять свои сообщенияВы не можете голосовать в опросахВы не можете прикреплять файлы к сообщениямВы можете скачивать файлы

    piratbit.ru


    Смотрите также