Скачать через торрент фильм зеленая миля в хорошем качестве


Скачать фильм Зелёная миля через торрент в хорошем качестве бесплатно 720p

Complete name Zeljenaya.milya.1999.x264.BDRip-kinozal.tv-HD.mkvFormat : MatroskaFile size : 8.04 GiBDuration : 3h 8mnOverall bit rate : 6 100 KbpsMovie name : =kinozal.tv-HD=Encoded date : UTC 2009-10-20 13:28:50Writing application : mkvmerge v2.9.8 ('C'est le bon') built on Aug 13 2009 12:49:06Writing library : libebml v0.7.7 + libmatroska v0.8.1

VideoID : 1Format : AVCFormat/Info : Advanced Video CodecFormat profile : [email protected] settings, CABAC : YesFormat settings, ReFrames : 5 framesCodec ID : V_MPEG4/ISO/AVCDuration : 3h 8mnBit rate : 4 336 KbpsWidth : 1 280 pixelsHeight : 720 pixelsDisplay aspect ratio : 16:9Frame rate : 23.976 fpsColor space : YUVChroma subsampling : 4:2:0Bit depth : 8 bitsScan type : ProgressiveBits/(Pixel*Frame) : 0.196Stream size : 5.54 GiB (69%)Writing library : x264 core 77 r1292 e381f6dEncoding settings : cabac=1 / ref=5 / deblock=1:0:0 / analyse=0x3:0x133 / me=umh / subme=7 / psy=1 / psy_rd=1.0:0.0 / mixed_ref=1 / me_range=16 / chroma_me=1 / trellis=1 / 8x8dct=1 / cqm=0 / deadzone=21,11 / chroma_qp_offset=-2 / threads=6 / nr=0 / decimate=1 / mbaff=0 / constrained_intra=0 / bframes=3 / b_pyramid=0 / b_adapt=1 / b_bias=0 / direct=1 / wpredb=1 / keyint=250 / keyint_min=25 / scenecut=40 / rc_lookahead=40 / rc=2pass / mbtree=1 / bitrate=4336 / ratetol=1.0 / qcomp=0.60 / qpmin=10 / qpmax=51 / qpstep=4 / cplxblur=20.0 / qblur=0.5 / ip_ratio=1.40 / aq=1:1.00Language : English

Audio #1ID : 2Format : AC-3Format/Info : Audio Coding 3Mode extension : CM (complete main)Codec ID : A_AC3Duration : 3h 8mnBit rate mode : ConstantBit rate : 384 KbpsChannel(s) : 6 channelsChannel positions : Front: L C R, Side: L R, LFESampling rate : 48.0 KHzBit depth : 16 bitsCompression mode : LossyDelay relative to video : 1s 300msStream size : 518 MiB (6%)Title : MnogogoloskaLanguage : Russian

Audio #2ID : 3Format : DTSFormat/Info : Digital Theater SystemsCodec ID : A_DTSDuration : 3h 8mnBit rate mode : ConstantBit rate : 755 KbpsChannel(s) : 6 channelsChannel positions : Front: L C R, Side: L R, LFESampling rate : 48.0 KHzBit depth : 24 bitsCompression mode : LossyDelay relative to video : 1s 300msStream size : 1 018 MiB (12%)Title : AVOLanguage : Russian

Audio #3ID : 4Format : AC-3Format/Info : Audio Coding 3Mode extension : CM (complete main)Codec ID : A_AC3Duration : 3h 8mnBit rate mode : ConstantBit rate : 640 KbpsChannel(s) : 6 channelsChannel positions : Front: L C R, Side: L R, LFESampling rate : 48.0 KHzBit depth : 16 bitsCompression mode : LossyStream size : 864 MiB (10%)Language : English

Text #1ID : 5Format : UTF-8Codec ID : S_TEXT/UTF8Codec ID/Info : UTF-8 Plain TextLanguage : Russian

Text #2ID : 6Format : UTF-8Codec ID : S_TEXT/UTF8Codec ID/Info : UTF-8 Plain TextLanguage : English

piratbit.ru

rutor.org :: Зелёная миля / The Green Mile (1999) BDRip 1080p ::: Скачать торрент

Информация о фильмеНазвание: Зеленая миляОригинальное название: The Green MileГод выхода: 1999Жанр: фэнтези, драма, криминал, детективРежиссер: Фрэнк Дарабонт / Frank DarabontВ ролях: Том Хэнкс, Дэвид Морс, Бонни Хант, Майкл Кларк Дункан, Джеймс Кромуэлл, Майкл Джитер, Грэм Грин, Даг Хатчинсон, Сэм Рокуэлл, Барри Пеппер

О фильме: Обвиненный в страшном преступлении, Джон Коффи оказывается в блоке смертников тюрьмы «Холодная гора». Вновь прибывший обладал поразительным ростом и был пугающе спокоен, что, впрочем, никак не влияло на отношение к нему начальника блока Пола Эджкомба, привыкшего исполнять приговор. Гигант удивил всех позже, когда выяснилось, что он обладает невероятной магической силой…

Выпущено: СШАПродолжительность: 03:08:37Перевод: Дублированный + Авторский одноголосый (А.Гаврилов) + Оригинал

ФайлКодек: x264Качество: BDRip 1080pВидео: 1920x1080, 7482 Kbps, 23.976 fpsАудио #1: AC-3, 6 ch, 384 kbps (Rus)Аудио #2: AC-3, 6 ch, 448 kbps (Rus) ГавриловАудио #3: AC-3, 6 ch, 448 kbps (Eng)Субтитры: русские, английские

MI

Общее Уникальный идентификатор : 249895344972225925747671934504936485132 (0xBC0017C0B994017F9BD4E87580FD310C) Полное имя : Зеленая миля.1999.BDRip.1080p.Rus.Eng.mkv Формат : Matroska Версия формата : Version 4 / Version 2 Размер файла : 11,5 Гбайт Продолжительность : 3 ч. 8 м. Общий поток : 8762 Кбит/сек Название фильма : Зеленая миля.1999 Дата кодирования : UTC 2013-04-07 15:07:06 Программа кодирования : mkvmerge v6.1.0 ('Old Devil') built on Mar 4 2013 09:10:42 Библиотека кодирования : libebml v1.3.0 + libmatroska v1.4.0

Видео Идентификатор : 1 Формат : AVC Формат/Информация : Advanced Video Codec Профиль формата : [email protected] Параметр CABAC формата : Да Параметр ReFrames формата : 4 кадра Идентификатор кодека : V_MPEG4/ISO/AVC Продолжительность : 3 ч. 8 м. Битрейт : 7482 Кбит/сек Ширина : 1920 пикселей Высота : 1080 пикселей Соотношение сторон : 16:9 Режим частоты кадров : Постоянный Частота кадров : 23,976 кадра/сек Цветовое пространство : YUV Субдискретизация насыщенности : 4:2:0 Битовая глубина : 8 бит Тип развёртки : Прогрессивная Бит/(Пиксели*Кадры) : 0.150 Размер потока : 9,63 Гбайт (83%) Заголовок : Rip by Boriy Библиотека кодирования : x264 core 130 r2273 b3065e6 Настройки программы : cabac=1 / ref=4 / deblock=1:-3:-3 / analyse=0x3:0x113 / me=umh / subme=10 / psy=1 / psy_rd=1.00:0.10 / mixed_ref=1 / me_range=32 / chroma_me=1 / trellis=2 / 8x8dct=1 / cqm=0 / deadzone=21,11 / fast_pskip=0 / chroma_qp_offset=-2 / threads=12 / lookahead_threads=1 / sliced_threads=0 / nr=0 / decimate=0 / interlaced=0 / bluray_compat=0 / constrained_intra=0 / bframes=5 / b_pyramid=2 / b_adapt=2 / b_bias=0 / direct=3 / weightb=1 / open_gop=0 / weightp=2 / keyint=240 / keyint_min=23 / scenecut=40 / intra_refresh=0 / rc=2pass / mbtree=0 / bitrate=7482 / ratetol=1.0 / qcomp=0.60 / qpmin=0 / qpmax=69 / qpstep=4 / cplxblur=20.0 / qblur=0.5 / ip_ratio=1.40 / pb_ratio=1.30 / aq=1:0.80 Язык : English Default : Да Forced : Нет

Аудио #1 Идентификатор : 2 Формат : AC-3 Формат/Информация : Audio Coding 3 Расширение режима : CM (complete main) Параметр Endianness формата : Big Идентификатор кодека : A_AC3 Продолжительность : 3 ч. 8 м. Вид битрейта : Постоянный Битрейт : 384 Кбит/сек Каналы : 6 каналов Расположение каналов : Front: L C R, Side: L R, LFE Частота : 48,0 КГц Битовая глубина : 16 бит Метод сжатия : С потерями Размер потока : 518 Мбайт (4%) Заголовок : Дубляж Язык : Russian Default : Да Forced : Нет

Аудио #2 Идентификатор : 3 Формат : AC-3 Формат/Информация : Audio Coding 3 Расширение режима : CM (complete main) Параметр Endianness формата : Big Идентификатор кодека : A_AC3 Продолжительность : 3 ч. 8 м. Вид битрейта : Постоянный Битрейт : 448 Кбит/сек Каналы : 6 каналов Расположение каналов : Front: L C R, Side: L R, LFE Частота : 48,0 КГц Битовая глубина : 16 бит Метод сжатия : С потерями Размер потока : 604 Мбайт (5%) Заголовок : Авторский одноголосый (А. Гаврилов) Язык : Russian Default : Нет Forced : Нет

Аудио #3 Идентификатор : 4 Формат : AC-3 Формат/Информация : Audio Coding 3 Расширение режима : CM (complete main) Параметр Endianness формата : Big Идентификатор кодека : A_AC3 Продолжительность : 3 ч. 8 м. Вид битрейта : Постоянный Битрейт : 448 Кбит/сек Каналы : 6 каналов Расположение каналов : Front: L C R, Side: L R, LFE Частота : 48,0 КГц Битовая глубина : 16 бит Метод сжатия : С потерями Размер потока : 604 Мбайт (5%) Заголовок : Оригинал Язык : English Default : Нет Forced : Нет

Текст #1 Идентификатор : 5 Формат : UTF-8 Идентификатор кодека : S_TEXT/UTF8 Идентификатор кодека/Информация : UTF-8 Plain Text Язык : Russian Default : Нет Forced : Нет

Текст #2 Идентификатор : 6 Формат : UTF-8 Идентификатор кодека : S_TEXT/UTF8 Идентификатор кодека/Информация : UTF-8 Plain Text Язык : English Default : Нет Forced : Нет

Меню 00:00:00.000 : :Chapter 1 00:03:59.739 : :Chapter 2 00:07:41.627 : :Chapter 3 00:10:24.540 : :Chapter 4 00:15:50.407 : :Chapter 5 00:18:16.887 : :Chapter 6 00:21:51.935 : :Chapter 7 00:25:14.262 : :Chapter 8 00:27:10.837 : :Chapter 9 00:30:51.891 : :Chapter 10 00:36:25.892 : :Chapter 11 00:41:33.741 : :Chapter 12 00:43:58.177 : :Chapter 13 00:45:54.918 : :Chapter 14 00:47:47.281 : :Chapter 15 00:51:15.155 : :Chapter 16 00:53:31.958 : :Chapter 17 00:55:14.769 : :Chapter 18 01:00:38.009 : :Chapter 19 01:05:15.202 : :Chapter 20 01:08:24.934 : :Chapter 21 01:14:12.156 : :Chapter 22 01:16:14.111 : :Chapter 23 01:21:47.319 : :Chapter 24 01:24:09.294 : :Chapter 25 01:27:36.501 : :Chapter 26 01:30:37.807 : :Chapter 27 01:33:26.434 : :Chapter 28 01:36:38.709 : :Chapter 29 01:40:09.545 : :Chapter 30 01:44:22.089 : :Chapter 31 01:48:02.225 : :Chapter 32 01:52:39.878 : :Chapter 33 01:55:04.480 : :Chapter 34 01:59:51.684 : :Chapter 35 02:03:49.630 : :Chapter 36 02:05:50.376 : :Chapter 37 02:07:56.710 : :Chapter 38 02:10:52.845 : :Chapter 39 02:14:12.127 : :Chapter 40 02:17:56.935 : :Chapter 41 02:21:22.390 : :Chapter 42 02:25:51.993 : :Chapter 43 02:30:05.371 : :Chapter 44 02:34:26.674 : :Chapter 45 02:36:01.810 : :Chapter 46 02:38:20.157 : :Chapter 47 02:42:07.926 : :Chapter 48 02:44:12.717 : :Chapter 49 02:48:52.413 : :Chapter 50 02:53:01.537 : :Chapter 51 02:55:49.539 : :Chapter 52 03:00:35.032 : :Chapter 53

main-rutor.org

Скачать фильм Зелёная миля через торрент в хорошем качестве бесплатно HDRip] 2x[AVO] (А.Гаврилов

Раздают: 1 [ 0 KB/s ]
Размер: 3.16 GB | Добавлен: 3 года 11 мес. назад | Торрент скачан:229 раз
Реклама Дарим 3000 рублей за регистрацию, не упусти свой шанс получить шикарный бонус!!!

10-11-2013 09:55 Зелёная миля Скачать торрент  

Зелёная миля / The Green Mile Год выпуска: 1999Страна: СШАЖанр: Мистика, драмаПродолжительность: 03:08:37Перевод #1: Авторский (одноголосный)[А.Гаврилов]Перевод #2: Авторский (одноголосный)[Ю.Живов]Перевод #3: Профессиональный (дублированный)Русские субтитры: нетРежиссёр: Фрэнк Дарабонт / Frank Darabont

В ролях:Том Хэнкс, Дэвид Морс, Бонни Хант, Майкл Кларк Дункан, Джеймс Кромуэлл, Майкл Джетер, Грэхэм Грин, Даг Хатчинсон, Сэм Роквэлл, Бэрри Пеппер

Описание:Фильм снят по мотивам произведения Стивена Кинга "Зеленая Миля".Обвиненный в страшном преступлении, Джон Коффи оказывается в блоке смертников тюрьмы «Холодная гора». Вновь прибывший обладал поразительным ростом и был пугающе спокоен, что, впрочем, никак не влияло на отношение к нему начальника блока Пола Эджкомба, привыкшего исполнять приговор.Гигант удивил всех позже, когда выяснилось, что он обладает невероятной магической силой…

Качество: HDRipФормат: AVIВидео кодек: XviDАудио кодек: AC3Видео: 688x384 (1.79:1), 23.976 fps, XviD build 50 ~1813 kbps avg, 0.29 bit/pixelАудио #1: 48 kHz, AC3 Dolby Digital, 2/0 (L,R) ch, ~192.00 kbps avg [А.Гаврилов]Аудио #2: 48 kHz, AC3 Dolby Digital, 2/0 (L,R) ch, ~192.00 kbps avg [Ю.Живов]Аудио #3: 48 kHz, AC3 Dolby Digital, 2/0 (L,R) ch, ~192.00 kbps avg [Дубляж]

GeneralComplete name : E:INTERNETThe Green Mile.1999.HDRip.2x[AVO](Gavrilov, Jyvov) + [DUB].aviFormat : AVIFormat/Info : Audio Video InterleaveFormat profile : OpenDMLFile size : 3.16 GiBDuration : 3h 8mnOverall bit rate : 2 396 KbpsWriting application : VirtualDubMod 1.5.10.3 (build 2550/release)Writing library : VirtualDubMod build 2550/release

VideoID : 0Format : MPEG-4 VisualFormat profile : Advanced [email protected] settings, BVOP : YesFormat settings, QPel : NoFormat settings, GMC : No warppointsFormat settings, Matrix : CustomCodec ID : XVIDCodec ID/Hint : XviDDuration : 3h 8mnBit rate : 1 800 KbpsWidth : 688 pixelsHeight : 384 pixelsDisplay aspect ratio : 16:9Frame rate : 23.976 fpsColor space : YUVChroma subsampling : 4:2:0Bit depth : 8 bitsScan type : ProgressiveBits/(Pixel*Frame) : 0.284Stream size : 2.37 GiB (75%)Writing library : XviD 1.2.1 (UTC 2008-12-04)

Audio #1ID : 1Format : AC-3Format/Info : Audio Coding 3Mode extension : CM (complete main)Codec ID : 2000Duration : 3h 8mnBit rate mode : ConstantBit rate : 192 KbpsChannel(s) : 2 channelsChannel positions : Front: L RSampling rate : 48.0 KHzBit depth : 16 bitsStream size : 259 MiB (8%)Alignment : Split accross interleavesInterleave, duration : 42 ms (1.00 video frame)Interleave, preload duration : 500 ms

Audio #2ID : 2Format : AC-3Format/Info : Audio Coding 3Mode extension : CM (complete main)Codec ID : 2000Duration : 3h 8mnBit rate mode : ConstantBit rate : 192 KbpsChannel(s) : 2 channelsChannel positions : Front: L RSampling rate : 48.0 KHzBit depth : 16 bitsStream size : 259 MiB (8%)Alignment : Split accross interleavesInterleave, duration : 42 ms (1.00 video frame)Interleave, preload duration : 500 ms

Audio #3ID : 3Format : AC-3Format/Info : Audio Coding 3Mode extension : CM (complete main)Codec ID : 2000Duration : 3h 8mnBit rate mode : ConstantBit rate : 192 KbpsChannel(s) : 2 channelsChannel positions : Front: L RSampling rate : 48.0 KHzBit depth : 16 bitsStream size : 259 MiB (8%)Alignment : Split accross interleavesInterleave, duration : 42 ms (1.00 video frame)Interleave, preload duration : 500 ms

Скачать Зелёная миля через торрент http://i025.radikal.ru/0908/c2/358ae9fa450e.png Скачать фильм Зелёная миля через торрент бесплантно в хорошем качестве Описание:Фильм снят по мотивам произведения Стивена Кинга "Зеленая Миля".Обвиненный в страшном преступлении, Джон Коффи оказывается в блоке ... 2013-11-10 09:55 9.9 10 14

Loading...

Loading...

Рекламный пират

10-11-2013 10:11 Зелёная миля Скачать торрент  

А где тут мистика ?

10-11-2013 10:13 Зелёная миля Скачать торрент  

БольшевикФильм посмотри и увидишь.

10-11-2013 10:18 Зелёная миля Скачать торрент  

Большевик писал(а):

А где тут мистика ?

Цитата:

Фильм снят по мотивам произведения Стивена Кинга "Зеленая Миля".

10-11-2013 10:36 Зелёная миля Скачать торрент  

Jason_moto писал(а):

БольшевикФильм посмотри и увидишь.

Я его 4 раза смотреол и мистики не увидел. драму, да

10-11-2013 10:40 Зелёная миля Скачать торрент  

Большевик писал(а):

Jason_moto писал(а):

БольшевикФильм посмотри и увидишь.

Я его 4 раза смотреол и мистики не увидел. драму, даЗначит невнимательно смотрел... Мистики там с головой

10-11-2013 10:49 Зелёная миля Скачать торрент  

StAvRoPoLeTsДля него это походу норма)

12-08-2016 09:05 Зелёная миля Скачать торрент  

StAvRoPoLeTs писал(а):

Большевик писал(а):

Jason_moto писал(а):

БольшевикФильм посмотри и увидишь.

Я его 4 раза смотреол и мистики не увидел. драму, даЗначит невнимательно смотрел... Мистики там с головойдля некоторых мистика - когда из тумана чудища вылезают и жрут всех подряд. вообще термин "мистика" происходит от слова myst (туман) и означает произведение, в котором все "туманно", то есть неявно, отсылки к потусторонним силам, магии, чародейству, экстрасенсам, прочим явлениям природы, не имеющим научного объяснения и явных доказательств. практически все произведения Стивена Кинга основаны на мистических проявлениях, за что мы его и любим. по крайней мере 5-7 из моих любимых фильмов и книг - это произведения Кинга. Фильмы по его книгам также хороши, как и первоисточник. всем советую ознакомиться, не пожалеете.

Дорогой пользователь! Огромная просьба, поблагодарите релизера, оцените раздачу и оставьте свои комментарий, если Вы скачали Зелёная миля через торрент бесплатно! Внесите свою лепту в развитие PiratBit!

Комментировать посты могут только пользователи прошедшие не сложную регистрацию

Зелёная миля через торрент Скачать бесплатно Зелёная миля Зелёная миля скачать торрент Зелёная миля смотреть онлайн Cкачать фильм Зелёная миля бесплатно Зелёная миля скачать торрент в хорошем качестве Зелёная миля смотреть онлайн бесплатно в хорошем качестве

Вы не можете начинать темыВы не можете отвечать на сообщенияВы не можете редактировать свои сообщенияВы не можете удалять свои сообщенияВы не можете голосовать в опросахВы не можете прикреплять файлы к сообщениямВы можете скачивать файлы

piratbit.ru

Скачать фильм Зелёная миля через торрент в хорошем качестве бесплатно BDRip

Размер: 3.66 GB | Добавлен: 1 мес. 29 д. назад | Торрент скачан:6 раз
Реклама Дарим 3000 рублей за регистрацию, не упусти свой шанс получить шикарный бонус!!!

27-08-2017 12:29 Зелёная миля Скачать торрент  

Зелёная миля / The Green Mile

Год выпуска: 1999Страна: СШАЖанр: фэнтези, драма, криминал, детективПродолжительность: 03:08:35Перевод: профессиональный (полное дублирование) «Мосфильм-Мастер»Субтитры: русские (3 вида), английские (2 вида) (внешние *.srt) | в папке раздачиРежиссер: Фрэнк ДарабонтПродюсер: Фрэнк Дарабонт, Дэвид ВалдесСценарий: Фрэнк Дарабонт, Стивен КингБюджет: $60 000 000Премьера в мире: 6 декабря 1999 В ролях: Том Хэнкс, Дэвид Морс, Майкл Кларк Дункан, Бонни Хант, Джеймс Кромуэлл, Майкл Джитер, Грэм Грин, Даг Хатчисон, Сэм Рокуэлл, Барри Пеппер

Роли дублировали: Всеволод Кузнецов, Владимир Антоник, Валентин Голубенко, Любовь Германова, Александр Белявский, Дмитрий Полонский, Александр Коврижных, Борис Шувалов, Андрей Градов, Олег Вирозуб, Юрий Маляров, Лариса Некипелова, Борис Токарев, Всеволод Абдулов

Описание: Обвиненный в страшном преступлении, Джон Коффи оказывается в блоке смертников тюрьмы «Холодная гора». Вновь прибывший обладал поразительным ростом и был пугающе спокоен, что, впрочем, никак не влияло на отношение к нему начальника блока Пола Эджкомба, привыкшего исполнять приговор.

Гигант удивил всех позже, когда выяснилось, что он обладает невероятной магической силой…

Дополнительные аудиодорожки (отдельно):+ Профессиональный (многоголосый закадровый)+ Оригинал (английский)Качество: BDRipФормат: AVIВидео кодек: XviDАудио кодек: AC3Видео: 704x400 (16:9), 23.976 fps, XviD MPEG-4 ~1811 kbps avg, 0.268 bit/pixelАудио#1: 48 kHz, AC3 Dolby Digital, 3/2 (L,C,R,l,r) + LFE ch, ~384 kbps | DUB «Мосфильм-Мастер»Аудио#2: 48 kHz, AC3 Dolby Digital, 2/0 (L,R) ch, ~192 kbps | MVOАудио#3: 48 kHz, AC3 Dolby Digital, 3/2 (L,C,R,l,r) + LFE ch, ~384 kbps | ENG GeneralComplete name : D:\Мои рипы\Зелёная.миля.1999.BDRip.XviD.AC3.by_anton210896\Зелёная.миля.1999.BDRip.XviD.AC3.by_anton210896.aviFormat : AVIFormat/Info : Audio Video InterleaveFormat profile : OpenDMLFile size : 2.90 GiBDuration : 3 h 8 minOverall bit rate : 2 205 kb/sWriting application : VirtualDubMod 1.5.10.3 | www.virtualdub-fr.org || (build 2550/release)Writing library : VirtualDubMod build 2550/release

VideoID : 0Format : MPEG-4 VisualFormat profile : Advanced [email protected] settings, BVOP : 1Format settings, QPel : NoFormat settings, GMC : No warppointsFormat settings, Matrix : Default (MPEG)Codec ID : XVIDCodec ID/Hint : XviDDuration : 3 h 8 minBit rate : 1 811 kb/sWidth : 704 pixelsHeight : 400 pixelsDisplay aspect ratio : 16:9Frame rate : 23.976 (24000/1001) FPSOriginal frame rate : 23.976 (23976/1000) FPSColor space : YUVChroma subsampling : 4:2:0Bit depth : 8 bitsScan type : ProgressiveCompression mode : LossyBits/(Pixel*Frame) : 0.268Stream size : 2.39 GiB (82%)Writing library : XviD 1.2.1 (UTC 2008-12-04)

AudioID : 1Format : AC-3Format/Info : Audio Coding 3Format settings, Endianness : BigCodec ID : 2000Duration : 3 h 8 minBit rate mode : ConstantBit rate : 384 kb/sChannel(s) : 6 channelsChannel positions : Front: L C R, Side: L R, LFESampling rate : 48.0 kHzFrame rate : 31.250 FPS (1536 SPF)Bit depth : 16 bitsCompression mode : LossyStream size : 518 MiB (17%)Alignment : Split accross interleavesInterleave, duration : 42 ms (1.00 video frame)Interleave, preload duratio : 500 msService kind : Complete Main

Скачать Зелёная миля через торрент http://funkyimg.com/i/2wMo1.jpg Скачать фильм Зелёная миля через торрент бесплантно в хорошем качестве Описание: Обвиненный в страшном преступлении, Джон Коффи оказывается в блоке смертников тюрьмы «Холодная гора». Вновь прибывший обладал ... 2017-08-27 13:00 5 10 1

Loading...

Loading...

Последний раз редактировалось: anton210896 (2017-08-27 15:30), всего редактировалось 2 раз(а)

Рекламный пират

27-08-2017 15:21 Зелёная миля Скачать торрент  

очень стоящий фильм и книга.

27-08-2017 15:24 Зелёная миля Скачать торрент  

kentbes, согласен! Я его три раза пересматривал, концовка, правда, грустная, еле слёз выдержал!

27-08-2017 15:39 Зелёная миля Скачать торрент  

28-08-2017 06:17 Зелёная миля Скачать торрент  

Фильм возможно завтра дораздам! Потому что мне надо по делам к бабушке, а мне ноутбук нужен!

Дорогой пользователь! Огромная просьба, поблагодарите релизера, оцените раздачу и оставьте свои комментарий, если Вы скачали Зелёная миля через торрент бесплатно! Внесите свою лепту в развитие PiratBit!

Комментировать посты могут только пользователи прошедшие не сложную регистрацию

Зелёная миля через торрент Скачать бесплатно Зелёная миля Зелёная миля скачать торрент Зелёная миля смотреть онлайн Cкачать фильм Зелёная миля бесплатно Зелёная миля скачать торрент в хорошем качестве Зелёная миля смотреть онлайн бесплатно в хорошем качестве

Вы не можете начинать темыВы не можете отвечать на сообщенияВы не можете редактировать свои сообщенияВы не можете удалять свои сообщенияВы не можете голосовать в опросахВы не можете прикреплять файлы к сообщениямВы можете скачивать файлы

piratbit.ru

/ The Green Mile ( / Frank Darabont) [720p] [1999 ., , BDRip]

General Complete name : Green Mile.1999.BD.Rip.720p.h364.2xRus.Eng.mkv Format : Matroska File size : 7.94 GiB Duration : 3h 8mn Overall bit rate : 6 028 Kbps Encoded date : UTC 2009-10-21 08:26:35 Writing application : mkvmerge v2.9.8 ('C'est le bon') built on Aug 13 2009 12:49:06 Writing library : libebml v0.7.7 + libmatroska v0.8.1

Video

ID : 1 Format : AVC Format/Info : Advanced Video Codec Format profile : [email protected] Format settings, CABAC : Yes Format settings, ReFrames : 9 frames Muxing mode : Container [email protected] Codec ID : V_MPEG4/ISO/AVC Duration : 3h 8mn Bit rate : 4 559 Kbps Nominal bit rate : 4 810 Kbps Width : 1 280 pixels Height : 720 pixels Display aspect ratio : 16/9 Frame rate : 23.976 fps Resolution : 24 bits Colorimetry : 4:2:0 Scan type : Progressive Bits/(Pixel*Frame) : 0.206 Writing library : x264 core 77 r1292M e381f6d Encoding settings : cabac=1 / ref=9 / deblock=1:-3:-3 / analyse=0x3:0x113 / me=umh / subme=10 / psy=1 / psy_rd=1.0:0.0 / mixed_ref=1 / me_range=32 / chroma_me=1 / trellis=2 / 8x8dct=1 / cqm=0 / deadzone=21,11 / chroma_qp_offset=-2 / threads=6 / nr=0 / decimate=0 / mbaff=0 / constrained_intra=0 / bframes=6 / b_pyramid=1 / b_adapt=2 / b_bias=0 / direct=3 / wpredb=1 / keyint=240 / keyint_min=24 / scenecut=40 / rc=2pass / mbtree=0 / bitrate=4810 / ratetol=1.0 / qcomp=0.60 / qpmin=10 / qpmax=51 / qpstep=4 / cplxblur=20.0 / qblur=0.5 / ip_ratio=1.40 / pb_ratio=1.30 / aq=1:0.80 Language : English

Audio #1

ID : 2 Format : AC-3 Format/Info : Audio Coding 3 Codec ID : A_AC3 Duration : 3h 8mn Bit rate mode : Constant Bit rate : 384 Kbps Channel(s) : 6 channels Channel positions : Front: L C R, Surround: L R, LFE Sampling rate : 48.0 KHz Title : Dublyazh AC3 5.1 384 kbps Language : Russian

Audio #2

ID : 3 Format : AC-3 Format/Info : Audio Coding 3 Codec ID : A_AC3 Duration : 3h 8mn Bit rate mode : Constant Bit rate : 192 Kbps Channel(s) : 2 channels Channel positions : L R Sampling rate : 48.0 KHz Title : Mnogogoloska AC3 2.0 192 kbps Language : Russian

Audio #3

ID : 4 Format : AC-3 Format/Info : Audio Coding 3 Codec ID : A_AC3 Duration : 3h 8mn Bit rate mode : Constant Bit rate : 640 Kbps Channel(s) : 6 channels Channel positions : Front: L C R, Surround: L R, LFE Sampling rate : 48.0 KHz Title : AC3 5.1 640 kbps Language : English

Text #1

ID : 5 Format : UTF-8 Codec ID : S_TEXT/UTF8 Codec ID/Info : UTF-8 Plain Text Language : Russian

Text #2

ID : 6 Format : UTF-8 Codec ID : S_TEXT/UTF8 Codec ID/Info : UTF-8 Plain Text Language : English

Chapters

Language : English 1 : 00:00:00.000 - Same As Always 2 : 00:03:59.739 - Overcome 3 : 00:07:41.628 - 1935 (Old Alabama) 4 : 00:10:24.541 - Dead Man Walking 5 : 00:15:50.408 - Leave the Light On? 6 : 00:18:16.887 - Coffey's Story 7 : 00:21:51.936 - Percy Squeals 8 : 00:25:14.263 - Paul and Jan 9 : 00:27:10.838 - Little Visitor 10 : 00:30:51.892 - Percy Meets Mouse 11 : 00:36:25.892 - Rehearsal 12 : 00:41:33.741 - Arlen's Best Time 13 : 00:43:58.177 - Execution 14 : 00:45:54.919 - What Percy Wants 15 : 00:47:47.281 - A Circus Mouse 16 : 00:51:15.155 - Sad News 17 : 00:53:31.959 - Night's Unrest 18 : 00:55:14.770 - Wild Bill Arrives 19 : 01:00:38.009 - Coffey Takes It Back 20 : 01:05:15.203 - Feels Great 21 : 01:08:24.934 - The Warning 22 : 01:14:12.156 - Pleased 23 : 01:16:14.111 - Wild Bill's Lesson 24 : 01:21:47.319 - Showtime 25 : 01:24:09.294 - Just Playing 26 : 01:27:36.501 - Percy Strikes 27 : 01:30:37.807 - Reborn 28 : 01:33:26.434 - The Deal 29 : 01:36:38.710 - Final Arrangements 30 : 01:40:09.545 - Task Undone 31 : 01:44:22.089 - Haywire 32 : 01:48:02.226 - All That Hurt 33 : 01:52:39.878 - A Good Day 34 : 01:55:04.481 - The Coffey Plot 35 : 01:59:51.684 - All In 36 : 02:03:49.631 - Payback for Percy 37 : 02:05:50.376 - Bad Man's Grasp 38 : 02:07:56.711 - To Help a Lady 39 : 02:10:52.845 - Warden's House 40 : 02:14:12.127 - Melinda's Bedside 41 : 02:17:56.935 - "I Dreamed of You." 42 : 02:21:22.391 - Percy's Release 43 : 02:25:51.993 - Sentence Carried... 44 : 02:30:05.371 - ...Sees for Himself 45 : 02:34:26.674 - Percy Gets His Wish 46 : 02:36:01.811 - No Way Out 47 : 02:38:20.157 - Tired 48 : 02:42:07.927 - In Heaven 49 : 02:44:12.718 - Afraid of the Dark 50 : 02:48:52.414 - Kill What They Love 51 : 02:53:01.538 - An Old Friend 52 : 02:55:49.539 - My Punishment 53 : 03:00:35.033 - End Credits

unionpeer.com


Смотрите также