Скачать дурак фильм через торрент бесплатно в хорошем качестве


Скачать фильм Дурак через торрент в хорошем качестве бесплатно WEB-DLRip-AVC

GeneralUnique ID : 13486486882833345274131691033807398459 (0xA25672402A275960D4ACED009D9A63B)Complete name : D:\Users\_KaisiK_\uTorrent\Durak.(2014).O.WEB-DLRip-AVC.[-=DoMiNo=-].mkvFormat : MatroskaFormat version : Version 4 / Version 2File size : 1.42 GiBDuration : 1h 56mnOverall bit rate : 1 747 KbpsWriting application : XviD4PSP 7.0 / 55.48.100Writing library : XviD4PSP 7.0 / 55.48.100COMMENT : MATROSKA,WEBM > MKV 1280x Progressive / h364 > X264 CRF 19.0 Custom / AC3 > COPY

VideoID : 1Format : AVCFormat/Info : Advanced Video CodecFormat profile : [email protected] settings, CABAC : YesFormat settings, ReFrames : 4 framesCodec ID : V_MPEG4/ISO/AVCDuration : 1h 56mnBit rate : 1 328 KbpsWidth : 1 024 pixelsHeight : 428 pixelsDisplay aspect ratio : 2.40:1Frame rate : 25.000 fpsColor space : YUVChroma subsampling : 4:2:0Bit depth : 8 bitsScan type : ProgressiveBits/(Pixel*Frame) : 0.121Stream size : 1.08 GiB (76%)Writing library : x264 core 142 r2479M dd79a61Encoding settings : cabac=1 / ref=2 / deblock=1:-3:-3 / analyse=0x3:0x133 / me=umh / subme=6 / psy=1 / psy_rd=1,00:0,70 / mixed_ref=1 / me_range=32 / chroma_me=1 / trellis=2 / 8x8dct=1 / cqm=0 / deadzone=21,11 / fast_pskip=1 / chroma_qp_offset=-3 / threads=16 / lookahead_threads=3 / sliced_threads=0 / nr=0 / decimate=1 / interlaced=0 / bluray_compat=0 / constrained_intra=0 / bframes=11 / b_pyramid=2 / b_adapt=2 / b_bias=0 / direct=1 / weightb=1 / open_gop=0 / weightp=1 / keyint=250 / keyint_min=25 / scenecut=40 / intra_refresh=0 / rc=crf / mbtree=0 / crf=19,0 / qcomp=0,60 / qpmin=16 / qpmax=69 / qpstep=4 / ip_ratio=1,40 / pb_ratio=1,30 / aq=1:1,00Language : EnglishDefault : YesForced : No

AudioID : 2Format : AC-3Format/Info : Audio Coding 3Mode extension : CM (complete main)Codec ID : A_AC3Duration : 1h 56mnBit rate mode : ConstantBit rate : 384 KbpsChannel(s) : 6 channelsChannel positions : Front: L C R, Side: L R, LFESampling rate : 48.0 KHzBit depth : 16 bitsCompression mode : LossyStream size : 319 MiB (22%)Language : RussianDefault : YesForced : No

Menu00:00:00.000 : :Глава 100:02:53.000 : :Глава 200:06:28.000 : :Глава 300:13:21.000 : :Глава 400:21:57.000 : :Глава 500:26:05.000 : :Глава 600:31:02.000 : :Глава 700:36:29.000 : :Глава 800:44:50.000 : :Глава 900:49:34.000 : :Глава 1000:55:11.000 : :Глава 1101:05:50.000 : :Глава 1201:09:42.000 : :Глава 1301:14:16.000 : :Глава 1401:19:55.000 : :Глава 1501:25:52.000 : :Глава 1601:31:01.000 : :Глава 1701:38:35.000 : :Глава 1801:43:15.000 : :Глава 1901:48:21.000 : :Глава 20

[/code]

piratbit.ru

Скачать фильм Дурак через торрент в хорошем качестве бесплатно 1080p

ОбщееУникальный идентификатор : 192635314301219590209403804767709266190 (0x90EC3646ACD3D53BAEAE4704BA4F810E)Полное имя : E:\Torrents\Durak.2014.O.WEB-DL.1080p.mkvФормат : MatroskaВерсия формата : Version 2Размер файла : 3,75 ГбайтПродолжительность : 1 ч. 56 м.Общий поток : 4633 Кбит/секДата кодирования : UTC 2014-12-31 21:54:24Программа кодирования : mkvmerge v7.4.0 ('Circles') 64bit built on Dec 12 2014 12:19:56Библиотека кодирования : libebml v1.3.0 + libmatroska v1.4.1DURATION : 01:56:02.080000000NUMBER_OF_FRAMES : 217565NUMBER_OF_BYTES : 334179840_STATISTICS_WRITING_APP : mkvmerge v7.4.0 ('Circles') 64bit built on Dec 12 2014 12:19:56_STATISTICS_WRITING_DATE_UTC : 2014-12-31 21:54:24_STATISTICS_TAGS : BPS DURATION NUMBER_OF_FRAMES NUMBER_OF_BYTES

ВидеоИдентификатор : 1Формат : AVCФормат/Информация : Advanced Video CodecПрофиль формата : [email protected]Параметр CABAC формата : ДаПараметр ReFrames формата : 5 кадровИдентификатор кодека : V_MPEG4/ISO/AVCПродолжительность : 1 ч. 56 м.Ширина : 1920 пикселейВысота : 806 пикселейСоотношение сторон : 2,40:1Режим частоты кадров : ПостоянныйЧастота кадров : 25,000 кадров/секЦветовое пространство : YUVСубдискретизация насыщенности : 4:2:0Битовая глубина : 8 битТип развёртки : ПрогрессивнаяЯзык : EnglishDefault : ДаForced : НетОсновные цвета : BT.709Характеристики трансфера : BT.709Коэффициенты матрицы : BT.709

Аудио #1Идентификатор : 2Формат : AC-3Формат/Информация : Audio Coding 3Расширение режима : CM (complete main)Параметр Endianness формата : BigИдентификатор кодека : A_AC3Продолжительность : 1 ч. 56 м.Вид битрейта : ПостоянныйБитрейт : 384 Кбит/секКаналы : 6 каналовРасположение каналов : Front: L C R, Side: L R, LFEЧастота : 48,0 КГцБитовая глубина : 16 битМетод сжатия : С потерямиРазмер потока : 319 Мбайт (8%)Язык : RussianDefault : ДаForced : Нет

Аудио #2Идентификатор : 3Формат : AACФормат/Информация : Advanced Audio CodecПрофиль формата : LCИдентификатор кодека : A_AACПродолжительность : 1 ч. 56 м.Каналы : 2 каналаРасположение каналов : Front: L RЧастота : 48,0 КГцМетод сжатия : С потерямиЯзык : RussianDefault : НетForced : Нет

Меню00:00:00.000 : en:Глава 100:02:53.000 : en:Глава 200:06:28.000 : en:Глава 300:13:21.000 : en:Глава 400:21:57.000 : en:Глава 500:26:05.000 : en:Глава 600:31:02.000 : en:Глава 700:36:29.000 : en:Глава 800:44:50.000 : en:Глава 900:49:34.000 : en:Глава 1000:55:11.000 : en:Глава 1101:05:50.000 : en:Глава 1201:09:42.000 : en:Глава 1301:14:16.000 : en:Глава 1401:19:55.000 : en:Глава 1501:25:52.000 : en:Глава 1601:31:01.000 : en:Глава 1701:38:35.000 : en:Глава 1801:43:15.000 : en:Глава 1901:48:21.000 : en:Глава 20

piratbit.ru

Скачать фильм Дурак через торрент в хорошем качестве бесплатно BDRip-AVC от sokol_ok

ОбщееУникальный идентификатор : 223037346511117304855118437900500110126 (0xA7CB6E3111D3E6F58E343BCB353C8B2E)Полное имя : M:\1Rips\Durak\Durak.2014.BDRip-AVC.2.18Gb.stalkerok.new-team.mkvФормат : MatroskaВерсия формата : Version 4 / Version 2Размер файла : 2,18 ГбайтПродолжительность : 2 ч. 0 м.Общий поток : 2583 Кбит/секНазвание фильма : Дурак (2014) (New-Team) (Rip by Stalker oK)Дата кодирования : UTC 2016-05-04 12:14:27Программа кодирования : mkvmerge v8.6.1 ('Flying') 64bitБиблиотека кодирования : libebml v1.3.3 + libmatroska v1.4.4

ВидеоИдентификатор : 1Формат : AVCФормат/Информация : Advanced Video CodecПрофиль формата : [email protected]Параметр CABAC формата : ДаПараметр ReFrames формата : 13 кадровИдентификатор кодека : V_MPEG4/ISO/AVCПродолжительность : 2 ч. 0 м.Битрейт : 2199 Кбит/секШирина : 1152 пикселяВысота : 484 пикселяСоотношение сторон : 2,40:1Режим частоты кадров : ПостоянныйЧастота кадров : 24,000 кадра/секЦветовое пространство : YUVСубдискретизация насыщенности : 4:2:0Битовая глубина : 8 битТип развёртки : ПрогрессивнаяБит/(Пиксели*Кадры) : 0.164Размер потока : 1,85 Гбайт (85%)Заголовок : Дурак (2014) (New-Team) (Rip by Stalker oK)Библиотека кодирования : x264 core 148 r2665kMod a01e339Настройки программы : cabac=1 / ref=13 / deblock=1:-3:-2 / analyse=0x3:0x133 / me=umh / subme=11 / psy=1 / fade_compensate=0.00 / psy_rd=1.00:0.05 / mixed_ref=1 / me_range=48 / chroma_me=1 / trellis=2 / 8x8dct=1 / cqm=0 / deadzone=21,11 / fast_pskip=0 / chroma_qp_offset=-3 / threads=12 / lookahead_threads=3 / sliced_threads=0 / nr=0 / decimate=0 / interlaced=0 / bluray_compat=0 / constrained_intra=0 / fgo=0 / bframes=14 / b_pyramid=2 / b_adapt=2 / b_bias=0 / direct=3 / weightb=1 / open_gop=0 / weightp=2 / keyint=240 / keyint_min=23 / scenecut=40 / intra_refresh=0 / rc_lookahead=60 / rc=2pass / mbtree=0 / bitrate=2199 / ratetol=1.0 / qcomp=0.70 / qpmin=0 / qpmax=69 / qpstep=4 / cplxblur=20.0 / qblur=0.5 / vbv_maxrate=50000 / vbv_bufsize=62500 / nal_hrd=none / filler=0 / ip_ratio=1.40 / pb_ratio=1.30 / aq=3:0.83Default : ДаForced : Нет

АудиоИдентификатор : 2Формат : AC-3Формат/Информация : Audio Coding 3Расширение режима : CM (complete main)Параметр Endianness формата : BigИдентификатор кодека : A_AC3Продолжительность : 2 ч. 0 м.Вид битрейта : ПостоянныйБитрейт : 384 Кбит/секКаналы : 6 каналовРасположение каналов : Front: L C R, Side: L R, LFEЧастота : 48,0 КГцЧастота кадров : 31,250 кадров/сек (1536 spf)Метод сжатия : С потерямиРазмер потока : 332 Мбайт (15%)Язык : RussianDefault : ДаForced : Нет

ТекстИдентификатор : 3Формат : UTF-8Идентификатор кодека : S_TEXT/UTF8Идентификатор кодека/Информация : UTF-8 Plain TextПродолжительность : 1 ч. 57 м.Битрейт : 48 бит/секCount of elements : 1027Размер потока : 41,7 Кбайт (0%)Язык : EnglishDefault : НетForced : Нет

Меню00:00:10.917 : en:Chapter 100:11:42.417 : en:Chapter 200:27:12.500 : en:Chapter 300:38:02.292 : en:Chapter 400:55:06.917 : en:Chapter 501:10:12.458 : en:Chapter 601:29:27.583 : en:Chapter 701:47:34.833 : en:Chapter 801:55:22.083 : en:Chapter 9

piratbit.ru

Скачать фильм Дурак через торрент в хорошем качестве бесплатно Blu-ray

Размер: 22.79 GB | Добавлен: 1 год 5 мес. назад | Торрент скачан:1 раз
Реклама Дарим 3000 рублей за регистрацию, не упусти свой шанс получить шикарный бонус!!!

Дурак

Год выпуска: 2014Страна: РоссияЖанр: ДрамаПродолжительность: 02:00:52Перевод: ОригинальныйСубтитры: Английские

Режиссер: Юрий Быков

В ролях: Артём Быстров, Наталья Суркова, Юрий Цурило, Борис Невзоров, Кирилл Полухин, Роман Майоров, Иван Брэд, Александр Коршунов, Ольга Самошина, Дарья Мороз

Описание: Жизни более 800 человек старого общежития, висят буквально на волоске из-за безразличия местных властей. В любую секунду здание может рухнуть. И кто бы мог подумать, что судьбы людей окажутся в руках простого сантехника. Но удастся ли ему что-то изменить и предотвратить катастрофу?

Качество: Blu-rayФормат: BDAVВидео кодек: AVCАудио кодек: DTSВидео: MPEG-4 AVC, (1920x1080),22994 Кбит/с, 23.976 кадра/секАудио#1: DTS, 2 ch,1509 kbps (Rus) 48.0 KHz Оригинал

Тип потока: ВидеоДлительность: 02:00:52Кодек: AVCКодек/описание: Advanced Video CodecКодек/профиль: [email protected]Кодек/ID: 27Кодек/CABAC: YesКодек/ReFrames: 4 framesРазмеры изображения: 1920 x 1080 (16:9)Частота кадров: 24.000 fpsБитрейт/макс: 38.0 MbpsБитрейт/тип: VBRЦветовое пространство: YUVТип развёртки: ProgressiveКолориметрия: 4:2:0Глубина: 8 bits: Тип потока: Звук #1Длительность: 02:00:52.182Кодек: DTSКодек/описание: Digital Theater SystemsКодек/профиль: MA / CoreРежим смешивания: Stream extensionКодек/ID: 134Частота дискретизации: 48.0 KHzКаналов: 2 channelsБитрейт: Unknown / 1 509 KbpsБитрейт/тип: VariableГлубина: 24 bitsМетод сжатия: Lossless / Lossy: Тип потока: Субтитры #1Формат: PGS

Скачать Дурак через торрент http://pic1.pb.wtf/images/10/rk761.jpg Скачать фильм Дурак через торрент бесплантно в хорошем качестве Описание: Жизни более 800 человек старого общежития, висят буквально на волоске из-за безразличия местных властей. В любую секунду здание ... 2016-05-01 11:11 10 10 1

Loading...

Loading...

Рекламный пират

5000 тысяч очков золото

Дорогой пользователь! Огромная просьба, поблагодарите релизера, оцените раздачу и оставьте свои комментарий, если Вы скачали Дурак через торрент бесплатно! Внесите свою лепту в развитие PiratBit!

Комментировать посты могут только пользователи прошедшие не сложную регистрацию

Дурак через торрент Скачать бесплатно Дурак Дурак скачать торрент Дурак смотреть онлайн Cкачать фильм Дурак бесплатно Дурак скачать торрент в хорошем качестве Дурак смотреть онлайн бесплатно в хорошем качестве

Вы можете начинать темыВы можете отвечать на сообщенияВы не можете редактировать свои сообщенияВы не можете удалять свои сообщенияВы не можете голосовать в опросахВы не можете прикреплять файлы к сообщениямВы можете скачивать файлы

piratbit.ru


Смотрите также