Скачать фильм 1000 слов через торрент в хорошем качестве


Скачать фильм Тысяча слов через торрент в хорошем качестве бесплатно 720p

ОбщееУникальный идентификатор : 241578327569610203876700782077616105060 (0xB5BE4B22B186244F94E52EB38E54A664)Полное имя : D:\DVD\A.Thousand.Words.2012.720p.BluRay.x264.HDChina.mkvФормат : MatroskaВерсия формата : Version 2Размер файла : 3,82 ГбайтПродолжительность : 1 ч. 31 м.Общий поток : 5980 Кбит/секНазвание фильма : A.Thousand.Words.2012.720p.BluRay.x264.HDChina.(Slav).mkvДата кодирования : UTC 2012-08-13 17:45:46Программа кодирования : mkvmerge v3.4.0 ('Rapunzel') сборка от May 15 2010 09:38:20Библиотека кодирования : libebml v0.8.0 + libmatroska v0.9.0

ВидеоИдентификатор : 1Формат : AVCФормат/Информация : Advanced Video CodecПрофиль формата : [email protected]Параметр CABAC формата : ДаПараметр ReFrames формата : 12 кадровИдентификатор кодека : V_MPEG4/ISO/AVCБитрейт : 5200 Кбит/секШирина : 1280 пикселейВысота : 534 пикселяСоотношение сторон : 2,40:1Режим частоты кадров : ПеременныйЧастота кадров в оригинале : 23,976 кадра/секЦветовое пространство : YUVСубдискретизация насыщенности : 4:2:0Битовая глубина : 8 битТип развёртки : ПрогрессивнаяБит/(Пиксели*Кадры) : 0.317Заголовок : A.Thousand.Words.2012.720p.BluRay.x264.HDChinaБиблиотека кодирования : x264 core 125 r2200 999b753Настройки программы : cabac=1 / ref=12 / deblock=1:-3:-3 / analyse=0x3:0x113 / me=umh / subme=10 / psy=1 / psy_rd=1.10:0.00 / mixed_ref=1 / me_range=32 / chroma_me=1 / trellis=2 / 8x8dct=1 / cqm=0 / deadzone=21,11 / fast_pskip=0 / chroma_qp_offset=-2 / threads=18 / lookahead_threads=3 / sliced_threads=0 / nr=0 / decimate=0 / interlaced=0 / bluray_compat=0 / constrained_intra=0 / bframes=8 / b_pyramid=2 / b_adapt=2 / b_bias=0 / direct=3 / weightb=1 / open_gop=0 / weightp=2 / keyint=240 / keyint_min=24 / scenecut=40 / intra_refresh=0 / rc_lookahead=120 / rc=2pass / mbtree=1 / bitrate=5200 / ratetol=1.0 / qcomp=0.70 / qpmin=0 / qpmax=69 / qpstep=4 / cplxblur=20.0 / qblur=0.5 / ip_ratio=1.40 / aq=1:1.05Язык : EnglishDefault : НетForced : Нет

Аудио #1Идентификатор : 2Формат : AC-3Формат/Информация : Audio Coding 3Расширение режима : CM (complete main)Параметр Endianness формата : BigИдентификатор кодека : A_AC3Продолжительность : 1 ч. 31 м.Вид битрейта : ПостоянныйБитрейт : 384 Кбит/секКаналы : 6 каналовРасположение каналов : Front: L C R, Side: L R, LFEЧастота : 48,0 КГцБитовая глубина : 16 битМетод сжатия : С потерямиРазмер потока : 251 Мбайт (6%)Заголовок : Dub (НТВ+)Язык : RussianDefault : ДаForced : Да

Аудио #2Идентификатор : 3Формат : AC-3Формат/Информация : Audio Coding 3Расширение режима : CM (complete main)Параметр Endianness формата : BigИдентификатор кодека : A_AC3Продолжительность : 1 ч. 31 м.Вид битрейта : ПостоянныйБитрейт : 384 Кбит/секКаналы : 6 каналовРасположение каналов : Front: L C R, Side: L R, LFEЧастота : 48,0 КГцБитовая глубина : 16 битМетод сжатия : С потерямиРазмер потока : 251 Мбайт (6%)Язык : EnglishDefault : НетForced : Нет

ТекстИдентификатор : 4Формат : PGSИдентификатор кодека : S_HDMV/PGSИдентификатор кодека/Информация : The same subtitle format used on BDs/HD-DVDsЯзык : EnglishDefault : НетForced : Нет

piratbit.ru

Скачать фильм Тысяча слов через торрент в хорошем качестве бесплатно 1080p

Размер: 25.57 GB | Добавлен: 4 года 3 мес. назад | Торрент скачан:19 раз
Реклама Дарим 3000 рублей за регистрацию, не упусти свой шанс получить шикарный бонус!!!

16-07-2013 19:51 Тысяча слов Скачать торрент  

Тысяча слов / A Thousand Words«He only has 1000 words left to discover what matters the most.»
  • Год выпуска:2012
  • Страна: США
  • Жанр:фэнтези, драма, комедия
  • Продолжительность: 01:31:30
  • Перевод:Профессиональный (многоголосый, закадровый)
  • Субтитры: Russian, English
    • Режиссер: Брайан Роббинс / Brian Robbins
    • Продюсер:Шарла Самптер / Sharla Sumpter, Николас Кейдж / Nicolas Cage, Ален Шаба / Alain Chabat, Стефани Дэнан / Stephanie Danan, Норман Голайтли / Norman Golightly
    • Сценарий:Стив Корен / Steve Koren
  • В ролях:Эдди Мёрфи (Jack McCall), Клифф Кёртис (Dr. Sinja), Кларк Дьюк (Aaron Wiseberger), Керри Вашингтон (Caroline McCall), Эллисон Дженни (Samantha Davis), Эмануэл Рэгсдэйл (Tyler McCall), Джилл Бейси (Woman in Starbucks), Грег Коллинз (Construction Worker), Роберт Лекванг (Starbucks Customer), Майкл Дж. Уилкинсон (Starbucks Customer), Линдси Нельсон (Starbucks Customer), Майкл Коуди Гилберт (Starbucks Customer)
    • Описание:Главный герой - трепло, каких свет не видывал. И вот однажды этот говорливый персонаж узнаёт, что ему осталось произнести вслух ровно тысячу слов, после чего он обязательно умрёт...
  • Рейтингkinopoisk.ru: 6.924 (13 918)imdb.com: 5.60 (17 792)MPAA: PG-13 - Детям до 13 лет просмотр не желателен
    • Качество:BD Remux
    • Формат: BDAV
    • Видео кодек: AVC
    • Аудио кодек: DTS-AC3
    • Видео: AVC, 1920x1080 (16:9), 34891 kbps, 23,976 fps, 0,702 bpp
    • Аудио №1: русский / AC3 / 5.1 / 48 kHz / 384 kbps / 16 bit | |Многоголосый закадровый, НТВ ||Аудио №2: русский / DTS-HD / 5.1 / 48 kHz / 1560 kbps / 24 bit (Core: 5.1 / 48 kHz / 1510 kbps / 24 bit) | Одноголосый закадровый, А.Карповский|Аудио №3: английский / DTS-HD / 5.1 / 48 kHz / 1575 kbps / 24 bit (Core: 5.1 / 48 kHz / 1510 kbps / 24 bit) |Английский|
    Disc Title: A.Thousand.Words.2012.BDRemux.1080pDisc Size: 27 458 112 624 bytesProtection: AACSBD-Java: NoBDInfo: 0.5.8

    Notes:

    BDINFO HOME:Cinema Squidhttp://www.cinemasquid.com/blu-ray/tools/bdinfo

    INCLUDES FORUMS REPORT FOR:AVS Forum Blu-ray Audio and Video Specifications Threadhttp://www.avsforum.com/avs-vb/showthread.php?t=1155731

    ********************PLAYLIST: 00000.MPLS********************

    Код:

    Total   VideoTitle                                                           Codec   Length  Movie Size      Disc Size       Bitrate Bitrate Main Audio Track                          Secondary Audio Track-----                                                           ------  ------- --------------  --------------  ------- ------- ------------------                        ---------------------00000.MPLS                                                      AVC     1:31:30 27 458 021 376  27 458 112 624  40,01   29,88   DD AC3 5.1 384Kbps                        DTS-HD Master 5.1 3722Kbps (48kHz/24-bit)

    Код:

    DISC INFO:

    Disc Title:     A.Thousand.Words.2012.BDRemux.1080pDisc Size:      27 458 112 624 bytesProtection:     AACSBD-Java:        NoBDInfo:         0.5.8

    PLAYLIST REPORT:

    Name:                   00000.MPLSLength:                 1:31:30.443 (h:m:s.ms)Size:                   27 458 021 376 bytesTotal Bitrate:          40,01 Mbps

    VIDEO:

    Codec                   Bitrate             Description-----                   -------             -----------MPEG-4 AVC Video        29883 kbps          1080p / 23,976 fps / 16:9 / High Profile 4.1

    AUDIO:

    Codec                           Language        Bitrate         Description-----                           --------        -------         -----------Dolby Digital Audio             Russian         384 kbps        5.1 / 48 kHz / 384 kbps / DN -4dBDTS-HD Master Audio             Russian         3722 kbps       5.1 / 48 kHz / 3722 kbps / 24-bit (DTS Core: 5.1 / 48 kHz / 1509 kbps / 24-bit)DTS-HD Master Audio             English         3679 kbps       5.1 / 48 kHz / 3679 kbps / 24-bit (DTS Core: 5.1 / 48 kHz / 1509 kbps / 24-bit)

    SUBTITLES:

    Codec                           Language        Bitrate         Description-----                           --------        -------         -----------Presentation Graphics           Russian         34,001 kbpsPresentation Graphics           English         43,227 kbpsPresentation Graphics           English         47,008 kbps

    FILES:

    Name            Time In         Length          Size            Total Bitrate----            -------         ------          ----            -------------00000.M2TS      0:00:00.000     1:31:30.443     27 458 021 376  40 008

    CHAPTERS:

    Number          Time In         Length          Avg Video Rate  Max 1-Sec Rate  Max 1-Sec Time  Max 5-Sec Rate  Max 5-Sec Time  Max 10Sec Rate  Max 10Sec Time  Avg Frame Size  Max Frame Size  Max Frame Time------          -------         ------          --------------  --------------  --------------  --------------  --------------  --------------  --------------  --------------  --------------  --------------1               0:00:00.000     0:07:33.869     29 726 kbps     44 157 kbps     00:01:02.187    34 280 kbps     00:01:02.187    33 371 kbps     00:01:02.187    154 961 bytes   711 514 bytes   00:06:17.5432               0:07:33.869     0:05:30.413     30 062 kbps     38 227 kbps     00:12:21.240    32 828 kbps     00:12:20.531    31 644 kbps     00:10:57.406    156 729 bytes   673 260 bytes   00:07:40.2933               0:13:04.282     0:08:30.343     30 052 kbps     40 743 kbps     00:13:20.257    32 755 kbps     00:15:21.253    32 009 kbps     00:13:12.124    156 677 bytes   545 232 bytes   00:21:34.6264               0:21:34.626     0:06:39.441     30 621 kbps     44 931 kbps     00:25:15.388    35 399 kbps     00:25:11.384    32 917 kbps     00:25:09.966    159 643 bytes   632 154 bytes   00:28:02.8475               0:28:14.067     0:06:33.518     30 370 kbps     41 539 kbps     00:29:58.296    33 619 kbps     00:29:58.296    32 535 kbps     00:29:56.544    158 333 bytes   617 895 bytes   00:28:15.7356               0:34:47.585     0:06:47.197     29 699 kbps     37 137 kbps     00:36:19.886    32 376 kbps     00:36:16.257    30 952 kbps     00:36:12.879    154 839 bytes   679 670 bytes   00:38:06.9937               0:41:34.783     0:04:57.338     30 058 kbps     42 042 kbps     00:43:12.298    32 743 kbps     00:41:59.058    31 726 kbps     00:45:21.552    156 710 bytes   564 918 bytes   00:42:01.6028               0:46:32.122     0:06:56.583     30 031 kbps     37 999 kbps     00:51:35.050    32 583 kbps     00:50:14.052    31 615 kbps     00:47:21.338    156 568 bytes   533 082 bytes   00:50:15.2629               0:53:28.705     0:06:40.524     30 357 kbps     38 246 kbps     00:58:02.729    32 896 kbps     00:59:00.036    32 156 kbps     00:58:55.031    158 265 bytes   753 003 bytes   00:59:41.49410              1:00:09.229     0:09:08.214     30 084 kbps     37 546 kbps     01:09:14.483    32 850 kbps     01:06:52.550    31 355 kbps     01:06:52.508    156 844 bytes   728 593 bytes   01:02:00.00711              1:09:17.444     0:05:34.417     30 313 kbps     37 473 kbps     01:14:27.462    33 519 kbps     01:13:48.340    31 961 kbps     01:13:43.460    158 038 bytes   692 132 bytes   01:10:10.95612              1:14:51.862     0:06:59.042     30 295 kbps     43 414 kbps     01:19:45.447    34 096 kbps     01:19:43.236    32 758 kbps     01:19:37.898    157 957 bytes   720 937 bytes   01:20:05.25813              1:21:50.905     0:04:55.128     30 230 kbps     47 722 kbps     01:21:53.199    34 717 kbps     01:22:12.427    32 758 kbps     01:22:07.339    157 605 bytes   668 932 bytes   01:24:51.50314              1:26:46.033     0:04:44.409     25 261 kbps     38 426 kbps     01:31:09.088    34 785 kbps     01:27:37.126    33 877 kbps     01:27:32.288    131 721 bytes   743 339 bytes   01:31:24.937

    STREAM DIAGNOSTICS:

    File            PID             Type            Codec           Language                Seconds                 Bitrate                 Bytes           Packets----            ---             ----            -----           --------                --------------          --------------          -------------   -----00000.M2TS      4113 (0x1011)   0x1B            AVC                                     5490,402                29 884                  20 509 248 073  111 540 80000000.M2TS      4352 (0x1100)   0x81            AC3             rus (Russian)           5490,402                384                     263 457 792     1 543 69800000.M2TS      4353 (0x1101)   0x86            DTS-HD MA       rus (Russian)           5490,402                3 722                   2 554 710 044   14 737 99600000.M2TS      4354 (0x1102)   0x86            DTS-HD MA       eng (English)           5490,402                3 679                   2 525 181 416   14 580 38500000.M2TS      4608 (0x1200)   0x90            PGS             rus (Russian)           5490,402                34                      23 335 476      136 04300000.M2TS      4609 (0x1201)   0x90            PGS             eng (English)           5490,402                43                      29 666 812      170 53600000.M2TS      4610 (0x1202)   0x90            PGS             eng (English)           5490,402                47                      32 262 101      185 558

    QUICK SUMMARY:

    Disc Title: A.Thousand.Words.2012.BDRemux.1080pDisc Size: 27 458 112 624 bytesProtection: AACSBD-Java: NoPlaylist: 00000.MPLSSize: 27 458 021 376 bytesLength: 1:31:30.443Total Bitrate: 40,01 MbpsVideo: MPEG-4 AVC Video / 29883 kbps / 1080p / 23,976 fps / 16:9 / High Profile 4.1Audio: Russian / Dolby Digital Audio / 5.1 / 48 kHz / 384 kbps / DN -4dBAudio: Russian / DTS-HD Master Audio / 5.1 / 48 kHz / 3722 kbps / 24-bit (DTS Core: 5.1 / 48 kHz / 1509 kbps / 24-bit)Audio: English / DTS-HD Master Audio / 5.1 / 48 kHz / 3679 kbps / 24-bit (DTS Core: 5.1 / 48 kHz / 1509 kbps / 24-bit)Subtitle: Russian / 34,001 kbpsSubtitle: English / 43,227 kbpsSubtitle: English / 47,008 kbps

    GeneralID : 1 (0x1)Complete name : D:ТорентыBDMVSTREAM�0000.m2tsFormat : BDAVFormat/Info : Blu-ray VideoFile size : 25.6 GiBDuration : 1h 31mnOverall bit rate mode : VariableOverall bit rate : 40.0 MbpsMaximum Overall bit rate : 35.5 Mbps

    VideoID : 4113 (0x1011)Menu ID : 1 (0x1)Format : AVCFormat/Info : Advanced Video CodecFormat profile : [email protected] settings, CABAC : YesFormat settings, ReFrames : 2 framesCodec ID : 27Duration : 1h 31mnBit rate mode : VariableBit rate : 34.9 MbpsWidth : 1 920 pixelsHeight : 1 080 pixelsDisplay aspect ratio : 16:9Frame rate : 23.976 fpsColor space : YUVChroma subsampling : 4:2:0Bit depth : 8 bitsScan type : ProgressiveBits/(Pixel*Frame) : 0.702Stream size : 22.3 GiB (87%)

    Audio #1ID : 4352 (0x1100)Menu ID : 1 (0x1)Format : AC-3Format/Info : Audio Coding 3Mode extension : CM (complete main)Codec ID : 129Duration : 1h 31mnBit rate mode : ConstantBit rate : 384 KbpsChannel(s) : 6 channelsChannel positions : Front: L C R, Side: L R, LFESampling rate : 48.0 KHzBit depth : 16 bitsCompression mode : LossyStream size : 251 MiB (1%)Language : Russian

    Audio #2ID : 4353 (0x1101)Menu ID : 1 (0x1)Format : DTSFormat/Info : Digital Theater SystemsFormat profile : MA / CoreMuxing mode : Stream extensionCodec ID : 134Duration : 1h 31mnBit rate mode : VariableBit rate : 1 561 Kbps / 1 510 KbpsChannel(s) : 6 channelsChannel positions : Front: L C R, Side: L R, LFESampling rate : 48.0 KHzBit depth : 24 bitsCompression mode : Lossless / LossyLanguage : Russian

    Audio #3ID : 4354 (0x1102)Menu ID : 1 (0x1)Format : DTSFormat/Info : Digital Theater SystemsFormat profile : MA / CoreMuxing mode : Stream extensionCodec ID : 134Duration : 1h 31mnBit rate mode : VariableBit rate : 1 576 Kbps / 1 510 KbpsChannel(s) : 6 channelsChannel positions : Front: L C R, Side: L R, LFESampling rate : 48.0 KHzBit depth : 24 bitsCompression mode : Lossless / LossyLanguage : English

    Сценарий: Стив Корен / Steve KorenПродюсер: Шарла Самптер / Sharla Sumpter, Николас Кейдж / Nicolas Cage, Ален Шаба / Alain Chabat, Стефани Дэнан / Stephanie Danan, Норман Голайтли / Norman GolightlyОператор: Дж. Кларк Мэтис / J. Clark MathisКомпозитор: Джон Дебни / John Debney

    Бюджет: $40 000 000Сборы в США: $18 450 127Сборы в мире: $20 558 836

    Мировая премьера: 9 марта 2012

  • © Оформление by Vetal Скачать Тысяча слов через торрент http://i6.imageban.ru/out/2013/07/16/8b5e102fa970192f3c1d7e6d72193fed.jpg Скачать фильм Тысяча слов через торрент бесплантно в хорошем качестве Описание:Главный герой - трепло, каких свет не видывал. И вот однажды этот говорливый персонаж узнаёт, что ему осталось произнести вслух ... 2013-07-16 19:51 8.3 10 4

    Loading...

    Loading...

    Рекламный пират

    16-07-2013 21:10 Тысяча слов Скачать торрент  

    Отличный фильм, жалко без дубляжа

    Дорогой пользователь! Огромная просьба, поблагодарите релизера, оцените раздачу и оставьте свои комментарий, если Вы скачали Тысяча слов через торрент бесплатно! Внесите свою лепту в развитие PiratBit!

    Комментировать посты могут только пользователи прошедшие не сложную регистрацию

    Тысяча слов через торрент Скачать бесплатно Тысяча слов Тысяча слов скачать торрент Тысяча слов смотреть онлайн Cкачать фильм Тысяча слов бесплатно Тысяча слов скачать торрент в хорошем качестве Тысяча слов смотреть онлайн бесплатно в хорошем качестве

    Вы не можете начинать темыВы не можете отвечать на сообщенияВы не можете редактировать свои сообщенияВы не можете удалять свои сообщенияВы не можете голосовать в опросахВы не можете прикреплять файлы к сообщениямВы можете скачивать файлы

    piratbit.ru

    Скачать фильм Тысяча слов через торрент в хорошем качестве бесплатно 1080p)

    GeneralUnique ID : 254749481940592530827248674896599572873 (0xBFA6F72EDA11CA7CA82E6AF153ABE189)Complete name : D:\Тысяча слов(1080p).mkvFormat : MatroskaFormat version : Version 2File size : 10.00 GiBDuration : 1h 31mnOverall bit rate : 15.6 MbpsMovie name : "Muxed by Goliaf"Encoded date : UTC 2012-08-14 08:58:29Writing application : mkvmerge v5.7.0 ('The Whirlwind') built on Jul 8 2012 20:08:51Writing library : libebml v1.2.3 + libmatroska v1.3.0

    VideoID : 1Format : AVCFormat/Info : Advanced Video CodecFormat profile : [email protected] settings, CABAC : YesFormat settings, ReFrames : 5 framesCodec ID : V_MPEG4/ISO/AVCDuration : 1h 31mnBit rate : 13.5 MbpsWidth : 1 920 pixelsHeight : 800 pixelsDisplay aspect ratio : 2.40:1Frame rate : 23.976 fpsColor space : YUVChroma subsampling : 4:2:0Bit depth : 8 bitsScan type : ProgressiveBits/(Pixel*Frame) : 0.367Stream size : 8.43 GiB (84%)Title : DONWriting library : x264 core 116 r2057 0ba8a9cEncoding settings : cabac=1 / ref=5 / deblock=1:-3:-3 / analyse=0x3:0x133 / me=umh / subme=10 / psy=1 / psy_rd=1.00:0.00 / mixed_ref=1 / me_range=32 / chroma_me=1 / trellis=2 / 8x8dct=1 / cqm=0 / deadzone=21,11 / fast_pskip=0 / chroma_qp_offset=-2 / threads=14 / sliced_threads=0 / nr=0 / decimate=0 / interlaced=0 / bluray_compat=0 / constrained_intra=0 / bframes=7 / b_pyramid=2 / b_adapt=2 / b_bias=0 / direct=3 / weightb=1 / open_gop=0 / weightp=2 / keyint=250 / keyint_min=23 / scenecut=40 / intra_refresh=0 / rc_lookahead=40 / rc=2pass / mbtree=0 / bitrate=13500 / ratetol=1.0 / qcomp=0.65 / qpmin=0 / qpmax=40 / qpstep=4 / cplxblur=20.0 / qblur=0.5 / vbv_maxrate=50000 / vbv_bufsize=50000 / nal_hrd=none / ip_ratio=1.25 / pb_ratio=1.25 / aq=1:0.65Language : EnglishDefault : YesForced : No

    Audio #1ID : 2Format : AC-3Format/Info : Audio Coding 3Mode extension : CM (complete main)Format settings, Endianness : BigCodec ID : A_AC3Duration : 1h 31mnBit rate mode : ConstantBit rate : 192 KbpsChannel(s) : 2 channelsChannel positions : Front: L RSampling rate : 48.0 KHzBit depth : 16 bitsCompression mode : LossyStream size : 126 MiB (1%)Title : MVO [НТВ+]Language : RussianDefault : YesForced : No

    Audio #2ID : 3Format : AC-3Format/Info : Audio Coding 3Mode extension : CM (complete main)Format settings, Endianness : BigCodec ID : A_AC3Duration : 1h 31mnBit rate mode : ConstantBit rate : 448 KbpsChannel(s) : 6 channelsChannel positions : Front: L C R, Side: L R, LFESampling rate : 48.0 KHzBit depth : 16 bitsCompression mode : LossyStream size : 293 MiB (3%)Title : DVO [Студия "Райдо"]Language : RussianDefault : NoForced : No

    Audio #3ID : 4Format : DTSFormat/Info : Digital Theater SystemsCodec ID : A_DTSDuration : 1h 31mnBit rate mode : ConstantBit rate : 1 510 KbpsChannel(s) : 6 channelsChannel positions : Front: L C R, Side: L R, LFESampling rate : 48.0 KHzBit depth : 24 bitsCompression mode : LossyStream size : 988 MiB (10%)Language : EnglishDefault : NoForced : No

    Text #1ID : 5Format : UTF-8Codec ID : S_TEXT/UTF8Codec ID/Info : UTF-8 Plain TextTitle : [janetta]Language : RussianDefault : NoForced : No

    Text #2ID : 6Format : UTF-8Codec ID : S_TEXT/UTF8Codec ID/Info : UTF-8 Plain TextLanguage : EnglishDefault : NoForced : No

    Text #3ID : 7Format : UTF-8Codec ID : S_TEXT/UTF8Codec ID/Info : UTF-8 Plain TextLanguage : PortugueseDefault : NoForced : No

    Menu00:00:00.000 : en:00:00:00.00000:07:33.870 : en:00:07:33.87000:13:04.283 : en:00:13:04.28300:21:34.627 : en:00:21:34.62700:28:14.067 : en:00:28:14.06700:34:47.585 : en:00:34:47.58500:41:34.784 : en:00:41:34.78400:46:32.123 : en:00:46:32.12300:53:28.705 : en:00:53:28.70501:00:09.231 : en:01:00:09.23101:09:17.445 : en:01:09:17.44501:14:51.862 : en:01:14:51.86201:21:50.906 : en:01:21:50.90601:26:46.034 : en:01:26:46.034

    piratbit.ru

    Скачать фильм Тысяча слов через торрент в хорошем качестве бесплатно HDRip

    Размер: 1.46 GB | Добавлен: 5 лет 2 мес. назад | Торрент скачан:2205 раз
    Реклама Дарим 3000 рублей за регистрацию, не упусти свой шанс получить шикарный бонус!!!

    13-08-2012 16:23 Тысяча слов Скачать торрент  

    Тысяча слов / A Thousand Words Год выпуска: 2012Страна: СШАЖанр: Комедия, ДрамаПродолжительность: 01:31:30Перевод: Профессиональный (многоголосый) (НТВ )Режиссер: Брайан РоббинсПродюссер: Шарла Самптер, Николас Кейдж, Ален ШабаСценарий: Стив КоренБюджет: $40 000 000В ролях: Эдди Мёрфи, Керри Вашингтон, Эмануэл Рэгсдэйл, Джилл Бейси, Грег Коллинз, Роберт Лекванг, Майкл Дж. Уилкинсон, Линдси Нельсон, Майкл Коуди Гилберт, Лу СалибаОписание: Главный герой — трепло, каких свет не видывал. И вот однажды этот говорливый персонаж узнаёт, что ему осталось произнести вслух ровно тысячу слов, после чего он обязательно умрёт…Качество: HDRipФормат: AVIВидео кодек: XviDАудио кодек: AC3Видео: Xvid 720x304 23.976fps 1888kbpsАудио1: Dolby AC3 48Hz stereo 192kbps (Rus)Аудио2: Dolby AC3 48Hz stereo 192kbps (English)Сэмпл[URL=http:// СПАМ Скачать Тысяча слов через торрент http://i002.radikal.ru/1208/ff/6f03796b8d65.jpg Скачать фильм Тысяча слов через торрент бесплантно в хорошем качестве Описание: Главный герой — трепло, каких свет не видывал. И вот однажды этот говорливый персонаж узнаёт, что ему осталось произнести вслух ... 2012-08-13 16:23 10 10 11

    Loading...

    Loading...

    Последний раз редактировалось: Lyfe (2012-08-13 17:04), всего редактировалось 2 раз(а)

    Рекламный пират

    13-08-2012 16:49 Тысяча слов Скачать торрент  

    как фильм? кто смотрел отпишитесь, пожалуйста.

    13-08-2012 17:05 Тысяча слов Скачать торрент  

    igorisimos писал(а):

    как фильм? кто смотрел отпишитесь, пожалуйста.

    отличный фильм

    13-08-2012 17:22 Тысяча слов Скачать торрент  

    О вечерком гляну!

    13-08-2012 17:31 Тысяча слов Скачать торрент  

    Будет ли дубляж?

    13-08-2012 19:58 Тысяча слов Скачать торрент  

    Margaritto писал(а):

    Будет ли дубляж?

    возможно, когда то и будет, но на данный момент нет)

    13-08-2012 22:17 Тысяча слов Скачать торрент  

    Дак как перевод закадровый да???

    16-08-2012 08:07 Тысяча слов Скачать торрент  

    Фильм довольно неплохой. Стоит глянуть

    17-08-2012 15:15 Тысяча слов Скачать торрент  

    Нормалек спасибо

    Pекламный агент PB

    Дорогой пользователь! Огромная просьба, поблагодарите релизера, оцените раздачу и оставьте свои комментарий, если Вы скачали Тысяча слов через торрент бесплатно! Внесите свою лепту в развитие PiratBit!

    Комментировать посты могут только пользователи прошедшие не сложную регистрацию

    Тысяча слов через торрент Скачать бесплатно Тысяча слов Тысяча слов скачать торрент Тысяча слов смотреть онлайн Cкачать фильм Тысяча слов бесплатно Тысяча слов скачать торрент в хорошем качестве Тысяча слов смотреть онлайн бесплатно в хорошем качестве

    Вы не можете начинать темыВы не можете отвечать на сообщенияВы не можете редактировать свои сообщенияВы не можете удалять свои сообщенияВы не можете голосовать в опросахВы не можете прикреплять файлы к сообщениямВы можете скачивать файлы

    piratbit.ru


    Смотрите также