Скачать фильм 13 грехов через торрент в хорошем качестве бесплатно


Скачать торрент 13 грехов / 13 Sins (2014) HDRip-AVC от New-Team

13 грехов13 Sins

«Играешь не ты, играют тобой»

Страна: СШАЖанр: триллер, ужасыГод выпуска: 2014Продолжительность: 01:32:31

Перевод: Профессиональный (полное дублирование) [НТВ+]Субтитры: русские (полные), английские (полные, SDH, SDH цветные)Оригинальная аудиодорожка: нет

Режиссер: Даниэль Штамм / Daniel Stamm

В ролях: Марк Веббер, Рутина Уэсли, Девон Грайе, Прюитт Тэйлор Винс, Том Бауэр, Рон Перлман, Клайд Джонс, Денин Тайлер, Том Лосон мл., Шэрон Смит, Грег Пирсон, Ричи Монтгомери

Описание: Эллиот Бриндл - умный кроткий сотрудник службы социального обеспечения, тонущий в долгах. Всё меняется, когда раздаётся телефонный звонок. Парню сообщают, что он становится участником ТВ-шоу, условия простые - выполнить 13 заданий, какими бы странными они ни были; на кону - денежный приз, сумма которого увеличивается с каждым выполненным заданием. Эллиот следует первым инструкциям и с лёгкостью съедает пойманную муху. Вскоре Эллиот хочет, но не может прекратить игру, хотя задачи становятся более опасными, а точка невозврата скоро будет пройдена.

Релиз:

Автор рипа: stalkerok

Сэмпл

Качество видео: HDRip-AVC [BDRip 1080p HDAccess]Формат видео: MKVВидео кодек: AVCАудио кодек: AC3Видео: 1863 Кбит/сек, 960x402 (2.40:1), 23,976 кадр/сек, AVCАудио: русский, 384 Кбит/сек, 48 КГц, 16 бит, 5.1, AC3Навигация по главам: есть

MediaInfo

Общее Уникальный идентификатор : 247561824530507767893299308233044236944 (0xBA3EAC4FF4F2917DAA8A6BD3A1279A90) Полное имя : M:2Rips13 Sins13.Sins.2014.HDRip-AVC.Dub.1.45Gb.stalkerok.new-team.mkv Формат : Matroska Версия формата : Version 4 / Version 2 Размер файла : 1,45 Гбайт Продолжительность : 1 ч. 32 м. Общий поток : 2248 Кбит/сек Название фильма : 13 Sins (2014) (New-Team) (Rip by Stalker oK) Дата кодирования : UTC 2016-07-06 09:39:17 Программа кодирования : mkvmerge v8.6.1 ('Flying') 64bit Библиотека кодирования : libebml v1.3.3 + libmatroska v1.4.4

Видео Идентификатор : 1 Формат : AVC Формат/Информация : Advanced Video Codec Профиль формата : [email protected] Параметр CABAC формата : Да Параметр ReFrames формата : 12 кадров Идентификатор кодека : V_MPEG4/ISO/AVC Продолжительность : 1 ч. 32 м. Битрейт : 1863 Кбит/сек Ширина : 960 пикселей Высота : 402 пикселя Соотношение сторон : 2,40:1 Режим частоты кадров : Постоянный Частота кадров : 23,976 (24000/1001) кадра/сек Цветовое пространство : YUV Субдискретизация насыщенности : 4:2:0 Битовая глубина : 8 бит Тип развёртки : Прогрессивная Бит/(Пиксели*Кадры) : 0.201 Размер потока : 1,20 Гбайт (83%) Библиотека кодирования : x264 core 138 r2358 9e941d1 Настройки программы : cabac=1 / ref=12 / deblock=1:-2:-2 / analyse=0x3:0x133 / me=umh / subme=11 / psy=1 / psy_rd=1.03:0.08 / mixed_ref=1 / me_range=48 / chroma_me=1 / trellis=2 / 8x8dct=1 / cqm=0 / deadzone=21,11 / fast_pskip=0 / chroma_qp_offset=-3 / threads=12 / lookahead_threads=3 / sliced_threads=0 / nr=0 / decimate=0 / interlaced=0 / bluray_compat=0 / constrained_intra=0 / bframes=12 / b_pyramid=2 / b_adapt=2 / b_bias=0 / direct=3 / weightb=1 / open_gop=0 / weightp=2 / keyint=240 / keyint_min=23 / scenecut=40 / intra_refresh=0 / rc_lookahead=80 / rc=2pass / mbtree=1 / bitrate=1863 / ratetol=1.0 / qcomp=0.65 / qpmin=0 / qpmax=69 / qpstep=4 / cplxblur=20.0 / qblur=0.5 / vbv_maxrate=20000 / vbv_bufsize=25000 / nal_hrd=none / ip_ratio=1.40 / aq=2:1.00 Default : Да Forced : Нет

Аудио Идентификатор : 2 Формат : AC-3 Формат/Информация : Audio Coding 3 Расширение режима : CM (complete main) Параметр Endianness формата : Big Идентификатор кодека : A_AC3 Продолжительность : 1 ч. 32 м. Вид битрейта : Постоянный Битрейт : 384 Кбит/сек Каналы : 6 каналов Расположение каналов : Front: L C R, Side: L R, LFE Частота : 48,0 КГц Частота кадров : 31,250 кадров/сек (1536 spf) Метод сжатия : С потерями Размер потока : 254 Мбайт (17%) Язык : Russian Default : Да Forced : Нет

Текст #1 Идентификатор : 3 Формат : UTF-8 Идентификатор кодека : S_TEXT/UTF8 Идентификатор кодека/Информация : UTF-8 Plain Text Продолжительность : 1 ч. 27 м. Битрейт : 81 бит/сек Count of elements : 903 Размер потока : 52,2 Кбайт (0%) Заголовок : lumez Язык : Russian Default : Нет Forced : Нет

Текст #2 Идентификатор : 4 Формат : UTF-8 Идентификатор кодека : S_TEXT/UTF8 Идентификатор кодека/Информация : UTF-8 Plain Text Продолжительность : 1 ч. 27 м. Битрейт : 54 бит/сек Count of elements : 922 Размер потока : 34,9 Кбайт (0%) Заголовок : Full Язык : English Default : Нет Forced : Нет

Текст #3 Идентификатор : 5 Формат : UTF-8 Идентификатор кодека : S_TEXT/UTF8 Идентификатор кодека/Информация : UTF-8 Plain Text Продолжительность : 1 ч. 27 м. Битрейт : 61 бит/сек Count of elements : 1065 Размер потока : 39,7 Кбайт (0%) Заголовок : SDH Язык : English Default : Нет Forced : Нет

Текст #4 Идентификатор : 6 Формат : UTF-8 Идентификатор кодека : S_TEXT/UTF8 Идентификатор кодека/Информация : UTF-8 Plain Text Продолжительность : 1 ч. 27 м. Битрейт : 75 бит/сек Count of elements : 1068 Размер потока : 48,8 Кбайт (0%) Заголовок : SDH-Colored Язык : English Default : Нет Forced : Нет

Меню 00:00:00.000 : en:Chapter 01 00:05:10.602 : en:Chapter 02 00:10:52.610 : en:Chapter 03 00:16:12.972 : en:Chapter 04 00:23:14.685 : en:Chapter 05 00:28:38.926 : en:Chapter 06 00:35:55.528 : en:Chapter 07 00:40:40.897 : en:Chapter 08 00:48:50.177 : en:Chapter 09 00:56:12.077 : en:Chapter 10 01:03:46.823 : en:Chapter 11 01:11:24.447 : en:Chapter 12 01:15:58.262 : en:Chapter 13 01:22:09.716 : en:Chapter 14 01:28:21.296 : en:Chapter 15

krutor.org

Скачать фильм 13 грехов через торрент в хорошем качестве бесплатно 1080p

Формат : Matroska

Версия формата : Version 2

Размер файла : 7,77 Гбайт

Продолжительность : 1 ч. 32 м.

Общий поток : 12,0 Мбит/сек

Название фильма : ~V~

Дата кодирования : UTC 2015-09-04 05:18:14

Программа кодирования : mkvmerge v6.5.0 ('Isn't she lovely') built on Oct 20 2013 12:50:05

Библиотека кодирования : libebml v1.3.0 + libmatroska v1.4.1

Attachements : cover.jpg

Видео

Идентификатор : 1

Формат : AVC

Формат/Информация : Advanced Video Codec

Профиль формата : [email protected]

Параметр CABAC формата : Да

Параметр ReFrames формата : 5 кадров

Идентификатор кодека : V_MPEG4/ISO/AVC

Продолжительность : 1 ч. 32 м.

Битрейт : 8550 Кбит/сек

Ширина : 1920 пикселей

Высота : 804 пикселя

Соотношение сторон : 2,40:1

Режим частоты кадров : Постоянный

Частота кадров : 23,976 кадра/сек

Цветовое пространство : YUV

Субдискретизация насыщенности : 4:2:0

Битовая глубина : 8 бит

Тип развёртки : Прогрессивная

Бит/(Пиксели*Кадры) : 0.231

Размер потока : 5,37 Гбайт (69%)

Заголовок : ~Vad~

Библиотека кодирования : x264 core 142 r0+4281 a3bf0d5 Test [[email protected] X86_64]

Настройки программы : cabac=1 / ref=5 / deblock=1:-3:-3 / analyse=0x3:0x133 / me=umh / subme=11 / psy=1 / fade_compensate=0.00 / psy_rd=1.05:0.00 / mixed_ref=1 / me_range=32 / chroma_me=0 / trellis=2 / 8x8dct=1 / cqm=0 / deadzone=21,11 / fast_pskip=1 / chroma_qp_offset=-2 / threads=12 / lookahead_threads=1 / sliced_threads=0 / nr=0 / decimate=0 / interlaced=0 / bluray_compat=0 / constrained_intra=0 / fgo=0 / bframes=10 / b_pyramid=2 / b_adapt=2 / b_bias=0 / direct=3 / weightb=1 / open_gop=0 / weightp=2 / keyint=240 / keyint_min=23 / scenecut=40 / intra_refresh=0 / rc=2pass / mbtree=0 / bitrate=8550 / ratetol=1.0 / qcomp=0.60 / qpmin=0:0:0 / qpmax=69:69:69 / qpstep=4 / cplxblur=20.0 / qblur=0.5 / ip_ratio=1.40 / pb_ratio=1.30 / aq=4:0.70 / aq-sensitivity=9.00 / aq-factor=1.00:1.00:1.00 / aq2=1:0.70 / aq2-sensitivity=14.00 / aq2-factor=1.00:1.00:1.00 / aq3=1:[0.60:0.60]:[0.60:0.60]:[0.60:0.60]:[0.60:0.60] / aq3-sensitivity=10.00 / aq3-factor=[1.00:1.00]:[1.00:1.00]:[1.00:1.00] / aq3-boundary=192:64:24

Язык : English

Default : Да

Forced : Нет

Аудио #1

Идентификатор : 2

Формат : AC-3

Формат/Информация : Audio Coding 3

Расширение режима : CM (complete main)

Параметр Endianness формата : Big

Идентификатор кодека : A_AC3

Продолжительность : 1 ч. 32 м.

Вид битрейта : Постоянный

Битрейт : 448 Кбит/сек

Каналы : 6 каналов

Расположение каналов : Front: L C R, Side: L R, LFE

Частота : 48,0 КГц

Метод сжатия : С потерями

Размер потока : 297 Мбайт (4%)

Заголовок : Dub: AC3, 6 ch, 448 Кбит/с

Язык : Russian

Default : Да

Forced : Нет

Аудио #2

Идентификатор : 3

Формат : DTS

Формат/Информация : Digital Theater Systems

Режим : 16

Параметр Endianness формата : Big

Идентификатор кодека : A_DTS

Продолжительность : 1 ч. 32 м.

Вид битрейта : Постоянный

Битрейт : 1510 Кбит/сек

Каналы : 6 каналов

Расположение каналов : Front: L C R, Side: L R, LFE

Частота : 48,0 КГц

Битовая глубина : 24 бит

Метод сжатия : С потерями

Размер потока : 999 Мбайт (13%)

Заголовок : R.A.I.M & GUGU: DTS, 6 ch, 1510 Кбит/с

Язык : Russian

Default : Нет

Forced : Нет

Аудио #3

Идентификатор : 4

Формат : DTS

Формат/Информация : Digital Theater Systems

Режим : 16

Параметр Endianness формата : Big

Идентификатор кодека : A_DTS

Продолжительность : 1 ч. 32 м.

Вид битрейта : Постоянный

Битрейт : 1509 Кбит/сек

Каналы : 6 каналов

Расположение каналов : Front: L C R, Side: L R, LFE

Частота : 48,0 КГц

Битовая глубина : 24 бит

Метод сжатия : С потерями

Размер потока : 999 Мбайт (13%)

Заголовок : DTS, 6 ch, 1509 Кбит/с

Язык : English

Default : Нет

Forced : Нет

Текст #1

Идентификатор : 5

Формат : UTF-8

Идентификатор кодека : S_TEXT/UTF8

Идентификатор кодека/Информация : UTF-8 Plain Text

Язык : Russian

Default : Нет

Forced : Нет

Текст #2

Идентификатор : 6

Формат : UTF-8

Идентификатор кодека : S_TEXT/UTF8

Идентификатор кодека/Информация : UTF-8 Plain Text

Язык : English

Default : Нет

Forced : Нет

Меню

00:00:00.000 : en:Chapter 0

00:05:10.601 : en:Chapter 0

00:10:52.610 : en:Chapter 0

00:16:12.972 : en:Chapter 0

00:23:14.685 : en:Chapter 0

00:28:38.926 : en:Chapter 0

00:35:55.527 : en:Chapter 0

00:40:40.897 : en:Chapter 0

00:48:50.177 : en:Chapter 0

00:56:12.077 : en:Chapter 0

01:03:46.823 : en:Chapter 0

01:11:24.447 : en:Chapter 0

01:15:58.262 : en:Chapter 0

01:22:09.716 : en:Chapter 0

01:28:21.296 : en:Chapter 0

piratbit.ru

Скачать фильм 13 грехов через торрент в хорошем качестве бесплатно BDRip от Twi7ter

Раздают: 1 [ 0 KB/s ]
Размер: 1.46 GB | Добавлен: 2 года 1 мес. назад | Торрент скачан:1141 раз
Реклама Дарим 3000 рублей за регистрацию, не упусти свой шанс получить шикарный бонус!!!

04-09-2015 17:59 13 грехов Скачать торрент  

13 грехов / 13 Sins

«Играешь не ты, играют тобой»

Год выпуска: 2014Страна: СШАЖанр: триллер, ужасыПродолжительность: 01:32:31Перевод: Профессиональный (полное дублирование) [НТВ+]Субтитры: НетРежиссер: Даниэль Штамм / Daniel StammВ ролях: Марк Веббер (Elliot Brindle), Рутина Уэсли (Shelby), Девон Грайе (Michael Brindle), Прюитт Тэйлор Винс (Vogler), Том Бауэр (Father), Рон Перлман (Det. Chilcoat), Клайд Джонс (Gerry), Денин Тайлер (Joyce), Том Лосон мл. (Prof. Edgar Solomon), Шэрон Смит (ведущая), Грег Пирсон (Security Guard), Ричи Монтгомери (Apartment Manager)Описание: Эллиот Бриндл - умный кроткий сотрудник службы социального обеспечения, тонущий в долгах. Всё меняется, когда раздаётся телефонный звонок. Парню сообщают, что он становится участником ТВ-шоу, условия простые - выполнить 13 заданий, какими бы странными они ни были; на кону - денежный приз, сумма которого увеличивается с каждым выполненным заданием. Эллиот следует первым инструкциям и с лёгкостью съедает пойманную муху. Вскоре Эллиот хочет, но не может прекратить игру, хотя задачи становятся более опасными, а точка невозврата скоро будет пройдена.Рейтинг:

MPAA: R - Лицам до 17 лет обязательно присутствие взрослого

Качество: BDRip | исх. 13.Sins.2014.1080p.BluRay.AVC.DTS-HD.MA.5.1 |Формат: AVIВидео кодек: XviDАудио кодек: AC3Видео: 720x304 (2.37:1), 23.976 fps, XviD build 73 ~1802 kbps avg, 0.34 bit/pixelАудио: 48 kHz, AC3 Dolby Digital, 3/2 (L,C,R,l,r) + LFE ch, ~448 kbps

Релиз: & MegaPeer

Скачать 13 грехов через торрент http://i66.fastpic.ru/big/2015/0905/2d/bfadd3981c5bc9d6e66247110e28ac2d.png Скачать фильм 13 грехов через торрент бесплантно в хорошем качестве Описание: Эллиот Бриндл - умный кроткий сотрудник службы социального обеспечения, тонущий в долгах. Всё меняется, когда раздаётся ... 2015-09-04 17:59 9.9 10 27

Loading...

Loading...

Последний раз редактировалось: Twi7ter (2015-09-05 05:52), всего редактировалось 1 раз

Рекламный пират

04-09-2015 18:15 13 грехов Скачать торрент  

пойдёт, а на что способен ТЫ !?

04-09-2015 23:35 13 грехов Скачать торрент  

прикольный фильмец

07-09-2015 07:32 13 грехов Скачать торрент  

Понравился, хотя концовки ожидал другой совсем..

Дорогой пользователь! Огромная просьба, поблагодарите релизера, оцените раздачу и оставьте свои комментарий, если Вы скачали 13 грехов через торрент бесплатно! Внесите свою лепту в развитие PiratBit!

Комментировать посты могут только пользователи прошедшие не сложную регистрацию

13 грехов через торрент Скачать бесплатно 13 грехов 13 грехов скачать торрент 13 грехов смотреть онлайн Cкачать фильм 13 грехов бесплатно 13 грехов скачать торрент в хорошем качестве 13 грехов смотреть онлайн бесплатно в хорошем качестве

Вы не можете начинать темыВы не можете отвечать на сообщенияВы не можете редактировать свои сообщенияВы не можете удалять свои сообщенияВы не можете голосовать в опросахВы не можете прикреплять файлы к сообщениямВы можете скачивать файлы

piratbit.ru

Скачать фильм 13 грехов через торрент в хорошем качестве бесплатно BDRip-AVC от potroks

GeneralUnique ID                                : 184625681587783061323651596704970804070 (0x8AE59CE4DEC2A2C3B8B12E181EE58B66)Complete name                            : F:\Триллер\13.Grehov.2013.DUAL.BDRip.x264.-HELLYWOOD.mkvFormat                                   : MatroskaFormat version                           : Version 4 / Version 2File size                                : 2.18 GiBDuration                                 : 1h 32mnOverall bit rate                         : 3 375 KbpsMovie name                               : 13 Sins (2014) - HELLYWOODEncoded date                             : UTC 2015-09-04 13:51:07Writing application                      : mkvmerge v5.9.0 ('On The Loose') built on Dec 15 2012 16:39:58Writing library                          : libebml v1.3.0 + libmatroska v1.4.0

VideoID                                       : 1Format                                   : AVCFormat/Info                              : Advanced Video CodecFormat profile                           : [email protected] settings, CABAC                   : YesFormat settings, ReFrames                : 10 framesCodec ID                                 : V_MPEG4/ISO/AVCDuration                                 : 1h 32mnBit rate                                 : 2 477 KbpsWidth                                    : 1 080 pixelsHeight                                   : 450 pixelsDisplay aspect ratio                     : 2.40:1Frame rate                               : 23.976 fpsColor space                              : YUVChroma subsampling                       : 4:2:0Bit depth                                : 8 bitsScan type                                : ProgressiveBits/(Pixel*Frame)                       : 0.213Stream size                              : 1.56 GiB (71%)Title                                    : potroksWriting library                          : x264 core 130 r2273 b3065e6Encoding settings                        : cabac=1 / ref=10 / deblock=1:-2:-2 / analyse=0x3:0x133 / me=umh / subme=11 / psy=1 / psy_rd=0.98:0.00 / mixed_ref=1 / me_range=48 / chroma_me=1 / trellis=2 / 8x8dct=1 / cqm=0 / deadzone=21,11 / fast_pskip=0 / chroma_qp_offset=-2 / threads=9 / lookahead_threads=6 / sliced_threads=0 / nr=0 / decimate=0 / interlaced=0 / bluray_compat=0 / constrained_intra=0 / bframes=11 / b_pyramid=2 / b_adapt=2 / b_bias=0 / direct=3 / weightb=1 / open_gop=0 / weightp=2 / keyint=250 / keyint_min=23 / scenecut=40 / intra_refresh=0 / rc_lookahead=60 / rc=2pass / mbtree=0 / bitrate=2477 / ratetol=1.0 / qcomp=0.70 / qpmin=0 / qpmax=69 / qpstep=4 / cplxblur=20.0 / qblur=0.5 / vbv_maxrate=20000 / vbv_bufsize=25000 / nal_hrd=none / ip_ratio=1.35 / pb_ratio=1.25 / aq=1:0.80Language                                 : EnglishDefault                                  : YesForced                                   : No

Audio #1ID                                       : 2Format                                   : AC-3Format/Info                              : Audio Coding 3Mode extension                           : CM (complete main)Codec ID                                 : A_AC3Duration                                 : 1h 32mnBit rate mode                            : ConstantBit rate                                 : 448 KbpsChannel(s)                               : 6 channelsChannel positions                        : Front: L C R, Side: L R, LFESampling rate                            : 48.0 KHzBit depth                                : 16 bitsCompression mode                         : LossyStream size                              : 297 MiB (13%)Title                                    : Dub | DD 5.1 @ 448 kbps - NTV+Language                                 : RussianDefault                                  : YesForced                                   : No

Audio #2ID                                       : 3Format                                   : AC-3Format/Info                              : Audio Coding 3Mode extension                           : CM (complete main)Codec ID                                 : A_AC3Duration                                 : 1h 32mnBit rate mode                            : ConstantBit rate                                 : 448 KbpsChannel(s)                               : 6 channelsChannel positions                        : Front: L C R, Side: L R, LFESampling rate                            : 48.0 KHzBit depth                                : 16 bitsCompression mode                         : LossyStream size                              : 297 MiB (13%)Title                                    : Original | DD 5.1 @ 448 kbpsLanguage                                 : EnglishDefault                                  : NoForced                                   : No

Text #1ID                                       : 4Format                                   : UTF-8Codec ID                                 : S_TEXT/UTF8Codec ID/Info                            : UTF-8 Plain TextTitle                                    : lumezLanguage                                 : RussianDefault                                  : NoForced                                   : No

Text #2ID                                       : 5Format                                   : UTF-8Codec ID                                 : S_TEXT/UTF8Codec ID/Info                            : UTF-8 Plain TextTitle                                    : FullLanguage                                 : EnglishDefault                                  : NoForced                                   : No

Text #3ID                                       : 6Format                                   : UTF-8Codec ID                                 : S_TEXT/UTF8Codec ID/Info                            : UTF-8 Plain TextTitle                                    : SDHLanguage                                 : EnglishDefault                                  : NoForced                                   : No

Text #4ID                                       : 7Format                                   : UTF-8Codec ID                                 : S_TEXT/UTF8Codec ID/Info                            : UTF-8 Plain TextTitle                                    : SDH-ColoredLanguage                                 : EnglishDefault                                  : NoForced                                   : No

Menu00:00:00.000                             : en:(01)00:00:00:00000:05:10.601                             : en:(02)00:05:10:60100:10:52.610                             : en:(03)00:10:52:61000:16:12.972                             : en:(04)00:16:12:97200:23:14.684                             : en:(05)00:23:14:68400:28:38.925                             : en:(06)00:28:38:92500:35:55.528                             : en:(07)00:35:55:52800:40:40.896                             : en:(08)00:40:40:89600:48:50.177                             : en:(09)00:48:50:17700:56:12.077                             : en:(10)00:56:12:07701:03:46.823                             : en:(11)01:03:46:82301:11:24.446                             : en:(12)01:11:24:44601:15:58.262                             : en:(13)01:15:58:26201:22:09.716                             : en:(14)01:22:09:71601:28:21.296                             : en:(15)01:28:21:29601:32:31.712                             : en:(16)01:32:31:712

piratbit.ru

Скачать фильм 13 грехов (2013) через торрент

16 февраля 2016 12:31 13 грехов / 13 Sins (2014) HDRip-AVC от ExKinoRay | D .torrent   [Информация о файле (нажмите для просмотра)] Качество: HDRip (AVC)Видео: MPEG-4 AVC, 1723 Кбит/с, 1024x428Аудио: Русский (AC3, 6 ch, 448 Кбит/с), английский (AC3, 6 ch, 384 Кбит/с)Перевод: Дублированный (НТВ+)Субтитры: Русские, английские 1,65 Gb 123 5 16 февраля 2016 12:31 13 грехов / 13 Sins (2014) BDRip от Twi7ter | D .torrent   [Информация о файле (нажмите для просмотра)] Перевод: Профессиональный (полное дублирование)[НТВ+]Субтитры: НетКачество: BDRip| исх. 13.Sins.2014.1080p.BluRay.AVC.DTS-HD.MA.5.1 |Формат: AVIВидео: 720x304 (2.37:1), 23.976 fps, XviD build 73 ~1802 kbps avg, 0.34 bit/pixelАудио: 48 kHz, AC3 Dolby Digital, 3/2 (L,C,R,l,r) + LFE ch, ~448 kbps 1,46 Gb 226 14 16 февраля 2016 12:31 13 грехов / 13 Sins (2013) BDRip-AVC от HELLYWOOD | D .torrent   [Информация о файле (нажмите для просмотра)] Перевод: Дубляж [НТВ+]Субтитры: русские, английские (Full), английские (SDH), английские (SDH-Colored),Качество: BDRip-AVCФормат: MKVВидео: AVC, 1080x450 (2.40:1), 2477 kbps, 23,976 fps, 0,213 bppАудио №1: AC3 / 5.1 / 48 kHz / 448 kbps / 16 bit| RUS Аудио №2: AC3 / 5.1 / 48 kHz / 448 kbps / 16 bit| ENG 2,18 Gb 71 6 16 февраля 2016 12:31 13 грехов / 13 Sins (2014) BDRip 720p | D, L1 .torrent   [Информация о файле (нажмите для просмотра)] Качество: BDRip 720pВидео: MPEG-4 AVC, 3910 Кбит/с, 1280x536Аудио: Русский (AC3, 6 ch, 448 Кбит/с), (AC3, 6 ch, 384 Кбит/с), английский (DTS, 6 ch, 1510 Кбит/с)Субтитры: Русские, английские 4,03 Gb 85 13 16 февраля 2016 12:31 13 грехов / 13 Sins (2014) BDRip 1080p от HDReactor | D, L .torrent   [Информация о файле (нажмите для просмотра)] Перевод: Дублированный (НТВ+), любительский двухголосый (R.A.I.M & GUGU)Субтитры: Русские, английскиеКачество: BDRip (1080p)Видео: MPEG-4 AVC, 8550 Кбит/с, 1920x804Аудио: 1. Русский (AC3, 6 ch, 448 Кбит/с)- НТВ+ 2. Русский(DTS, 6 ch, 1510 Кбит/с)- R.A.I.M & GUGU - Присутствует ненормативная лексика! 3. Английский (DTS, 6 ch, 1509 Кбит/с)Видео: Идентификатор : 1 Формат : AVC Формат/Информация : Advanced Video Codec Профиль формата : [email protected] Параметр CABAC формата : Да Параметр ReFrames формата : 5 кадров Идентификатор кодека : V_MPEG4/ISO/AVC Продолжительность : 1 ч. 32 м. Битрейт : 8550 Кбит/сек Ширина : 1920 пикселей Высота : 804 пикселя Соотношение сторон : 2,40:1 Режим частоты кадров : Постоянный Частота кадров : 23,976 кадра/сек Цветовое пространство : YUV Субдискретизация насыщенности : 4:2:0 Битовая глубина : 8 бит Тип развёртки : Прогрессивная Бит/(Пиксели*Кадры) : 0.231 Размер потока : 5,37 Гбайт (69%) Заголовок : ~Vad~ Библиотека кодирования : x264 core 142 r0+4281 a3bf0d5 Test [[email protected] X86_64] Настройки программы : cabac=1 / ref=5 / deblock=1:-3:-3 / analyse=0x3:0x133 / me=umh / subme=11 / psy=1 / fade_compensate=0.00 / psy_rd=1.05:0.00 / mixed_ref=1 / me_range=32 / chroma_me=0 / trellis=2 / 8x8dct=1 / cqm=0 / deadzone=21,11 / fast_pskip=1 / chroma_qp_offset=-2 / threads=12 / lookahead_threads=1 / sliced_threads=0 / nr=0 / decimate=0 / interlaced=0 / bluray_compat=0 / constrained_intra=0 / fgo=0 / bframes=10 / b_pyramid=2 / b_adapt=2 / b_bias=0 / direct=3 / weightb=1 / open_gop=0 / weightp=2 / keyint=240 / keyint_min=23 / scenecut=40 / intra_refresh=0 / rc=2pass / mbtree=0 / bitrate=8550 / ratetol=1.0 / qcomp=0.60 / qpmin=0:0:0 / qpmax=69:69:69 / qpstep=4 / cplxblur=20.0 / qblur=0.5 / ip_ratio=1.40 / pb_ratio=1.30 / aq=4:0.70 / aq-sensitivity=9.00 / aq-factor=1.00:1.00:1.00 / aq2=1:0.70 / aq2-sensitivity=14.00 / aq2-factor=1.00:1.00:1.00 / aq3=1:[0.60:0.60]:[0.60:0.60]:[0.60:0.60]:[0.60:0.60] / aq3-sensitivity=10.00 / aq3-factor=[1.00:1.00]:[1.00:1.00]:[1.00:1.00] / aq3-boundary=192:64:24 Язык : English Default : Да Forced : НетАудио #1: Идентификатор : 2 Формат : AC-3 Формат/Информация : Audio Coding 3 Расширение режима : CM (complete main) Параметр Endianness формата : Big Идентификатор кодека : A_AC3 Продолжительность : 1 ч. 32 м. Вид битрейта : Постоянный Битрейт : 448 Кбит/сек Каналы : 6 каналов Расположение каналов : Front: L C R, Side: L R, LFE Частота : 48,0 КГц Метод сжатия : С потерями Размер потока : 297 Мбайт (4%) Заголовок : Dub: AC3, 6 ch, 448 Кбит/с Язык : Russian Default : Да Forced : НетАудио #2: Идентификатор : 3 Формат : DTS Формат/Информация : Digital Theater Systems Режим : 16 Параметр Endianness формата : Big Идентификатор кодека : A_DTS Продолжительность : 1 ч. 32 м. Вид битрейта : Постоянный Битрейт : 1510 Кбит/сек Каналы : 6 каналов Расположение каналов : Front: L C R, Side: L R, LFE Частота : 48,0 КГц Битовая глубина : 24 бит Метод сжатия : С потерями Размер потока : 999 Мбайт (13%) Заголовок : R.A.I.M & GUGU: DTS, 6 ch, 1510 Кбит/с Язык : Russian Default : Нет Forced : НетАудио #3: Идентификатор : 4 Формат : DTS Формат/Информация : Digital Theater Systems Режим : 16 Параметр Endianness формата : Big Идентификатор кодека : A_DTS Продолжительность : 1 ч. 32 м. Вид битрейта : Постоянный Битрейт : 1509 Кбит/сек Каналы : 6 каналов Расположение каналов : Front: L C R, Side: L R, LFE Частота : 48,0 КГц Битовая глубина : 24 бит Метод сжатия : С потерями Размер потока : 999 Мбайт (13%) Заголовок : DTS, 6 ch, 1509 Кбит/с Язык : English Default : Нет Forced : Нет 7,77 Gb 154 7 16 февраля 2016 12:31 13 грехов / 13 Sins (2014) HDRip от Кинорадиомагия | КПК | Чистый звук .torrent   [Информация о файле (нажмите для просмотра)] Кодек: х264Качество: HDRip | КПКВидео: MPEG-4 AVC, 480 х 200, 23.976 fps, 450 Кбит/сАудио: ААС LC, 2 ch, 128 Кбит/с 383,61 Mb 56 3 16 февраля 2016 12:31 13 грехов / 13 Sins (2014) BDRip 720p от Leonardo and Scarabey | Чистый звук .torrent   [Информация о файле (нажмите для просмотра)] Перевод: Профессиональный (полное дублирование) Чистый звукФормат: MKVВидео кодек: MPEG-4 AVC Аудио кодек: AC3Видео: 1280x534 (2.40:1) at 23.976 fps, AVC at 3804 kbps avg, 0.232 bit/pixelАудио: 48 kHz, AC3 Dolby Digital, 2/0 (L,R) ch, 384 kbpsСубтитры: Русские, английские 2,76 Gb 32 5 16 февраля 2016 12:31 13 грехов / 13 Sins (2014) HDRip от Scarabey | Чистый звук .torrent   [Информация о файле (нажмите для просмотра)] Перевод: Професиональный (полное дублирование) [Чистый звук]Видео: 720x304 (2.37:1), 23.976 fps, XviD build 50 ~1845 kbps avg, 0.35 bit/pixelАудио: 48 kHz, AC3 Dolby Digital, 2/0 (L,R) ch, ~384.00 kbps avg 1,45 Gb 212 9 16 февраля 2016 12:31 13 грехов / 13 Sins (2014) HDRip от Scarabey | Чистый звук .torrent   [Информация о файле (нажмите для просмотра)] Перевод: Професиональный (полное дублирование) [Чистый звук]Видео: 720x304 (2.37:1), 23.976 fps, XviD build 50 ~985 kbps avg, 0.19 bit/pixelАудио: 48 kHz, MPEG Layer 3, 2 ch, ~128.00 kbps avg 743,29 Mb 79 3 16 февраля 2016 12:31 13 грехов / 13 Sins (2014) BDRemux 1080p | Чистый звук .torrent   [Информация о файле (нажмите для просмотра)] Видео: ~ 21733 Кбит/с, 1080p, 23.976 fps, 16:9, High Profile 4.1Аудио 1: Русский, АС3, 48.0 KHz, 2 ch, 384 Кбит/с, Дублированный (официальная озвучка)Аудио 2: Английский, DTS-HD MA, 6 ch, 3796 Кбит/с (Оригинал)Субтитры: Русские, английские 16,75 Gb 18 6 16 февраля 2016 12:31 13 грехов / 13 Sins (2014) HDRip | Чистый звук .torrent   [Информация о файле (нажмите для просмотра)] Формат: AVI (XviD)Качество: HDRip [Рип с BDRip 720p]Видео: 1721 kb/s, 720x304Аудио: AC3, 384 kb/s (2 ch) 1,37 Gb 286 5 16 февраля 2016 12:31 13 грехов / 13 Sins (2014) BDRip 1080p | Чистый звук .torrent   [Информация о файле (нажмите для просмотра)] Перевод: Дублированное [Чистый звук]Кодек: x264Качество: BDRip 1080pВидео: MPEG-4 AVC, 8550 Кбит/с, 1920x804, 23,976 fpsЗвук: Rus, AC3, 384 kb/s (2 ch), 48 kHz Eng, DTS, 1510 kb/s (6 ch), 48 kHzСубтитры: Rus, Eng 6,75 Gb 39 6 16 февраля 2016 12:31 13 грехов / 13 Sins (2014) BDRip 720p | Чистый звук .torrent   [Информация о файле (нажмите для просмотра)] Перевод: Дублированное [Чистый звук]Кодек: x264Качество: BDRip 720pВидео: MPEG-4 AVC, 4017 Кбит/с, 1280x536, 23,976 fpsЗвук: Rus, AC3, 384 kb/s (2 ch), 48 kHz Eng, DTS, 1510 kb/s (6 ch), 48 kHzСубтитры: Rus, Eng 3,9 Gb 76 7 16 февраля 2016 12:31 13 грехов / 13 Sins (2014) HDRip-AVC от New-Team | L1 .torrent   [Информация о файле (нажмите для просмотра)] Перевод: Любительский (одноголосый закадровый) [R.A.I.M.] - перевод на русский язык [lumez]Видео: 1057 Кбит/сек, 788*330 (2,35:1), в 23,976 кадр/сек, AVCАудио: Russian, 72,0 Кбит/сек, 48,0 КГц / 24,0 КГц, 2 канала(ов), AAC (HE-AAC / LC)Видео: Идентификатор : 1 Формат : AVC Формат/Информация : Advanced Video Codec Профиль формата : [email protected] Параметр CABAC формата : Да Параметр ReFrames формата : 12 кадры Идентификатор кодека : V_MPEG4/ISO/AVC Продолжительность : 1 ч. 32 м. Номинальный битрейт : 1057 Кбит/сек Ширина : 788 пикс. Высота : 330 пикс. Соотношение сторон : 2,35:1 Частота кадров : 23,976 кадр/сек Цветовое пространство : YUV Подвыборка цветности : 4:2:0 Битовая глубина : 8 бит Тип развёртки : Прогрессивная Бит/(Пиксели*Кадры) : 0.170 Библиотека кодирования : x264 core 138 r2358 9e941d1 Настройки программы : cabac=1 / ref=12 / deblock=1:-1:-1 / analyse=0x3:0x133 / me=umh / subme=11 / psy=1 / psy_rd=1.00:0.10 / mixed_ref=1 / me_range=48 / chroma_me=1 / trellis=2 / 8x8dct=1 / cqm=0 / deadzone=21,11 / fast_pskip=0 / chroma_qp_offset=-3 / threads=12 / lookahead_threads=2 / sliced_threads=0 / nr=0 / decimate=0 / interlaced=0 / bluray_compat=0 / constrained_intra=0 / bframes=14 / b_pyramid=2 / b_adapt=2 / b_bias=0 / direct=3 / weightb=1 / open_gop=0 / weightp=2 / keyint=240 / keyint_min=23 / scenecut=40 / intra_refresh=0 / rc_lookahead=80 / rc=2pass / mbtree=1 / bitrate=1057 / ratetol=1.0 / qcomp=0.65 / qpmin=0 / qpmax=69 / qpstep=4 / cplxblur=20.0 / qblur=0.5 / vbv_maxrate=20000 / vbv_bufsize=25000 / nal_hrd=none / ip_ratio=1.40 / aq=2:1.00 Язык : EnglishАудио: Идентификатор : 2 Формат : AAC Формат/Информация : Advanced Audio Codec Профиль формата : HE-AAC / LC Идентификатор кодека : A_AAC Продолжительность : 1 ч. 32 м. Канал(ы) : 2 канала(ов) Расположение каналов : Front: L R Частота : 48,0 КГц / 24,0 КГц Метод сжатия : С потерями Задержка видео : 31 мс. Заголовок : R.A.I.M. Язык : Russian 744,17 Mb 18 1 16 февраля 2016 12:31 13 грехов / 13 Sins (2014) HDRip-AVC от New-Team | L1 .torrent   [Информация о файле (нажмите для просмотра)] Перевод: Любительский (одноголосый закадровый) [R.A.I.M.] - перевод на русский язык [lumez]Видео: 1863 Кбит/сек, 960*402 (2,35:1), в 23,976 кадр/сек, AVCАудио #1: Russian, 192 Кбит/сек, 48,0 КГц, 16 бит, 2 канала(ов), AC-3Аудио #2: English, 192 Кбит/сек, 48,0 КГц, 16 бит, 2 канала(ов), AC-3Видео: Идентификатор : 1 Формат : AVC Формат/Информация : Advanced Video Codec Профиль формата : [email protected] Параметр CABAC формата : Да Параметр ReFrames формата : 12 кадры Идентификатор кодека : V_MPEG4/ISO/AVC Продолжительность : 1 ч. 32 м. Битрейт : 1863 Кбит/сек Ширина : 960 пикс. Высота : 402 пикс. Соотношение сторон : 2,35:1 Частота кадров : 23,976 кадр/сек Цветовое пространство : YUV Подвыборка цветности : 4:2:0 Битовая глубина : 8 бит Тип развёртки : Прогрессивная Бит/(Пиксели*Кадры) : 0.201 Размер потока : 1,18 Гбайт (81%) Библиотека кодирования : x264 core 138 r2358 9e941d1 Настройки программы : cabac=1 / ref=12 / deblock=1:-2:-2 / analyse=0x3:0x133 / me=umh / subme=11 / psy=1 / psy_rd=1.03:0.08 / mixed_ref=1 / me_range=48 / chroma_me=1 / trellis=2 / 8x8dct=1 / cqm=0 / deadzone=21,11 / fast_pskip=0 / chroma_qp_offset=-3 / threads=12 / lookahead_threads=3 / sliced_threads=0 / nr=0 / decimate=0 / interlaced=0 / bluray_compat=0 / constrained_intra=0 / bframes=12 / b_pyramid=2 / b_adapt=2 / b_bias=0 / direct=3 / weightb=1 / open_gop=0 / weightp=2 / keyint=240 / keyint_min=23 / scenecut=40 / intra_refresh=0 / rc_lookahead=80 / rc=2pass / mbtree=1 / bitrate=1863 / ratetol=1.0 / qcomp=0.65 / qpmin=0 / qpmax=69 / qpstep=4 / cplxblur=20.0 / qblur=0.5 / vbv_maxrate=20000 / vbv_bufsize=25000 / nal_hrd=none / ip_ratio=1.40 / aq=2:1.00Аудио #1: Идентификатор : 2 Формат : AC-3 Формат/Информация : Audio Coding 3 Расширение режима : CM (complete main) Идентификатор кодека : A_AC3 Продолжительность : 1 ч. 32 м. Вид битрейта : Постоянный Битрейт : 192 Кбит/сек Канал(ы) : 2 канала(ов) Расположение каналов : Front: L R Частота : 48,0 КГц Битовая глубина : 16 бит Метод сжатия : С потерями Размер потока : 127 Мбайт (9%) Заголовок : R.A.I.M. Язык : RussianАудио #2: Идентификатор : 3 Формат : AC-3 Формат/Информация : Audio Coding 3 Расширение режима : CM (complete main) Идентификатор кодека : A_AC3 Продолжительность : 1 ч. 32 м. Вид битрейта : Постоянный Битрейт : 192 Кбит/сек Канал(ы) : 2 канала(ов) Расположение каналов : Front: L R Частота : 48,0 КГц Битовая глубина : 16 бит Метод сжатия : С потерями Размер потока : 127 Мбайт (9%) Язык : English 1,45 Gb 15 1 16 февраля 2016 12:31 13 грехов / 13 Sins (2014) BDRip 1080p от CINEMANIA | L1 .torrent   [Информация о файле (нажмите для просмотра)] Формат: MKVКачество: BDRip 1080p[HDAccess]Видео: 12600 kb/s, 1920x804Аудио: Russian: AC3, 384 kb/s (6 ch) / English: DTS, 1510 kb/s (6 ch)Субтитры: Russian[lumez], English 9,53 Gb 16 1

gig-torrent.net


Смотрите также