Скачать фильм 3 дня на убийство через торрент в хорошем качестве 2014


Скачать фильм 3 дня на убийство через торрент в хорошем качестве бесплатно 1080p

GeneralUnique ID                                : 236054556193585654495034743914209539199 (0xB196742E162F46468F6E2CD620ACF47F)Complete name                            : E:\3 дня на убийство (2014) 1080p.mkvFormat                                   : MatroskaFormat version                           : Version 4 / Version 2File size                                : 13.3 GiBDuration                                 : 1h 57mnOverall bit rate                         : 16.2 MbpsMovie name                               : 3 дня на убийствоEncoded date                             : UTC 2014-07-30 18:30:33Writing application                      : mkvmerge v6.9.1 ('Blue Panther') 64bit built on Apr 18 2014 18:23:38Writing library                          : libebml v1.3.0 + libmatroska v1.4.1Attachment                               : Yes

VideoID                                       : 1Format                                   : AVCFormat/Info                              : Advanced Video CodecFormat profile                           : [email protected] settings, CABAC                   : YesFormat settings, ReFrames                : 5 framesCodec ID                                 : V_MPEG4/ISO/AVCDuration                                 : 1h 57mnBit rate                                 : 13.2 MbpsWidth                                    : 1 920 pixelsHeight                                   : 810 pixelsDisplay aspect ratio                     : 2.35:1Frame rate                               : 23.976 fpsColor space                              : YUVChroma subsampling                       : 4:2:0Bit depth                                : 8 bitsScan type                                : ProgressiveBits/(Pixel*Frame)                       : 0.354Stream size                              : 10.5 GiB (79%)Title                                    : fanatusWriting library                          : x264 core 142 r2431+42 c69a006 tMod [[email protected] X86]Encoding settings                        : cabac=1 / ref=5 / deblock=1:-3:-3 / analyse=0x3:0x113 / me=tesa / subme=11 / psy=1 / fade_compensate=0.00 / psy_rd=1.04:0.02 / mixed_ref=1 / me_range=48 / chroma_me=1 / trellis=2 / 8x8dct=1 / cqm=0 / deadzone=21,11 / fast_pskip=0 / chroma_qp_offset=-3 / threads=16 / lookahead_threads=4 / sliced_threads=0 / nr=0 / decimate=0 / interlaced=0 / bluray_compat=0 / constrained_intra=0 / fgo=0 / bframes=10 / b_pyramid=2 / b_adapt=2 / b_bias=0 / direct=3 / weightb=1 / open_gop=0 / weightp=2 / keyint=240 / keyint_min=23 / scenecut=40 / intra_refresh=0 / rc_lookahead=240 / rc=2pass / mbtree=0 / bitrate=13200 / ratetol=1.0 / qcomp=0.70 / qpmin=0:0:0 / qpmax=69:69:69 / qpstep=4 / cplxblur=20.0 / qblur=0.5 / vbv_maxrate=50000 / vbv_bufsize=62500 / nal_hrd=none / filler=0 / ip_ratio=1.40 / pb_ratio=1.30 / aq=4:0.80 / aq-sensitivity=10.00 / aq-factor=1.00:1.00:1.00 / aq2=0 / aq3=0Language                                 : EnglishDefault                                  : YesForced                                   : No

Audio #1ID                                       : 2Format                                   : DTSFormat/Info                              : Digital Theater SystemsCodec ID                                 : A_DTSDuration                                 : 1h 57mnBit rate mode                            : ConstantBit rate                                 : 1 510 KbpsChannel(s)                               : 6 channelsChannel positions                        : Front: L C R, Side: L R, LFESampling rate                            : 48.0 KHzBit depth                                : 24 bitsCompression mode                         : LossyStream size                              : 1.23 GiB (9%)Title                                    : Дублированный, Blu-rayLanguage                                 : RussianDefault                                  : YesForced                                   : No

Audio #2ID                                       : 3Format                                   : DTSFormat/Info                              : Digital Theater SystemsCodec ID                                 : A_DTSDuration                                 : 1h 57mnBit rate mode                            : ConstantBit rate                                 : 1 510 KbpsChannel(s)                               : 6 channelsChannel positions                        : Front: L C R, Side: L R, LFESampling rate                            : 48.0 KHzBit depth                                : 24 bitsCompression mode                         : LossyStream size                              : 1.23 GiB (9%)Title                                    : ОригиналLanguage                                 : EnglishDefault                                  : NoForced                                   : No

Text #1ID                                       : 4Format                                   : UTF-8Codec ID                                 : S_TEXT/UTF8Codec ID/Info                            : UTF-8 Plain TextTitle                                    : FullLanguage                                 : RussianDefault                                  : NoForced                                   : No

Text #2ID                                       : 5Format                                   : UTF-8Codec ID                                 : S_TEXT/UTF8Codec ID/Info                            : UTF-8 Plain TextTitle                                    : SDHLanguage                                 : EnglishDefault                                  : NoForced                                   : No

Menu00:00:00.000                             : en:Chapter 0100:10:52.234                             : en:Chapter 0200:19:13.235                             : en:Chapter 0300:28:51.396                             : en:Chapter 0400:39:16.645                             : en:Chapter 0500:49:16.828                             : en:Chapter 0600:59:08.044                             : en:Chapter 0701:10:12.333                             : en:Chapter 0801:20:02.547                             : en:Chapter 0901:30:04.732                             : en:Chapter 1001:39:39.890                             : en:Chapter 1101:49:45.704                             : en:Chapter 1201:57:01.973                             : en:Chapter 13

piratbit.ru

Скачать фильм 3 дня на убийство через торрент в хорошем качестве бесплатно 1080p

Размер: 6.81 GB | Добавлен: 3 года 5 мес. назад | Торрент скачан:1011 раз
Реклама Дарим 3000 рублей за регистрацию, не упусти свой шанс получить шикарный бонус!!!

08-05-2014 18:20 3 дня на убийство Скачать торрент  

3 дня на убийство / 3 Days to Kill ✦ Год выпуска: 2014✦ Страна:США, Франция, Греция, Россия✦ Жанр:боевик, криминал, триллер, драма, комедия✦ Продолжительность:01:57:02✦ Перевод:Профессиональный [Дубляж - Чистый звук] ✦ Субтитры: Нет✦ Режиссер:МакДжи / McG
  • В ролях: Кевин Костнер (Ethan Renner), Эмбер Хёрд (Vivi Delay), Хейли Стайнфелд (Zooey Renner), Конни Нильсен (Christine Renner), Томас Лемаркус (The Albino), Рихард Заммель (The Wolf), Марк Андреони (Mitat Yilmaz), Бруно Риччи (Guido), Йонас Блоке (Hugh), Эрик Эбони (Jules), Joakhim Sigue (Abbate), Элисон Вэленс (Sumia)
  • Описание:В секретной лаборатории ученые разработали препарат, который позволяет человеку справиться с любой неизлечимой болезнью. Руководство спецслужб предлагает принять это лекарство экс-агенту спецслужб Итану Раннеру, которому врачи объявили смертельный диагноз. Но он должен выполнить еще одно задание, которое, впрочем, может стоить ему жизни. Теперь вокруг Раннера начинают происходить странные вещи. Что это - галлюцинации, побочный эффект от таблеток или мир действительно полон ужаса и кошмара?
  • Мировая премьера:12 февраля 2014
      ✦ Качество: BDRip 1080p✦ Формат: MKV✦ Видео кодек: AVC✦ Аудио кодек:AC3✦ Видео: AVC, 1920x808 (2.40:1), 8205 kbps, 23,976 fps, 0,221 bpp✦ Аудио: AC3 / 2.0 / 48 kHz / 128 kbps / 16 bit

    Код:

    GeneralUnique ID                                : 221759339880001297228566330377371132261 (0xA6D54B99954E881E9DE53BFE86682165)Complete name                            : D:\Торенты\3.Days.to.Kill.2014.Theatrical.Cut.1080p..mkvFormat                                   : MatroskaFormat version                           : Version 4 / Version 2File size                                : 6.81 GiBDuration                                 : 1h 57mnOverall bit rate                         : 8 331 KbpsEncoded date                             : UTC 2014-05-07 21:00:01Writing application                      : mkvmerge v6.1.0 ('Old Devil') built on Mar  2 2013 14:32:37Writing library                          : libebml v1.3.0 + libmatroska v1.4.0

    VideoID                                       : 1Format                                   : AVCFormat/Info                              : Advanced Video CodecFormat profile                           : [email protected] settings, CABAC                   : YesFormat settings, ReFrames                : 5 framesCodec ID                                 : V_MPEG4/ISO/AVCDuration                                 : 1h 57mnBit rate                                 : 8 205 KbpsWidth                                    : 1 920 pixelsHeight                                   : 808 pixelsDisplay aspect ratio                     : 2.40:1Frame rate                               : 23.976 fpsColor space                              : YUVChroma subsampling                       : 4:2:0Bit depth                                : 8 bitsScan type                                : ProgressiveBits/(Pixel*Frame)                       : 0.221Stream size                              : 6.57 GiB (96%)Writing library                          : x264 core 142 r2431 ac76440Encoding settings                        : cabac=1 / ref=5 / deblock=1:0:0 / analyse=0x3:0x133 / me=umh / subme=7 / psy=1 / psy_rd=1.00:0.00 / mixed_ref=1 / me_range=16 / chroma_me=1 / trellis=1 / 8x8dct=1 / cqm=0 / deadzone=21,11 / fast_pskip=0 / chroma_qp_offset=-2 / threads=12 / lookahead_threads=2 / sliced_threads=0 / nr=0 / decimate=1 / interlaced=0 / bluray_compat=0 / constrained_intra=0 / bframes=3 / b_pyramid=2 / b_adapt=1 / b_bias=0 / direct=1 / weightb=1 / open_gop=0 / weightp=2 / keyint=250 / keyint_min=23 / scenecut=40 / intra_refresh=0 / rc_lookahead=40 / rc=2pass / mbtree=1 / bitrate=8205 / ratetol=1.0 / qcomp=0.60 / qpmin=0 / qpmax=69 / qpstep=4 / cplxblur=20.0 / qblur=0.5 / ip_ratio=1.40 / aq=1:1.00Language                                 : EnglishDefault                                  : YesForced                                   : No

    AudioID                                       : 2Format                                   : AC-3Format/Info                              : Audio Coding 3Mode extension                           : CM (complete main)Codec ID                                 : A_AC3Duration                                 : 1h 57mnBit rate mode                            : ConstantBit rate                                 : 128 KbpsChannel(s)                               : 2 channelsChannel positions                        : Front: L RSampling rate                            : 48.0 KHzBit depth                                : 16 bitsCompression mode                         : LossyStream size                              : 107 MiB (2%)Default                                  : YesForced                                   : No

    Menu00:00:00.000                             : en:00:00:00.00000:03:35.132                             : en:00:03:35.13200:06:55.206                             : en:00:06:55.20600:10:49.482                             : en:00:10:49.48200:15:27.468                             : en:00:15:27.46800:20:18.467                             : en:00:20:18.46700:24:32.721                             : en:00:24:32.72100:28:36.214                             : en:00:28:36.21400:33:25.420                             : en:00:33:25.42000:36:53.044                             : en:00:36:53.04400:39:32.912                             : en:00:39:32.91200:43:14.926                             : en:00:43:14.92600:48:20.731                             : en:00:48:20.73100:52:12.379                             : en:00:52:12.37900:56:39.855                             : en:00:56:39.85501:07:27.376                             : en:01:07:27.37601:12:36.602                             : en:01:12:36.60201:18:50.809                             : en:01:18:50.80901:24:20.013                             : en:01:24:20.01301:29:43.044                             : en:01:29:43.04401:36:25.529                             : en:01:36:25.52901:39:32.675                             : en:01:39:32.67501:46:41.353                             : en:01:46:41.35301:49:38.822                             : en:01:49:38.822

    Скриншоты: Каталог Новинок (Фильмы-трейлеры, Игры, Сериалы, Мультфильмы) © Оформление by Raven
  • Скачать 3 дня на убийство через торрент http://pic.pb.wtf/images/6/stazu.jpg Скачать фильм 3 дня на убийство через торрент бесплантно в хорошем качестве Описание:В секретной лаборатории ученые разработали препарат, который позволяет человеку справиться с любой неизлечимой болезнью. ... 2014-05-08 18:20 9.9 10 26

    Loading...

    Loading...

    % Раздел Тема Автор DL S | L
    Фильмы 2014 [DVDrip, WEB-DLRip, HDrip] [ 1.37 GB ] 3 дня на убийство / 3 Days to Kill [2014 HDRip] DUB lug30 Скачать
    Фильмы с авторской озвучкой [ 2.05 GB ] 3 дня на убийство / 3 Days to Kill [2014 HDRip] [EXTENDED] [AVO] killermax2013 Скачать
    Фильмы [HD 720p, 1080p] (Хороший звук DUB, MVO) [ 13.25 GB ] 3 дня на убийство / 3 Days to Kill [2014 BDRip 1080p ] от R.G. HD-Films Seedtank Скачать
    Фильмы 2014 [DVDrip, WEB-DLRip, HDrip] [ 2.18 GB ] 3 дня на убийство / 3 Days to Kill [2014 BDRip-AVC] [Театральная версия] DUB potroks Скачать
    Фильмы 2014 [DVDrip, WEB-DLRip, HDrip] [ 1.46 GB ] 3 дня на убийство / 3 Days to Kill [2014 BDRip-AVC] [Театральная версия] DUB potroks Скачать
    Фильмы (Blu-ray, BD-Remux, HDDVD) [ 25.66 GB ] 3 дня на убийство / 3 Days to Kill [2014 Греция Россия BD Remux 1080p] [Цифровая лицензия / ] Messa-fan Скачать
    Фильмы (Blu-ray, BD-Remux, HDDVD) [ 22.97 GB ] 3 дня на убийство / 3 Days to Kill [2014 BD-Remux USA Transfer ] от R.G. HD-Films Seedtank Скачать

    Рекламный пират

    08-05-2014 18:22 3 дня на убийство Скачать торрент  

    08-05-2014 20:00 3 дня на убийство Скачать торрент  

    Как фильмец не чё ?

    10-05-2014 01:01 3 дня на убийство Скачать торрент  

    Спасибо за фильм, очень понравился, кевин костнер ещё что то может, чем то он мне лиама ниссона напоминает, воздушный маршал тоже очень понравился, советую к просмотру!!

    10-05-2014 12:21 3 дня на убийство Скачать торрент  

    фильм извините за маты Удалено

    11-05-2014 15:27 3 дня на убийство Скачать торрент  

    А что с Кевином Костнером есть плохие фильмы?

    17-05-2014 20:00 3 дня на убийство Скачать торрент  

    Фильм хороший, мне понравился. Костнер сыграл на уровне, еще есть у дядьки порох:) Эмбер Хёрд (актриса играющая девушку из ЦРУ, которая поставляла главному герою лекарство от опухоли) - прелестная, очень красивая девушка, надеюсь на нее обратят внимание и в будующем не раз увидим ее на экранах:)Звук и качество в фильме отличные, качайте и смотрите.

    Дорогой пользователь! Огромная просьба, поблагодарите релизера, оцените раздачу и оставьте свои комментарий, если Вы скачали 3 дня на убийство через торрент бесплатно! Внесите свою лепту в развитие PiratBit!

    Комментировать посты могут только пользователи прошедшие не сложную регистрацию

    3 дня на убийство через торрент Скачать бесплатно 3 дня на убийство 3 дня на убийство скачать торрент 3 дня на убийство смотреть онлайн Cкачать фильм 3 дня на убийство бесплатно 3 дня на убийство скачать торрент в хорошем качестве 3 дня на убийство смотреть онлайн бесплатно в хорошем качестве

    Вы можете начинать темыВы можете отвечать на сообщенияВы не можете редактировать свои сообщенияВы не можете удалять свои сообщенияВы не можете голосовать в опросахВы не можете прикреплять файлы к сообщениямВы можете скачивать файлы

    piratbit.ru

    Скачать фильм 3 дня на убийство через торрент в хорошем качестве бесплатно 720p

    ОбщееУникальный идентификатор : 173614183097224022746258254285393258379 (0x829CE01A324F45489E23A8AEF1BE678B)Полное имя : 3.Dnya.na.Ubiystvo.2014.Theatrical.DUAL.BDRip.720p.-HELLYWOOD.mkvФормат : MatroskaВерсия формата : Version 4 / Version 2Размер файла : 5,14 ГбайтПродолжительность : 1 ч. 57 м.Общий поток : 6284 Кбит/секНазвание фильма : HELLYWOOD - rip by potroksДата кодирования : UTC 2014-05-24 03:27:36Программа кодирования : mkvmerge v5.9.0 ('On The Loose') built on Dec 15 2012 16:39:58Библиотека кодирования : libebml v1.3.0 + libmatroska v1.4.0

    ВидеоИдентификатор : 1Формат : AVCФормат/Информация : Advanced Video CodecПрофиль формата : [email protected]Параметр CABAC формата : ДаПараметр ReFrames формата : 9 кадровИдентификатор кодека : V_MPEG4/ISO/AVCПродолжительность : 1 ч. 57 м.Битрейт : 5259 Кбит/секШирина : 1280 пикселейВысота : 538 пикселейСоотношение сторон : 2,40:1Режим частоты кадров : ПостоянныйЧастота кадров : 23,976 кадра/секЦветовое пространство : YUVСубдискретизация насыщенности : 4:2:0Битовая глубина : 8 битТип развёртки : ПрогрессивнаяБит/(Пиксели*Кадры) : 0.319Размер потока : 4,20 Гбайт (82%)Заголовок : 3 Days to KillБиблиотека кодирования : x264 core 130 r2273 b3065e6Настройки программы : cabac=1 / ref=9 / deblock=1:-3:-2 / analyse=0x3:0x133 / me=umh / subme=11 / psy=1 / psy_rd=0.99:0.01 / mixed_ref=1 / me_range=48 / chroma_me=1 / trellis=2 / 8x8dct=1 / cqm=0 / deadzone=21,11 / fast_pskip=1 / chroma_qp_offset=-3 / threads=9 / lookahead_threads=6 / sliced_threads=0 / nr=0 / decimate=0 / interlaced=0 / bluray_compat=0 / constrained_intra=0 / bframes=9 / b_pyramid=2 / b_adapt=2 / b_bias=0 / direct=3 / weightb=1 / open_gop=0 / weightp=2 / keyint=250 / keyint_min=23 / scenecut=40 / intra_refresh=0 / rc_lookahead=60 / rc=2pass / mbtree=0 / bitrate=5259 / ratetol=1.0 / qcomp=0.70 / qpmin=0 / qpmax=69 / qpstep=4 / cplxblur=20.0 / qblur=0.5 / vbv_maxrate=50000 / vbv_bufsize=62500 / nal_hrd=none / ip_ratio=1.35 / pb_ratio=1.25 / aq=1:0.80Язык : EnglishDefault : ДаForced : Нет

    Аудио #1Идентификатор : 2Формат : AC-3Формат/Информация : Audio Coding 3Расширение режима : CM (complete main)Параметр Endianness формата : BigИдентификатор кодека : A_AC3Продолжительность : 1 ч. 57 м.Вид битрейта : ПостоянныйБитрейт : 384 Кбит/секКаналы : 6 каналовРасположение каналов : Front: L C R, Side: L R, LFEЧастота : 48,0 КГцБитовая глубина : 16 битМетод сжатия : С потерямиРазмер потока : 321 Мбайт (6%)Заголовок : Dub | DD 5.1 @ 384 kbps - iTunesЯзык : RussianDefault : ДаForced : Да

    Аудио #2Идентификатор : 3Формат : AC-3Формат/Информация : Audio Coding 3Расширение режима : CM (complete main)Параметр Endianness формата : BigИдентификатор кодека : A_AC3Продолжительность : 1 ч. 57 м.Вид битрейта : ПостоянныйБитрейт : 640 Кбит/секКаналы : 6 каналовРасположение каналов : Front: L C R, Side: L R, LFEЧастота : 48,0 КГцБитовая глубина : 16 битМетод сжатия : С потерямиРазмер потока : 536 Мбайт (10%)Заголовок : riginal | DD 5.1 @ 640 kbpsЯзык : EnglishDefault : НетForced : Нет

    Текст #1Идентификатор : 4Формат : UTF-8Идентификатор кодека : S_TEXT/UTF8Идентификатор кодека/Информация : UTF-8 Plain TextЯзык : RussianDefault : НетForced : Нет

    Текст #2Идентификатор : 5Формат : UTF-8Идентификатор кодека : S_TEXT/UTF8Идентификатор кодека/Информация : UTF-8 Plain TextЗаголовок : SDHЯзык : EnglishDefault : НетForced : Нет

    Меню00:03:35.131 : en:(01)00:03:35:13100:06:55.206 : en:(02)00:06:55:20600:10:49.482 : en:(03)00:10:49:48200:15:27.468 : en:(04)00:15:27:46800:20:18.467 : en:(05)00:20:18:46700:24:32.721 : en:(06)00:24:32:72100:28:36.214 : en:(07)00:28:36:21400:33:25.419 : en:(08)00:33:25:41900:36:53.044 : en:(09)00:36:53:04400:39:32.912 : en:(10)00:39:32:91200:43:14.925 : en:(11)00:43:14:92500:48:20.730 : en:(12)00:48:20:73000:52:12.379 : en:(13)00:52:12:37900:56:39.854 : en:(14)00:56:39:85401:07:27.376 : en:(15)01:07:27:37601:12:36.602 : en:(16)01:12:36:60201:18:50.809 : en:(17)01:18:50:80901:24:20.013 : en:(18)01:24:20:01301:29:43.044 : en:(19)01:29:43:04401:36:25.529 : en:(20)01:36:25:52901:39:32.674 : en:(21)01:39:32:67401:46:41.352 : en:(22)01:46:41:35201:49:38.821 : en:(23)01:49:38:82101:57:01.764 : en:(24)01:57:01:764

    piratbit.ru

    Скачать фильм 3 дня на убийство через торрент в хорошем качестве бесплатно TS

    Размер: 1.37 GB | Добавлен: 3 года 6 мес. назад | Торрент скачан:520 раз
    Реклама Дарим 3000 рублей за регистрацию, не упусти свой шанс получить шикарный бонус!!!

    17-04-2014 17:52 3 дня на убийство Скачать торрент  

    3 дня на убийство / 3 Days to Kill
  • Год выпуска: 2014
  • Производство: США, Франция
  • Жанр: боевик, триллер, драма, криминал
  • Длительность: 01:50:49
  • Субтитры: нет Перевод: Дублированный Режиссер: МакДжиПродюсер: Люк Бессон, Ади Хасак, Райан КэвэнаСценарий: Люк Бессон, Ади ХасакВ ролях: Кевин Костнер, Эмбер Хёрд, Хейли Стайнфелд, Конни Нильсен, Томас Лемаркус, Рихард Заммель, Марк Андреони, Бруно Риччи, Йонас Блоке, Эрик Эбони ОписаниеОписание: Умирающему агенту ЦРУ предлагают экспериментальное лекарство, которое может спасти его жизнь, в обмен на одно последнее задание…
  • Качество видео: TS
  • Формат: AVI
  • Видео кодек: XviD
  • Аудио кодек: AC3
  • Видео: 720x304 (2.37:1), 25 fps, XviD build 50 ~1627 kbps avg, 0.30 bit/pixel
  • Аудио: 48 kHz, AC3 Dolby Digital, 2/0 (L,R) ch, ~128 kbps
  • Скачать 3 дня на убийство через торрент http://i57.fastpic.ru/big/2014/0402/b0/cabb0a42bb8f9e11c9f80322327179b0.png Скачать фильм 3 дня на убийство через торрент бесплантно в хорошем качестве ОписаниеОписание: Умирающему агенту ЦРУ предлагают экспериментальное лекарство, которое может спасти его жизнь, в обмен на одно последнее ... 2014-04-17 17:52 9.9 10 18

    Loading...

    Loading...

    % Раздел Тема Автор DL S | L
    Фильмы 2014 [DVDrip, WEB-DLRip, HDrip] [ 1.37 GB ] 3 дня на убийство / 3 Days to Kill [2014 HDRip] DUB lug30 Скачать
    Фильмы с авторской озвучкой [ 2.05 GB ] 3 дня на убийство / 3 Days to Kill [2014 HDRip] [EXTENDED] [AVO] killermax2013 Скачать
    Фильмы [HD 720p, 1080p] (Хороший звук DUB, MVO) [ 13.25 GB ] 3 дня на убийство / 3 Days to Kill [2014 BDRip 1080p ] от R.G. HD-Films Seedtank Скачать
    Фильмы 2014 [DVDrip, WEB-DLRip, HDrip] [ 2.18 GB ] 3 дня на убийство / 3 Days to Kill [2014 BDRip-AVC] [Театральная версия] DUB potroks Скачать
    Фильмы 2014 [DVDrip, WEB-DLRip, HDrip] [ 1.46 GB ] 3 дня на убийство / 3 Days to Kill [2014 BDRip-AVC] [Театральная версия] DUB potroks Скачать
    Фильмы (Blu-ray, BD-Remux, HDDVD) [ 25.66 GB ] 3 дня на убийство / 3 Days to Kill [2014 Греция Россия BD Remux 1080p] [Цифровая лицензия / ] Messa-fan Скачать
    Фильмы (Blu-ray, BD-Remux, HDDVD) [ 22.97 GB ] 3 дня на убийство / 3 Days to Kill [2014 BD-Remux USA Transfer ] от R.G. HD-Films Seedtank Скачать

    Последний раз редактировалось: haizenberg (2014-04-17 20:12), всего редактировалось 1 раз

    Рекламный пират

    17-04-2014 18:57 3 дня на убийство Скачать торрент  

    Цитата:

    Субтитры: вшитые китайские

    ? давно есть нормальная экранка без тарабарщины китайской

    17-04-2014 20:12 3 дня на убийство Скачать торрент  

    killermax2013 писал(а):

    [qpost=undefined]? давно есть нормальная экранка без тарабарщины китайской

    конечно нет, семпл есть в раздаче, забыл убрать из шаблона, конечно сабов нет!

    18-04-2014 11:22 3 дня на убийство Скачать торрент  

    Хороший фильм! 5+

    27-04-2014 22:22 3 дня на убийство Скачать торрент  

    наконец то телохранитель отсасал.где ты раньше был коснер надо было таких фильмов наплодит ьморе

    05-05-2014 18:16 3 дня на убийство Скачать торрент  

    начало шикарное, остальное средненькое, но в целом посмотреть можно

    Дорогой пользователь! Огромная просьба, поблагодарите релизера, оцените раздачу и оставьте свои комментарий, если Вы скачали 3 дня на убийство через торрент бесплатно! Внесите свою лепту в развитие PiratBit!

    Комментировать посты могут только пользователи прошедшие не сложную регистрацию

    3 дня на убийство через торрент Скачать бесплатно 3 дня на убийство 3 дня на убийство скачать торрент 3 дня на убийство смотреть онлайн Cкачать фильм 3 дня на убийство бесплатно 3 дня на убийство скачать торрент в хорошем качестве 3 дня на убийство смотреть онлайн бесплатно в хорошем качестве

    Вы можете начинать темыВы можете отвечать на сообщенияВы не можете редактировать свои сообщенияВы не можете удалять свои сообщенияВы не можете голосовать в опросахВы не можете прикреплять файлы к сообщениямВы можете скачивать файлы

    piratbit.ru


    Смотрите также