Скачать фильм 3 лишний 3 через торрент в хорошем качестве


Третий лишний 2012 - скачать бесплатно через торрент в хорошем качестве. Без регистрации

Название: Третий лишний / Ted (2012) BDRip-AVC от Dalemake | Unrated Cut | D
Качество видео: BDRip-AVC [BDRemux]
Перевод: Профессиональный (дублированный) + вставки А. Дасевича на эпизодах Расширенной версии*
Формат видео: MKV
Видео: x264 976x528 (1:85:1), 23.976 fps, x264 ~1380 kbps avg
Аудио: AAC-LC АнглийскаяAAC-LCAAC-LC, 48.0 KHz, 5/1 ch.,~239 kbps; VBR (RUS)AAC-LC, 48.0 KHz, 5/1 ch.,~233 kbps; VBR (ENG)
Скачать

Загрузка начнется в течение 5 сек.

1.45 GB

Название: Третий лишний: Дилогия / Ted: Dilogy (2012-2015) BDRip-AVC от R.G. HD-Films | Unrated Cut | 60 fps
Качество видео: BDRip-AVC 60fps
Перевод: Авторский (одноголосый)
Формат видео: MKV
Видео: AVC, 1024x552 (1.855), 4350 kbps, 59,940 fps, 0,128 bppAVC, 1024x424 (2.40:1), 3600 kbps, 59,940 fps, 0,138 bpp
Аудио: русский / AC3 / 5.1 / 48 kHz / 640 kbps / 16 bit |Дасаевич по тексту от Гоблина|русский / AC3 / 5.1 / 48 kHz / 640 kbps / 16 bit |Есарев|
Скачать

Загрузка начнется в течение 5 сек.

7.65 GB

Название: Третий лишний / Ted (2012) BDRip-AVC от HELLYWOOD | Лицензия
Перевод: Дубляж [Лицензия BD CEE]
Видео: 960x518 (1.855), 1587 kbps, 23,976 fps, 0.133 bit/pixel
Аудио: AC3 / 5.1 / 48 kHz / 384 kbps / 16 bit
Скачать

Загрузка начнется в течение 5 сек.

1.46 GB

Название: Третий лишний / Ted (2012) BDRip-AVC от HELLYWOOD | Лицензия
Перевод: Дубляж [Лицензия BD CEE]
Видео: AVC, 1024x552 (1.855), 2047 kbps, 23,976 fps, 0,151 bpp
Аудио: AC3 / 5.1 / 48 kHz / 448 kbps / 16 bit | RUSAC3 / 5.1 / 48 kHz / 448 kbps / 16 bit | ENG
Скачать

Загрузка начнется в течение 5 сек.

2.18 GB

Название: Третий лишний / Ted (2012) BDRip от HQ-ViDEO | Лицензия
Качество видео: BDRip | исх. TED_G51_HDCLUB
Перевод: Профессиональный дублированный (Лицензия) + Оригинальная дорожка (Английская)
Видео: XviD / 704 x 384 / 1.85:1 / 2036 kbps / 23,976 fps
Аудио: Русский / AC3 Dolby Digital / 48 KHz / 448 kbps / 3/2 (L,C,R,l,r) + LFE chАнглийский / AC3 Dolby Digital / 48 KHz / 448 kbps / 3/2 (L,C,R,l,r) + LFE ch
Скачать

Загрузка начнется в течение 5 сек.

2.19 GB

Название: Третий лишний / TED (2012) HDRip | Точка Zрения
Качество видео: HDRip
Перевод: Матершинный дубляж
Видео: Xvid 704x384, 1 872 Kbps, 23.98fps
Аудио: AC3, 48000Hz, stereo, 192kbps
Скачать

Загрузка начнется в течение 5 сек.

1.62 GB

Название: Третий лишний / Ted (2012) BDRip 720p от leonardo 59
Качество видео: BDRip 720p Исходник: Blu-ray
Перевод: Профессиональный (полное дублирование)
Формат видео: MKV Видео кодек: MPEG-4 AVC Аудио кодек: AC3
Видео: AVC, 1280x690 (1.85:1) at 23.976 fps, AVC at 4376 kbps avg, 0.207 bit/pixel
Аудио: 48 kHz, AC3 Dolby Digital, 3/2 (L,C,R,l,r) + LFE ch, 448.00 kbps - Russian
Скачать

Загрузка начнется в течение 5 сек.

3.65 GB

Название: Третий лишний / Ted (2012) BDRip от HQ-ViDEO | UNRATED
Качество видео: BDRip (Исходник: BD-Remux)
Перевод: Русский авторский перевод (Дасевич по тексту Гоблина) + Оригинальная английская дорожка
Формат видео: AVI; XviD, build 65 codec
Видео: 704 x 384; 23.976 fps; 1872 kbps; 0.289 bit/pixel
Аудио: Russian AC3 Dolby Digital; 448 Kbps; 5.1 ch; 48 KHzEnglish AC3 Dolby Digital; 448 Kbps; 5.1 ch; 48 KHz
Скачать

Загрузка начнется в течение 5 сек.

2.18 GB

Название: Третий лишний / Ted (2012) BDRip 720p от HQ-ViDEO | UNRATED
Качество видео: BDRip 720p (Исходник: Blu-ray)
Перевод: Русский авторский перевод (Дасевич по тексту Гоблина) + Оригинальная английская дорожка
Формат видео: MKV; MPEG-4 AVC; x264 codec
Видео: 1280 x 694; 23.976 fps; 7256 kbps; 0.341 bit/pixel
Аудио: Russian AC3 Dolby Digital; 640 Kbps; 5.1 ch; 48 KHzEnglish AC3 Dolby Digital; 640 kbps; 5.1 ch; 48 kHz
Скачать

Загрузка начнется в течение 5 сек.

6.83 GB

Название: Третий лишний / Ted (2012) HDRip-AVC
Качество видео: HDRip-AVC - рип с BDRip 720p
Перевод: Профессиональный (полное дублирование) [Лицензия]
Видео: H.264 768x432 (16:9), 23.976 fps, ~910 kbps avg, 0.114 bit/pixel
Аудио: 48 / 24 kHz, AAC-HE, 2 ch, ~72.00 kbps avg
Скачать

Загрузка начнется в течение 5 сек.

745.87 MB

Название: Третий лишний / Ted (2012) BDRip от HQCLUB | UNRATED
Качество видео: BDRip (источник: / Blu-Ray Remux / 1080p)
Перевод: Авторский одноголосый |Дасевич| + Оригинальная звуковая дорожка + Авторский одноголосый |Киреев| (отдельно на Narod.Ru)
Формат видео: AVI
Видео: 704x384 (1.83:1), 23.976 fps, XviD build 65 ~1881 kbps avg, 0.29 bit/pixel
Аудио: 48 kHz, AC3 Dolby Digital, 3/2 (L,C,R,l,r) + LFE ch, ~448.00 kbps avg48 kHz, AC3 Dolby Digital, 3/2 (L,C,R,l,r) + LFE ch, ~448.00 kbps avg48 kHz, AC3 Dolby Digital, 3/2 (L,C,R,l,r) + LFE ch, ~448.00 kbps avg (отдельно на Narod.Ru)
Скачать

Загрузка начнется в течение 5 сек.

2.18 GB

Название: Третий лишний / Ted (2012) HDRip от YouTracker
Качество видео: HDRip
Перевод: Профессиональный (полное дублирование) [Лицензия]
Видео: XviD build 65 656x352 (1.86:1), 23.976 fps, XviD build 65 ~844 kbps avg, 0.15 bit/pixel
Аудио: 48 kHz, MPEG Layer 3, 2 ch, 128.00 kbps
Скачать

Загрузка начнется в течение 5 сек.

744.86 MB

Название: Третий лишний / Ted (2012) BDRip-AVC | iPad | Лицензия
Качество видео: BDRip / 576p
Перевод: Дублированный [лицензия]
Формат видео: MP4 (контейнер m4v)
Видео: H.264/AVC H.264/AVC, 1024х552 (1.855), 23.976 fps, 2463 Кbps, 0.182 bit/pixel
Аудио: Русский: 48 kHz, AAC, 2ch, 125 kbps avg | ДублированныйАнглийский: 48 kHz, AAC, 2ch, 126 kbps avg | Оригинал
Скачать

Загрузка начнется в течение 5 сек.

2.02 GB

Название: Третий лишний / Ted (2012) HDRip от Scarabey | Дасевич | Unrated
Качество видео: HDRip
Перевод: Авторский (Одноголосый, закадровый) - А. Дасевич (по тексту Гоблина)
Формат видео: AVI
Видео: 592x320 (1.85:1), 23.976 fps, XviD build 50 ~787 kbps avg, 0.17 bit/pixel
Аудио: 48 kHz, MPEG Layer 3, 2 ch, ~128.00 kbps avg
Скачать

Загрузка начнется в течение 5 сек.

742.75 MB

Название: Третий лишний / Ted (2012) HDRip от Scarabey | Дасевич | Unrated
Качество видео: HDRip
Перевод: Авторский (Одноголосый, закадровый) - А. Дасевич (по тексту Гоблина)
Формат видео: AVI
Видео: 704x384 (1.83:1), 23.976 fps, XviD build 50 ~1392 kbps avg, 0.22 bit/pixel
Аудио: 48 kHz, AC3 Dolby Digital, 3/2 (L,C,R,l,r) + LFE ch, ~448.00 kbps avg
Скачать

Загрузка начнется в течение 5 сек.

1.45 GB

Название: Третий лишний / Ted (2012) HDRip от Vaippp | UNRATED
Качество видео: HDRip /исходник: Ted.2012.UNRATED.720p.BluRay.Rus.Eng.HDCLUB/
Перевод: Одноголосый закадровый /А. Дасевич (по тексту Гоблина)/
Видео: XviD, 704x384 (16:9), ~1397 kbps avg, 23,976 fps
Аудио: AC3 Dolby Digital , 48 KHz , ~448 kbps , 3/2 (L,C,R,l,r) + LFE ch
Скачать

Загрузка начнется в течение 5 сек.

1.45 GB

Название: Третий лишний / Ted (2012) BDRip | UNRATED | P1
Качество видео: BDRip
Перевод: Одноголосый закадровый, А.Дасевич (по тексту Гоблина) Ненормативная лексика!!!
Видео: XviD, 1456 Кбит/с, 720x384 (1.846), 23.976 fps
Аудио: AC3, 6 ch, 384 Кбит/с, 48,0 КГц, 16 bit
Скачать

Загрузка начнется в течение 5 сек.

1.45 GB

Название: Третий лишний / Ted (2012) BDRip 720p | UNRATED | P1
Качество видео: BDRip 720p
Перевод: Одноголосый закадровый, А.Дасевич (по тексту Гоблина) [Ненормативная лексика!!!]
Видео: MPEG-4 AVC 7900 Кбит/с, 1280x694
Аудио: Russian: DTS, 6 ch, 1536 Кбит/cEnglish: DTS, 6 ch, 1536 Кбит/c
Скачать

Загрузка начнется в течение 5 сек.

8.63 GB

Название: Третий лишний / Ted (2012) BDRip 1080p от HQ-ViDEO | Лицензия
Качество видео: BDRip 1080p | исх. Ted 2012 1080p CEE Blu-ray AVC DTS-HD MA 5.1
Перевод: Профессиональный дублированный (Лицензия) + Оригинальная дорожка (Английская)
Видео: x.264 / 1920 x 1038 / 1.85:1 / ~15.7 mbps / 23,976 fps
Аудио: Русский / DTS / 48 KHz / 768 kbps / 3/2 (L,C,R,l,r) + LFE chАнглийский / DTS / 48 KHz / 1536 kbps / 3/2 (L,C,R,l,r) + LFE ch
Скачать

Загрузка начнется в течение 5 сек.

13.56 GB

Название: Третий лишний / Ted (2012) BDRemux
Качество видео: BDRemux 1080p
Перевод: Профессиональный (дублированный)
Видео: MPEG-4 AVC MPEG-4 AVC, 33.5 Мбит/с, 1920x1080, 23.976 кадр/с
Аудио: Russian: DTS Audio 5.1 / 48 kHz / 768 kbps / 24-bit
Скачать

Загрузка начнется в течение 5 сек.

27.54 GB

Название: Третий лишний / Ted (2012) BDRip 720p от DHT-Movies
Качество видео: BDRip 720p |Ted 2012 1080p CEE Blu-ray AVC DTS-HD MA 5.1-HDChina
Перевод: Дубляж (Профессиональный[Лицензия]) + Оригинал (Английский)
Формат видео: MKV
Видео: H.264 1280x688/1.85:1/23.976 fps/4 233 Kbps/0.200 Bits/(Pixel*Frame)
Аудио: 48 kHz, AC3 Dolby Digital, 3/2 (L,C,R,l,r) + LFE ch, ~ 448 kbps avg | ( Дубляж)48 kHz, AC3 Dolby Digital, 3/2 (L,C,R,l,r) + LFE ch, ~ 448 kbps avg | (Оригинал)
Скачать

Загрузка начнется в течение 5 сек.

3.79 GB

Название: Третий лишний / Ted (2012) BDRip 1080p от HQ-ViDEO | Лицензия
Качество видео: BDRip 1080p | исх. Ted 2012 1080p CEE Blu-ray AVC DTS-HD MA 5.1
Перевод: Профессиональный дублированный (Лицензия) + Оригинальная дорожка (Английская)
Видео: x.264 / 1920 x 1038 / 1.85:1 / 15,7 mbps / 23,976 fps
Аудио: Русский / DTS / 48 KHz / 768 kbps / 3/2 (L,C,R,l,r) + LFE chАнглийский / DTS / 48 KHz / 1536 kbps / 3/2 (L,C,R,l,r) + LFE ch
Скачать

Загрузка начнется в течение 5 сек.

13.56 GB

Название: Третий лишний / Ted (2012) HDRip от Scarabey | Лицензия
Качество видео: HDRip
Перевод: Профессиональный (полное дублирование)
Формат видео: AVI
Видео: 592x320 (1.85:1), 23.976 fps, XviD build 50 ~841 kbps avg, 0.19 bit/pixel
Аудио: 48 kHz, MPEG Layer 3, 2 ch, ~128.00 kbps avg
Скачать

Загрузка начнется в течение 5 сек.

742.65 MB

Название: Третий лишний / Ted (2012) HDRip от Scarabey | Лицензия
Качество видео: HDRip
Перевод: Профессиональный (полное дублирование)
Формат видео: AVI
Видео: 720x384 (1.88:1), 23.976 fps, XviD build 50 ~1977 kbps avg, 0.30 bit/pixel
Аудио: 48 kHz, AC3 Dolby Digital, 3/2 (L,C,R,l,r) + LFE ch, ~448.00 kbps avg48 kHz, AC3 Dolby Digital, 3/2 (L,C,R,l,r) + LFE ch, ~448.00 kbps avg - оригинал
Скачать

Загрузка начнется в течение 5 сек.

2.13 GB

Название: Третий лишний / Ted (2012) HDRip | КПК от Generalfilm | Лицензия
Качество видео: HDRip | КПК
Видео: кодек: x264, формат: mp4, размер кадра: 480х256, битрейт: 350 кб/с
Аудио: язык: русский, перевод: Дублированный (лицензия), кодек: AAC LC 2.0, битрейт: 128 кб/с
Скачать

Загрузка начнется в течение 5 сек.

363.22 MB

Название: Третий лишний / Ted (2012) Blu-ray disc | Лицензия
Перевод: Профессиональный (дублированный)
Видео: MPEG-4 AVC Video / 1080p / 33530 kbps / 23,976 fps / 16:9 / 1.85:1 / High Profile 4.1
Аудио: Английская
Скачать

Загрузка начнется в течение 5 сек.

44.10 GB

Название: Третий лишний / Ted (2012) HDRip от Scarabey | Лицензия
Качество видео: HDRip
Перевод: Профессиональный (полное дублирование)
Формат видео: AVI
Видео: 688x368 (1.87:1), 23.976 fps, XviD build 50 ~1500 kbps avg, 0.25 bit/pixel
Аудио: 48 kHz, AC3 Dolby Digital, 3/2 (L,C,R,l,r) + LFE ch, ~448.00 kbps avg
Скачать

Загрузка начнется в течение 5 сек.

1.45 GB

Название: Третий лишний / Ted (2012) BDRip 720p by HDgroup | Лицензия
Качество видео: BDRip [720p]
Перевод: Профессиональный (дублированный) [лицензия]
Видео: 1280x688, 2564 Кбит/сек, 23.976 кадр/сек, AVC, x264, 1.860, 0.119 Бит/[Пиксели*Кадры], 2pass
Аудио: AC-3, 384 Кбит/сек, 6 канала(ов), 48,0 КГц
Скачать

Загрузка начнется в течение 5 сек.

2.18 GB

Название: Третий лишний / Ted (2012) BDRip от HQCLUB | Лицензия
Качество видео: BDRip (источник: / Blu-Ray CEE / 1080p)
Перевод: Профессиональный (полное дублирование) + Оригинальная звуковая дорожка
Формат видео: AVI
Видео: 704x384 (1.83:1), 23.976 fps, XviD build 65 ~2044 kbps avg, 0.32 bit/pixel
Аудио: 48 kHz, AC3 Dolby Digital, 3/2 (L,C,R,l,r) + LFE ch, ~448.00 kbps avg48 kHz, AC3 Dolby Digital, 3/2 (L,C,R,l,r) + LFE ch, ~448.00 kbps avg
Скачать

Загрузка начнется в течение 5 сек.

2.18 GB

Название: Третий лишний / Ted (2012) BDRip 1080p | Лицензия
Качество видео: BDRip 1080p
Перевод: Дублированное [лицензия]
Видео: 8815 kb/s, 1920x1040
Аудио: Russian: DTS, 755 kb/s (6 ch) / English: DTS, 1510 kb/s (6 ch)
Скачать

Загрузка начнется в течение 5 сек.

8.22 GB

Название: Третий лишний / Ted (2012) BDRip-AVC от Rulya74
Качество видео: BDRip-AVC
Перевод: Дублированный, Оригинал (Английский)
Видео: h.264 1024x544 (16:9), 23.976 fps, 1380 kbps, 0.101 bit/pixel
Аудио: 48 kHz, AC3 5.1, 384.00 kbps (Русский)48 kHz, AC3 2.0, 192.00 kbps (Английский)
Скачать

Загрузка начнется в течение 5 сек.

1.45 GB

Название: Третий лишний / Ted (2012) BDRip от HELLYWOOD | Лицензия
Качество видео: BDRip (источник: / Blu-Ray Disc [EUR]/1080p)
Перевод: Профессиональный дублированный | Лицензия
Формат видео: AVI
Видео: 704x384 (1.83:1), 23.976 fps, XviD build 65, 2044 kbps avg, 0.32 bit/pixel
Аудио: 48 kHz, AC3 Dolby Digital, 3/2 (L,C,R,l,r) + LFE ch, ~448 kbps |DUB|48 kHz, AC3 Dolby Digital, 3/2 (L,C,R,l,r) + LFE ch, ~448 kbps |ENG|
Скачать

Загрузка начнется в течение 5 сек.

2.18 GB

Название: Третий лишний / Ted (2012) BDRip | D, Гоблин
Качество видео: BDRip [Рип с Blu-ray 1080p]
Перевод: Профессиональный (дублированный) + Авторский (одноголосый, закадровый) Goblin aka Дмитрий Пучков
Формат видео: AVI (XviD)
Видео: 1508 kb/s, 720x384
Аудио: 48 kHz, AC3 5.1 @ 448 kbps (6 channels) |ДубляжAC3, 128 kb/s (2 ch) |Goblin (Звук с TS)
Скачать

Загрузка начнется в течение 5 сек.

1.56 GB

Название: Третий лишний / Ted (2012) BDRip 1080p
Качество видео: BDRip (источник: Blu-ray Disc)
Перевод: Дублированный
Видео: x264 1920x1040 (16:9), 23.976 fps, 6690 kbps
Аудио: AC-3, 6 ch, 640 kbps (Rus)AC-3, 6 ch, 448 kbps (Eng)
Скачать

Загрузка начнется в течение 5 сек.

5.76 GB

Название: Третий лишний / Ted (2012) BDRip 1080p от R.G. GoldenShara | Лицензия
Качество видео: BDRip [1080p]
Перевод: Профессиональный (полное дублирование) [Лицензия]
Видео: 1920x1040, 5511 Кбит/сек, 23,976 кадр/сек, AVC, x264, 16:9, 0.115 Бит/[Пиксели*Кадры], 2pass
Аудио: AC-3, 384 Кбит/сек, 6 канала(ов), 48,0 КГц
Скачать

Загрузка начнется в течение 5 сек.

4.37 GB

Название: Третий лишний / Ted (2012) BDRip от HQ-ViDEO | Лицензия
Качество видео: BDRip | исх. TED_G51_HDCLUB
Перевод: Профессиональный дублированный (Лицензия) + Оригинальная дорожка (Английская)
Видео: XviD / 704 x 384 / 1.85:1 / 2036 kbps / 23,976 fps
Аудио: Русский / AC3 Dolby Digital / 48 KHz / 448 kbps / 3/2 (L,C,R,l,r) + LFE chАнглийский / AC3 Dolby Digital / 48 KHz / 448 kbps / 3/2 (L,C,R,l,r) + LFE ch
Скачать

Загрузка начнется в течение 5 сек.

2.19 GB

Название: Третий лишний / Ted (2012) HDRip-AVC [Hi10P]
Качество видео: HDRip-AVC
Перевод: Дублированный (лицензия) + Оригинал (английский + комментарии)
Формат видео: MKV
Видео: x264 core 128 r2216+698 b3c1019 (High 10 Profile - 816x440, 23.976 fps, 1619 kbps, 0.188 bit/pixel
Аудио: AAC-HE (High-Efficiency Advanced Audio Coding, Dol AAC-HE (High-Efficiency Advanced Audio Coding, Dolby Pro Logic II)Русский, AAC-HE, 2 chnls, 72 kbps | DUB, BD CEEАнглийский, AAC-HE, 2 chnls, 72 kbps | OriginalАнглийский, AAC-HE, 2 chnls, 72 kbps | Commentary
Скачать

Загрузка начнется в течение 5 сек.

1.36 GB

Название: Третий лишний / Ted (2012) BDRip-AVC от HQ-ViDEO | Лицензия
Качество видео: BDRip-AVC | исх. TED_G51_HDCLUB
Перевод: Профессиональный дублированный (Лицензия) + Оригинальная дорожка (Английская/Отдельно)
Видео: x.264 / 1056 x 572 / 1.85:1 / ~2497 kbps / 23,976 fps
Аудио: Русский / AC3 Dolby Digital / 48 KHz / 448 kbps / 3/2 (L,C,R,l,r) + LFE chАнглийский / AC3 Dolby Digital / 48 KHz / 448 kbps / 3/2 (L,C,R,l,r) + LFE ch | narod.ru
Скачать

Загрузка начнется в течение 5 сек.

2.18 GB

Название: Третий лишний / Ted (2012) BDRip 720p от HQ-ViDEO | Лицензия
Качество видео: BDRip 720p | исх. Ted 2012 1080p CEE Blu-ray AVC DTS-HD MA 5.1-HDCLUB Thx, Vinchi
Перевод: Профессиональный дублированный (Лицензия) + Оригинальная дорожка (Английская)
Видео: x.264 / 1280 x 694 / 1.85:1 / ~8280 kbps / 23,976 fps
Аудио: Русский / AC3 Dolby Digital / 48 KHz / 640 kbps / 3/2 (L,C,R,l,r) + LFE chАнглийский / AC3 Dolby Digital / 48 KHz / 640 kbps / 3/2 (L,C,R,l,r) + LFE ch
Скачать

Загрузка начнется в течение 5 сек.

7.08 GB

Название: Третий лишний / Ted (2012) BDRip | Лицензия
Качество видео: BDRip [Рип с Blu-ray 1080p]
Перевод: Дублированное [лицензия]
Формат видео: AVI (XviD)
Видео: 1508 kb/s, 720x384
Аудио: AC3, 448 kb/s (6 ch)
Скачать

Загрузка начнется в течение 5 сек.

1.46 GB

Название: Третий лишний / Ted (2012) DVD5 R5 от Youtracker | D | лицензия
Перевод: Профессиональный (дублированный)
Видео: PAL 16x9 (720х576) VBR ~ 4123 kbps, Auto Letterboxed
Аудио: 48 kHz, Dolby AC3 5.1 384 kbps, английский48 kHz, Dolby AC3 5.1 384 kbps, русский
Скачать

Загрузка начнется в течение 5 сек.

4.36 GB

Название: Третий лишний / Ted (2012) BDRip 720p | Лицензия
Качество видео: BDRip 720p
Перевод: Дублированное [лицензия]
Формат видео: MKV
Видео: 5130 kb/s, 1280x688
Аудио: Russian: DTS, 755 kb/s (6 ch) / English: DTS, 1510 kb/s (6 ch)
Скачать

Загрузка начнется в течение 5 сек.

5.49 GB

Название: Третий лишний / Ted (2012) DVD9 от Youtracker | лицензия
Качество видео: DVD
Перевод: Профессиональный (дублированный) [Лицензия]
Видео: MPEG2 PAL 16:9 (720x576(0.567)) MPEG Video, 25,000 кадр/сек, 5877 Кбит/сек
Аудио: Magyar (Dolby AC3, 6 ch) 384 Кбит/сек, 48,0 КГцRussian (Dolby AC3, 6 ch) 384 Кбит/сек, 48,0 КГц
Скачать

Загрузка начнется в течение 5 сек.

6.54 GB

www.kinovit.net

Скачать фильм Третий лишний (2012) через торрент

26 января 2016 09:54 Третий лишний / Ted (2012) BDRip-AVC от HELLYWOOD | Лицензия .torrent   [Информация о файле (нажмите для просмотра)] Перевод: Дубляж [Лицензия BD CEE]Субтитры: русские (форс.), русские (Blu-Ray), русские (Notabenoid)Качество: BDRip-AVCФормат: MKVВидео: 960x518 (1.855), 1587 kbps, 23,976 fps, 0.133 bit/pixelАудио: AC3 / 5.1 / 48 kHz / 384 kbps / 16 bit 1,46 Gb 119 9 26 января 2016 09:54 Третий лишний / Ted (2012) BDRip-AVC от HELLYWOOD | Лицензия .torrent   [Информация о файле (нажмите для просмотра)] Перевод: Дубляж [Лицензия BD CEE]Субтитры: русские (Forced), русские (Blu-Ray), русские (Notabenoid), украинские (Forced), английские (Full), английские (SDH), английские (SDH-Colored)Качество: BDRip-AVCФормат: MKVВидео: AVC, 1024x552 (1.855), 2047 kbps, 23,976 fps, 0,151 bppАудио №1: AC3 / 5.1 / 48 kHz / 448 kbps / 16 bit| RUSАудио №2: AC3 / 5.1 / 48 kHz / 448 kbps / 16 bit| ENG 2,18 Gb 67 5 26 января 2016 09:54 Третий лишний / Ted (2012) AC3, DTS, TS-MA | UNRATED | L1 .torrent   [Информация о файле (нажмите для просмотра)] Перевод: Любительский одноголосый закадровый [maksciganov] (по тексту Гоблина)Звук: В раздаче присутствуют только звуковые дороги одинаковые по содержанию но разные по качеству, без видео! 4,13 Gb 7 3 26 января 2016 09:54 Третий лишний / Ted (2012) BDRip от HQ-ViDEO | Лицензия .torrent   [Информация о файле (нажмите для просмотра)] Перевод: Профессиональный дублированный (Лицензия) + Оригинальная дорожка (Английская) Субтитры: Русские (форс. + полные), Английские |.srt|Видео: XviD / 704 x 384 / 1.85:1 / 2036 kbps / 23,976 fpsАудио 1: Русский / AC3 Dolby Digital / 48 KHz / 448 kbps / 3/2 (L,C,R,l,r) + LFE chАудио 2: Английский / AC3 Dolby Digital / 48 KHz / 448 kbps / 3/2 (L,C,R,l,r) + LFE ch 2,19 Gb 75 2 26 января 2016 09:54 Медвежонок Тед / Третий лишний / Ted (2012) HDRip | UNRATED | A .torrent   [Информация о файле (нажмите для просмотра)] Перевод: Авторский (Одноголосый)[А.Карповский]Видео: 720x384, 23,976 fps, 1473 kbpsАудио: 48 kHz, AC3 Dolby Digital, 3/2 (L,C,R,l,r) + LFE ch, ~384.00 kbps avgВидео: Идентификатор : 0 Формат : MPEG-4 Visual Профиль формата : Advanced [email protected] Параметр BVOP формата : 1 Параметр QPel формата : Нет Параметр GMC формата : Без точки перехода Параметр матрицы формата : Default (MPEG) Идентификатор кодека : DX50 Идентификатор кодека/Подсказка : DivX 5 Продолжительность : 1 ч. 52 м. Битрейт : 1473 Кбит/сек Ширина : 720 пикселей Высота : 384 пикселя Соотношение сторон : 1,85:1 Частота кадров : 23,976 кадра/сек Цветовое пространство : YUV Субдискретизация насыщенности : 4:2:0 Битовая глубина : 8 бит Тип развёртки : Прогрессивная Метод сжатия : С потерями Бит/(Пиксели*Кадры) : 0.222 Размер потока : 1,16 Гбайт (79%) Библиотека кодирования : XviD 73Аудио: Идентификатор : 1 Формат : AC-3 Формат/Информация : Audio Coding 3 Расширение режима : CM (complete main) Параметр Endianness формата : Big Идентификатор кодека : 2000 Продолжительность : 1 ч. 52 м. Вид битрейта : Постоянный Битрейт : 384 Кбит/сек Каналы : 6 каналов Расположение каналов : Front: L C R, Side: L R, LFE Частота : 48,0 КГц Битовая глубина : 16 бит Метод сжатия : С потерями Размер потока : 308 Мбайт (21%) Выравнивание : Разделение по промежуткам Продолжительность промежутка : 42 мс. (1,00 видеокадр) Время предзагрузки промежутка : 500 мс. 1,46 Gb 40 13 26 января 2016 09:54 Третий лишний / TED (2012) HDRip | Точка Zрения .torrent   [Информация о файле (нажмите для просмотра)] Перевод: Матершинный дубляжКодек: XvidКачество: HDRipВидео: 704x384, 1 872 Kbps, 23.98fpsЗвук: AC3, 48000Hz, stereo, 192kbpsСубтитры: Отсутствуют 1,62 Gb 44 2 26 января 2016 09:54 Третий лишний / Ted (2012) BDRip 720p от Leonardo | D | Лицензия .torrent   [Информация о файле (нажмите для просмотра)] Перевод: Профессиональный (полное дублирование) ЛицензияФормат: MKVВидео кодек: MPEG-4 AVC Аудио кодек: AC3Видео: AVC, 1280x690 (1.85:1) at 23.976 fps, AVC at 4376 kbps avg, 0.207 bit/pixelАудио: 48 kHz, AC3 Dolby Digital, 3/2 (L,C,R,l,r) + LFE ch, 448.00 kbps - RussianСубтитры: Русские, английские 3,65 Gb 139 3 26 января 2016 09:54 Третий лишний / Ted (2012) BDRip от HQ-ViDEO | UNRATED .torrent   [Информация о файле (нажмите для просмотра)] Перевод: Русский авторский одноголосый перевод (Дасевич по тексту Гоблина) + Оригинальная английская дорожкаКачество: BDRip (Исходник: BD-Remux)Формат: AVI; XviD, build 65 codecВидео: 704 x 384; 23.976 fps; 1872 kbps; 0.289 bit/pixelЗвук #1: Russian AC3 Dolby Digital; 448 Kbps; 5.1 ch; 48 KHzЗвук #2: English AC3 Dolby Digital; 448 Kbps; 5.1 ch; 48 KHz 2,18 Gb 17 1 26 января 2016 09:54 Третий лишний / Ted (2012) BDRip 720p от HQ-ViDEO | UNRATED .torrent   [Информация о файле (нажмите для просмотра)] Перевод: Русский авторский одноголосый перевод (Дасевич по тексту Гоблина) + Оригинальная английская дорожкаСубтитры: Русские (Гоблин), Английские.Качество: BDRip 720p (Исходник: Blu-ray)Формат: MKV; MPEG-4 AVC; x264 codecВидео: 1280 x 694; 23.976 fps; 7256 kbps; 0.341 bit/pixelЗвук #1: Russian AC3 Dolby Digital; 640 Kbps; 5.1 ch; 48 KHzЗвук #2: English AC3 Dolby Digital; 640 kbps; 5.1 ch; 48 kHzСубтитры: Russian, English 6,83 Gb 18 1 26 января 2016 09:54 Третий лишний / Ted (2012) BDRip-AVC от leonardo 59 | iPad .torrent   [Информация о файле (нажмите для просмотра)] Перевод: Дублированный [лицензия]Кодек: H.264/AVCФормат: MP4 (контейнер m4v)Видео: H.264/AVC, 1024х552 (1.855), 23.976 fps, 2463 Кbps, 0.182 bit/pixelАудио: Русский: 48 kHz, AAC, 2ch, 125 kbps avg | ДублированныйАудио: Английский: 48 kHz, AAC, 2ch, 126 kbps avg | ОригиналСубтитры: русские, английские 2,02 Gb 9 5 26 января 2016 09:54 Третий лишний / Ted (2012) HDRip от Scarabey | Дасевич | Unrated .torrent   [Информация о файле (нажмите для просмотра)] Перевод: Авторский (Одноголосый, закадровый) - А. Дасевич (по тексту Гоблина)Качество: HDRipФормат: AVIВидео: 592x320 (1.85:1), 23.976 fps, XviD build 50 ~787 kbps avg, 0.17 bit/pixelАудио: 48 kHz, MPEG Layer 3, 2 ch, ~128.00 kbps avg 742,75 Mb 6 3 26 января 2016 09:54 Третий лишний / Ted (2012) BDRip 720p | UNRATED | A .torrent   [Информация о файле (нажмите для просмотра)] Перевод: Одноголосый закадровый, А.Дасевич (по тексту Гоблина) [Ненормативная лексика!!!]Кодек: MPEG-4 AVCКачество: BDRip 720pВидео: 7900 Кбит/с, 1280x694Звук 1: Russian: DTS, 6 ch, 1536 Кбит/cЗвук 2: English: DTS, 6 ch, 1536 Кбит/cСубтитры: Русскиe, английские 8,63 Gb 16 2 26 января 2016 09:54 Третий лишний / Ted (2012) BDRemux .torrent   [Информация о файле (нажмите для просмотра)] Перевод: Профессиональный (дублированный)Кодек: MPEG-4 AVCКачество: BDRemux 1080pВидео: MPEG-4 AVC, 33.5 Мбит/с, 1920x1080, 23.976 кадр/сЗвук: Аудио #1: English: DTS-HD Master Audio 5.1 / 48 kHz / 3416 kbps / 24-bitАудио #2: Russian: DTS Audio 5.1 / 48 kHz / 768 kbps / 24-bit 27,54 Gb 9 4 26 января 2016 09:54 Третий лишний / Ted (2012) HDRip от Scarabey | Лицензия .torrent   [Информация о файле (нажмите для просмотра)] Перевод: Профессиональный (полное дублирование)Качество: HDRipФормат: AVIВидео: 592x320 (1.85:1), 23.976 fps, XviD build 50 ~841 kbps avg, 0.19 bit/pixelАудио: 48 kHz, MPEG Layer 3, 2 ch, ~128.00 kbps avg 742,65 Mb 62 2 26 января 2016 09:53 Третий лишний / Ted (2012) BDRip 1080p .torrent   [Информация о файле (нажмите для просмотра)] Перевод: Дублированный (лицензия)Кодек: x264Качество: BDRip (источник: Blu-ray Disc)Видео: 1920x1040 (16:9), 23.976 fps, 6690 kbpsАудио #1: AC-3, 6 ch, 640 kbps (Rus)Аудио #2: AC-3, 6 ch, 448 kbps (Eng)Субтитры: Русские (форс,полные), АнглийскиеВидео: Идентификатор : 1 Формат : AVC Формат/Информация : Advanced Video Codec Профиль формата : [email protected] Параметр CABAC формата : Да Параметр ReFrames формата : 4 кадра Идентификатор кодека : V_MPEG4/ISO/AVC Продолжительность : 1 ч. 46 м. Битрейт : 6690 Кбит/сек Ширина : 1920 пикселей Высота : 1040 пикселей Соотношение сторон : 16:9 Частота кадров : 23,976 кадра/сек Цветовое пространство : YUV Субдискретизация насыщенности : 4:2:0 Битовая глубина : 8 бит Тип развёртки : Прогрессивная Бит/(Пиксели*Кадры) : 0.140 Размер потока : 4,84 Гбайт (84%) Заголовок : Release by AlexKa Библиотека кодирования : x264 core 128 r2216 198a7ea Настройки программы : cabac=1 / ref=4 / deblock=1:0:0 / analyse=0x3:0x133 / me=umh / subme=10 / psy=1 / psy_rd=1.00:0.00 / mixed_ref=1 / me_range=32 / chroma_me=1 / trellis=2 / 8x8dct=1 / cqm=0 / deadzone=21,11 / fast_pskip=0 / chroma_qp_offset=-2 / threads=12 / lookahead_threads=2 / sliced_threads=0 / nr=0 / decimate=0 / interlaced=0 / bluray_compat=0 / constrained_intra=0 / bframes=5 / b_pyramid=2 / b_adapt=2 / b_bias=0 / direct=3 / weightb=1 / open_gop=0 / weightp=2 / keyint=240 / keyint_min=23 / scenecut=40 / intra_refresh=0 / rc=2pass / mbtree=0 / bitrate=6690 / ratetol=1.0 / qcomp=0.60 / qpmin=0 / qpmax=69 / qpstep=4 / cplxblur=20.0 / qblur=0.5 / ip_ratio=1.40 / pb_ratio=1.30 / aq=1:0.80 Язык : EnglishАудио #1: Идентификатор : 2 Формат : AC-3 Формат/Информация : Audio Coding 3 Расширение режима : CM (complete main) Идентификатор кодека : A_AC3 Продолжительность : 1 ч. 46 м. Вид битрейта : Постоянный Битрейт : 640 Кбит/сек Каналы : 6 каналов Расположение каналов : Front: L C R, Side: L R, LFE Частота : 48,0 КГц Битовая глубина : 16 бит Метод сжатия : С потерями Размер потока : 485 Мбайт (8%) Заголовок : Rus Язык : RussianАудио #2: Идентификатор : 3 Формат : AC-3 Формат/Информация : Audio Coding 3 Расширение режима : CM (complete main) Идентификатор кодека : A_AC3 Продолжительность : 1 ч. 46 м. Вид битрейта : Постоянный Битрейт : 448 Кбит/сек Каналы : 6 каналов Расположение каналов : Front: L C R, Side: L R, LFE Частота : 48,0 КГц Битовая глубина : 16 бит Метод сжатия : С потерями Размер потока : 340 Мбайт (6%) Заголовок : Eng Язык : English 5,76 Gb 143 9 26 января 2016 09:53 Третий лишний / Ted (2012) BDRip-AVC от HQ-ViDEO | Лицензия .torrent   [Информация о файле (нажмите для просмотра)] Перевод: Профессиональный дублированный (Лицензия) + Оригинальная дорожка (Английская/Отдельно) Субтитры: Русские (форс. + полные), Английские |.srt|Видео: x.264 / 1056 x 572 / 1.85:1 / ~2497 kbps / 23,976 fpsАудио 1: Русский / AC3 Dolby Digital / 48 KHz / 448 kbps / 3/2 (L,C,R,l,r) + LFE chАудио 2: Английский / AC3 Dolby Digital / 48 KHz / 448 kbps / 3/2 (L,C,R,l,r) + LFE ch| narod.ru 2,18 Gb 40 3 26 января 2016 09:53 Третий лишний / Ted (2012) Blu-ray disc | Лицензия .torrent   [Информация о файле (нажмите для просмотра)] Перевод: Профессиональный (дублированный)Контейнер: BDMVВидео: MPEG-4 AVC Video / 1080p / 33530 kbps / 23,976 fps / 16:9 / 1.85:1 / High Profile 4.1 Аудио: English: DTS-HD Master Audio 5.1 / 48 kHz / 3416 kbps / 24-bit (DTS Core: 5.1 / 48 kHz / 1509 kbps / 24- bit) Аудио 2: Russian: DTS Audio 5.1 / 48 kHz / 768 kbps / 24-bit Аудио 3: English: Dolby Digital Audio 2.0 / 48 kHz / 192 kbps / DN -4dB / Dolby Surround, а также DTS Audio German 768 kbps 5.1 / 48 kHz / 768 kbps / 24-bit DTS Audio Spanish 768 kbps 5.1 / 48 kHz / 768 kbps / 24-bit DTS Audio Czech 768 kbps 5.1 / 48 kHz / 768 kbps / 24-bit DTS Audio Hungarian 768 kbps 5.1 / 48 kHz / 768 kbps / 24-bit DTS Audio Turkish 768 kbps 5.1 / 48 kHz / 768 kbps / 24-bit 44,1 Gb 3 7 26 января 2016 09:53 Третий лишний / Ted (2012) BDRip | D, Гоблин .torrent   [Информация о файле (нажмите для просмотра)] Перевод: Профессиональный (дублированный) + Авторский (одноголосый, закадровый) Goblin aka Дмитрий ПучковФормат: AVI (XviD)Качество: BDRip [Рип с Blu-ray 1080p]Видео: 1508 kb/s, 720x384Аудио #1: 48 kHz, AC3 5.1 @ 448 kbps (6 channels) |ДубляжАудио #2: AC3, 128 kb/s (2 ch) |Goblin (Звук с TS) 1,56 Gb 64 2 26 января 2016 09:53 Третий лишний / Ted (2012) BDRip 720p от HQ-ViDEO | Лицензия .torrent   [Информация о файле (нажмите для просмотра)] Перевод: Профессиональный дублированный (Лицензия) + Оригинальная дорожка (Английская) Субтитры: Русские (форс. + полные), Английские |.srt|Видео: x.264 / 1280 x 694 / 1.85:1 / ~8280 kbps / 23,976 fpsАудио 1: Русский / AC3 Dolby Digital / 48 KHz / 640 kbps / 3/2 (L,C,R,l,r) + LFE chАудио 2: Английский / AC3 Dolby Digital / 48 KHz / 640 kbps / 3/2 (L,C,R,l,r) + LFE ch 7,08 Gb 8 2 26 января 2016 09:53 Третий лишний / Ted (2012) BDRip 1080p | Лицензия .torrent   [Информация о файле (нажмите для просмотра)] Формат: MKVКачество: BDRip 1080pВидео: 8815 kb/s, 1920x1040Аудио: Russian: DTS, 755 kb/s (6 ch) / English: DTS, 1510 kb/s (6 ch)Субтитры: Нет. 8,22 Gb 33 5 26 января 2016 09:53 Третий лишний / Ted (2012) HDRip-AVC | Лицензия .torrent   [Информация о файле (нажмите для просмотра)] Перевод: Профессиональный (полное дублирование)[Лицензия]Кодек: AVC, MKV, H.264Качество: HDRipВидео: 752 x 400 (1:88:1), 23,976 fps, AVC (х264), ~ 853 Kbps, 0.118 bit/pixel Звук: 48 kHz, MPEG Layer 3, 2 ch, ~128.00 kbps avg 745,5 Mb 14 3 26 января 2016 09:53 Третий лишний / Ted (2012) DVD9 от New-Team | лицензия .torrent   [Информация о файле (нажмите для просмотра)] Перевод: Профессиональный (дублированный) [Лицензия]Кодек: MPEG2Качество: DVDВидео: PAL 16:9 (720x576(0.567)) MPEG Video, 25,000 кадр/сек, 5877 Кбит/секЗвук: Аудио #1: English (Dolby AC3, 6 ch) 384 Кбит/сек, 48,0 КГцАудио #2: Magyar (Dolby AC3, 6 ch) 384 Кбит/сек, 48,0 КГцАудио #3: Russian (Dolby AC3, 6 ch) 384 Кбит/сек, 48,0 КГцСубтитры: русские, английские, мадьярские, арабские, болгарские, латвийские 6,54 Gb 2 5 26 января 2016 09:53 Третий лишний / Ted (2012) DVD5 R5 от New-Team | D | лицензия .torrent   [Информация о файле (нажмите для просмотра)] Перевод: Профессиональный (дублированный)Контейнер: DVD VideoВидео: PAL 16x9 (720х576) VBR ~ 4123 kbps, Auto LetterboxedАудио 1: 48 kHz, Dolby AC3 5.1 384 kbps, английскийАудио 2: 48 kHz, Dolby AC3 5.1 384 kbps, русский 4,36 Gb 2 5 26 января 2016 09:53 Третий лишний / Ted (2012) BDRip 720p | Лицензия .torrent   [Информация о файле (нажмите для просмотра)] Формат: MKVКачество: BDRip 720pВидео: 5130 kb/s, 1280x688Аудио: Russian: DTS, 755 kb/s (6 ch) / English: DTS, 1510 kb/s (6 ch)Субтитры: Нет. 5,49 Gb 14 4

gig-torrent.net

Скачать фильм Третий лишний 2 через торрент в хорошем качестве бесплатно 1080p

Размер: 3.83 GB | Добавлен: 2 года 1 мес. назад | Торрент скачан:1671 раз
Реклама Дарим 3000 рублей за регистрацию, не упусти свой шанс получить шикарный бонус!!!

23-09-2015 19:51 Третий лишний 2 Скачать торрент  

Третий лишний 2 / Ted 2 ««Плюшевый беспредельщик возвращается»» ИНФОРМАЦИЯ: Год выпуска:2015 Страна: США Жанр: комедия Продолжительность: 01:52:43 Перевод: Дубляж - [Лицензия / iTunes] Режиссер: Сет МакФарлейнВ Ролях: Марк Уолберг (John), Сет МакФарлейн (Ted, озвучка), Аманда Сайфред (Samantha), Джованни Рибизи (Donny), Джон Слэттери (Shep Wild), Морган Фриман (Patrick Meighan), Джессика Барт (Tami-Lynn), Сэм Дж. Джонс (Sam Jones), Патрик Варбертон (Guy), Майкл Дорн (Rick), Билл Смитрович (Frank), Коко Браун (Joy)Описание: Плюшевый беспредельщик продолжает сводить с ума чопорную интеллигенцию. На этот раз говорящий медвежонок с большим эго и его длинноногая блондинка решили завести ребёнка. Там, где не постаралась природа, на помощь приходят звёздные доноры, городские сумасшедшие и верный друг Джонни. Он только что расстался с Лори и готов к новым авантюрам. Третий здесь совсем не лишний.
  • Мировая премьера:25 июня 2015 ТЕХ.ДАННЫЕ: Качество: WEB-DL 1080p Формат: MKV Видео: AVC, 1916x796 (2.40:1), 4380 kbps, 23,976 fps, 0,120 bpp Аудио: русский / AC3 / 5.1 / 48 kHz / 384 kbps / 16 bit || Навигация по главам: естьGeneralUnique ID : 188037665900386977863145201797897850629 (0x8D76BCB567BBAA1FBD48C62A9D2F0F05)Complete name : D:\Торенты\TED.2.2015.D.WEB-DL.1080p.mkvFormat : MatroskaFormat version : Version 4 / Version 2File size : 3.83 GiBDuration : 1h 52mnOverall bit rate : 4 861 KbpsEncoded date : UTC 2015-09-23 18:18:53Writing application : mkvmerge v6.9.1 ('Blue Panther') 64bit built on Apr 18 2014 18:23:38Writing library : libebml v1.3.0 + libmatroska v1.4.1

    VideoID : 1Format : AVCFormat/Info : Advanced Video CodecFormat profile : [email protected] settings, CABAC : YesFormat settings, ReFrames : 5 framesCodec ID : V_MPEG4/ISO/AVCDuration : 1h 52mnBit rate : 4 381 KbpsWidth : 1 916 pixelsHeight : 796 pixelsDisplay aspect ratio : 2.40:1Frame rate : 23.976 fpsColor space : YUVChroma subsampling : 4:2:0Bit depth : 8 bitsScan type : ProgressiveBits/(Pixel*Frame) : 0.120Stream size : 3.45 GiB (90%)Language : EnglishDefault : YesForced : NoColor primaries : BT.709-5, BT.1361, IEC 61966-2-4, SMPTE RP177Transfer characteristics : BT.709-5, BT.1361Matrix coefficients : BT.709-5, BT.1361, IEC 61966-2-4 709, SMPTE RP177

    AudioID : 2Format : AC-3Format/Info : Audio Coding 3Mode extension : CM (complete main)Codec ID : A_AC3Duration : 1h 52mnBit rate mode : ConstantBit rate : 384 KbpsChannel(s) : 6 channelsChannel positions : Front: L C R, Side: L R, LFESampling rate : 48.0 KHzBit depth : 16 bitsCompression mode : LossyStream size : 310 MiB (8%)Language : RussianDefault : YesForced : No

    Menu00:00:00.000 : en:глава 100:07:18.000 : en:глава 200:14:49.000 : en:глава 300:19:15.000 : en:глава 400:27:35.000 : en:глава 500:34:19.000 : en:глава 600:42:46.000 : en:глава 700:47:59.000 : en:глава 800:54:29.000 : en:глава 900:58:47.000 : en:глава 1001:04:08.000 : en:глава 1101:09:51.000 : en:глава 1201:12:25.000 : en:глава 1301:15:19.000 : en:глава 1401:21:40.000 : en:глава 1501:26:38.000 : en:глава 1601:31:13.000 : en:глава 1701:36:46.000 : en:глава 1801:41:49.000 : en:глава 1901:45:42.000 : en:глава 20

    Скриншоты: © Оформление by Ворон
  • Скачать Третий лишний 2 через торрент http://pic.pb.wtf/images/6/ordi9.jpg Скачать фильм Третий лишний 2 через торрент бесплантно в хорошем качестве Описание: Плюшевый беспредельщик продолжает сводить с ума чопорную интеллигенцию. На этот раз говорящий медвежонок с большим эго и его ... 2015-09-23 19:51 9.5 10 49

    Loading...

    Loading...

    % Раздел Тема Автор DL S | L
    Фильмы 2015 [DVDrip, WEB-DLRip, HDrip] [ 1.46 GB ] Третий лишний 2 [2015 WEB-DLRip ] Ворон Скачать
    Фильмы 2015 [DVDrip, WEB-DLRip, HDrip] [ 1.46 GB ] Третий лишний 2 / Ted 2 [2015 BDRip-AVC] Dub potroks Скачать
    Фильмы (HD 720p, 1080p) (48-60 fps) [ 5.89 GB ] Третий лишний 2 / Ted 2 [2015 BDRip 720p / 60 fps Theatrical Cut - ] от R.G. HD-Films Ressident Скачать
    Фильмы 2015 [DVDrip, WEB-DLRip, HDrip] [ 1.46 GB ] Третий лишний 2 / Ted 2 [2015 BDRip] Dub Twi7ter Скачать
    Фильмы 2015 [DVDrip, WEB-DLRip, HDrip] [ 1.41 GB ] Третий лишний 2 / Ted 2 [2015 BDRip Twi7ter Скачать
    T Фильмы (Blu-ray, BD-Remux, HDDVD) [ 27.82 GB ] Третий лишний 2 / Ted 2 [2015 BD Remux] [Unrated Cut] ] Ворон Скачать
    T Фильмы [HD 720p, 1080p] (Хороший звук DUB, MVO) [ 8.43 GB ] Третий лишний 2 / Ted 2 [2015 BDRip 1080p ЦККПСС Скачать

    Рекламный пират

    23-09-2015 20:00 Третий лишний 2 Скачать торрент  

    Тед и Джон снова отжигают

    После первого фильма, доставившего немало удовольствия в первую очередь из-за необычного дуэта главных героев и их фразочек, ко второй, почему-то появилось скептическое отношение. Оно укрепилось отзывами людей, которые сходили в кино и сообщили, что фильм — тупое сборище американского юмора.

    К счастью, личный просмотр этой комедии оставил совершенно другие впечатления. Да, начало истории о том, как Тед решил через суд добиться права называться человеком, может быть, не является лучшим продолжением, особенно если учитывать всю вакханалию из первой части, но, здесь ведь мы видим уже не того Теда и Джона — первый стал семейным мишкой, а у второго сердце разбито (вероятнее, от того, что Мила Кунис родила от Эштона Катчера).

    «Третий лишний 2» хоть и не лишен сортирного юмора, но все же не содержит его столько, чтобы начать плеваться и краснеть за происходящее на экране.

    Единственное, что мне не понравилось так это сцены в библиотеки с этими фантасмагоричными и галюциногенными танцами. И еще один момент — телешоу, в котором рассказывали о судьбе Теда — снято как-то никчемно, третьесортно и уныло.

    Очень трогательной оказалась одна из финальных сцен, где Тед все же дал понять, что он не набитый ватой плюшевый медведь, а человек. Также, пришлась по вкусу сцена, в которой Тед увидел зомби. Это было круто. Также как и момент с гитарой — просто огонь. Вот в этих местах зрителю гарантирован дикий смех.

    В целом, типичная комедия с обилием юмора и комичных ситуаций, определенным объемом тупых шуток, ноткой иронии, трогательными моментами, поучающими и заставляющими подумать сценами и звездами первой величины.

    Впрочем, смотреть Вам. Свое мнение никому не навязываю.

    8 из 10by C_B_J

    23-09-2015 23:13 Третий лишний 2 Скачать торрент  

    Прикольный фильм, поржал

    24-09-2015 11:03 Третий лишний 2 Скачать торрент  

    Спасибо большое)

    25-09-2015 23:16 Третий лишний 2 Скачать торрент  

    фильм для укурков , я к сожалению не укурок и столько не скурю чтоб понравился 3 из 10 , не больше !

    27-09-2015 17:22 Третий лишний 2 Скачать торрент  

    :jest3: 4 из 10,первый фильм намного лучше...

    23-10-2015 18:35 Третий лишний 2 Скачать торрент  

    не фильм скачивается, а игрушка Coast Guard (2015)_RePack by XLASER

    Дорогой пользователь! Огромная просьба, поблагодарите релизера, оцените раздачу и оставьте свои комментарий, если Вы скачали Третий лишний 2 через торрент бесплатно! Внесите свою лепту в развитие PiratBit!

    Комментировать посты могут только пользователи прошедшие не сложную регистрацию

    Третий лишний 2 через торрент Скачать бесплатно Третий лишний 2 Третий лишний 2 скачать торрент Третий лишний 2 смотреть онлайн Cкачать фильм Третий лишний 2 бесплатно Третий лишний 2 скачать торрент в хорошем качестве Третий лишний 2 смотреть онлайн бесплатно в хорошем качестве

    Вы не можете начинать темыВы не можете отвечать на сообщенияВы не можете редактировать свои сообщенияВы не можете удалять свои сообщенияВы не можете голосовать в опросахВы не можете прикреплять файлы к сообщениямВы можете скачивать файлы

    piratbit.ru

    Третий лишний 2 через торрент

    GeneralUnique ID                                : 192462341291782291262042330930526754057 (0x90CAE60C5BB658ECB3F42BBBF3471509)Complete name                            : N:\Комедия\Tretiy.Lishniy.2.TC.2015.RUS.BDRip.x264.-HELLYWOOD.mkvFormat                                   : MatroskaFormat version                           : Version 4 / Version 2File size                                : 1.46 GiBDuration                                 : 1h 55mnOverall bit rate                         : 1 812 KbpsMovie name                               : Ted 2 (2015) - HELLYWOODEncoded date                             : UTC 2010-02-22 21:41:31Writing application                      : mkvmerge v5.8.0 ('No Sleep / Pillow') built on Sep 30 2012 10:57:14Writing library                          : libebml v1.3.0 + libmatroska v1.4.0

    VideoID                                       : 1Format                                   : AVCFormat/Info                              : Advanced Video CodecFormat profile                           : [email protected] settings, CABAC                   : YesFormat settings, ReFrames                : 12 framesCodec ID                                 : V_MPEG4/ISO/AVCDuration                                 : 1h 55mnBit rate                                 : 1 426 KbpsWidth                                    : 984 pixelsHeight                                   : 410 pixelsDisplay aspect ratio                     : 2.40:1Frame rate                               : 23.976 fpsColor space                              : YUVChroma subsampling                       : 4:2:0Bit depth                                : 8 bitsScan type                                : ProgressiveBits/(Pixel*Frame)                       : 0.147Stream size                              : 1.12 GiB (77%)Title                                    : potroksWriting library                          : x264 core 146 r2538 121396cEncoding settings                        : cabac=1 / ref=12 / deblock=1:-2:-2 / analyse=0x3:0x113 / me=umh / subme=11 / psy=1 / psy_rd=1.05:0.10 / mixed_ref=1 / me_range=48 / chroma_me=1 / trellis=2 / 8x8dct=1 / cqm=0 / deadzone=21,11 / fast_pskip=0 / chroma_qp_offset=-3 / threads=9 / lookahead_threads=2 / sliced_threads=0 / nr=0 / decimate=0 / interlaced=0 / bluray_compat=0 / constrained_intra=0 / bframes=13 / b_pyramid=2 / b_adapt=2 / b_bias=0 / direct=3 / weightb=1 / open_gop=0 / weightp=2 / keyint=250 / keyint_min=23 / scenecut=40 / intra_refresh=0 / rc_lookahead=60 / rc=2pass / mbtree=0 / bitrate=1426 / ratetol=1.0 / qcomp=0.70 / qpmin=0 / qpmax=69 / qpstep=4 / cplxblur=20.0 / qblur=0.5 / vbv_maxrate=14000 / vbv_bufsize=14000 / nal_hrd=none / filler=0 / ip_ratio=1.35 / pb_ratio=1.25 / aq=1:0.80Language                                 : EnglishDefault                                  : YesForced                                   : No

    AudioID                                       : 2Format                                   : AC-3Format/Info                              : Audio Coding 3Mode extension                           : CM (complete main)Codec ID                                 : A_AC3Duration                                 : 1h 55mnBit rate mode                            : ConstantBit rate                                 : 384 KbpsChannel(s)                               : 6 channelsChannel positions                        : Front: L C R, Side: L R, LFESampling rate                            : 48.0 KHzBit depth                                : 16 bitsCompression mode                         : LossyStream size                              : 317 MiB (21%)Title                                    : Dub | DD 5.1 @ 384 kbps - iTunesLanguage                                 : RussianDefault                                  : YesForced                                   : No

    Text #1ID                                       : 3Format                                   : UTF-8Codec ID                                 : S_TEXT/UTF8Codec ID/Info                            : UTF-8 Plain TextLanguage                                 : UkrainianDefault                                  : NoForced                                   : No

    Text #2ID                                       : 4Format                                   : UTF-8Codec ID                                 : S_TEXT/UTF8Codec ID/Info                            : UTF-8 Plain TextTitle                                    : FullLanguage                                 : EnglishDefault                                  : NoForced                                   : No

    Text #3ID                                       : 5Format                                   : UTF-8Codec ID                                 : S_TEXT/UTF8Codec ID/Info                            : UTF-8 Plain TextTitle                                    : SDHLanguage                                 : EnglishDefault                                  : NoForced                                   : No

    Text #4ID                                       : 6Format                                   : UTF-8Codec ID                                 : S_TEXT/UTF8Codec ID/Info                            : UTF-8 Plain TextTitle                                    : SDH-ColoredLanguage                                 : EnglishDefault                                  : NoForced                                   : No

    Menu00:00:00.000                             : en:(01)00:00:00:00000:07:14.559                             : en:(02)00:07:14:55900:14:47.512                             : en:(03)00:14:47:51200:19:13.861                             : en:(04)00:19:13:86100:27:33.443                             : en:(05)00:27:33:44300:34:18.098                             : en:(06)00:34:18:09800:42:45.146                             : en:(07)00:42:45:14600:47:57.875                             : en:(08)00:47:57:87500:54:27.681                             : en:(09)00:54:27:68100:58:45.564                             : en:(10)00:58:45:56401:04:06.551                             : en:(11)01:04:06:55101:09:49.394                             : en:(12)01:09:49:39401:13:59.935                             : en:(13)01:13:59:93501:18:03.220                             : en:(14)01:18:03:22001:24:24.768                             : en:(15)01:24:24:76801:29:22.732                             : en:(16)01:29:22:73201:34:57.483                             : en:(17)01:34:57:48301:39:42.435                             : en:(18)01:39:42:43501:44:33.476                             : en:(19)01:44:33:47601:48:26.750                             : en:(20)01:48:26:750

    piratbit.ru


    Смотрите также