Скачать фильм 8 свиданий через торрент бесплатно в хорошем качестве


Скачать фильм 8 лучших свиданий (2016) через торрент

9 декабря 2016 11:32 8 лучших свиданий (2016) WEB-DLRip-AVC от ExKinoRay | iTunes Russia .torrent   [Информация о файле (нажмите для просмотра)] Качество: WEB-DLRip (AVC)Видео: MPEG-4 AVC, 2385 Кбит/с, 1024x576, 25 кадр/сАудио: AC3, 6 ch, 384 Кбит/сВидео: Идентификатор : 1 Формат : AVC Формат/Информация : Advanced Video Codec Профиль формата : [email protected] Параметр CABAC формата : Да Параметр ReFrames формата : 12 кадров Идентификатор кодека : V_MPEG4/ISO/AVC Продолжительность : 1 ч. 32 м. Битрейт : 2385 Кбит/сек Ширина : 1024 пикселя Высота : 576 пикселей Соотношение сторон : 16:9 Режим частоты кадров : Постоянный Частота кадров : 25,000 кадров/сек Цветовое пространство : YUV Субдискретизация насыщенности : 4:2:0 Битовая глубина : 8 бит Тип развёртки : Прогрессивная Бит/(Пиксели*Кадры) : 0.162 Размер потока : 1,51 Гбайт (84%) Библиотека кодирования : x264 core 146 r2538 121396c Настройки программы : cabac=1 / ref=12 / deblock=1:-3:-3 / analyse=0x3:0x133 / me=umh / subme=11 / psy=1 / psy_rd=1.00:0.10 / mixed_ref=1 / me_range=48 / chroma_me=1 / trellis=2 / 8x8dct=1 / cqm=0 / deadzone=21,11 / fast_pskip=0 / chroma_qp_offset=-3 / threads=12 / lookahead_threads=2 / sliced_threads=0 / nr=0 / decimate=0 / interlaced=0 / bluray_compat=0 / constrained_intra=0 / bframes=9 / b_pyramid=2 / b_adapt=2 / b_bias=0 / direct=3 / weightb=1 / open_gop=0 / weightp=2 / keyint=250 / keyint_min=25 / scenecut=40 / intra_refresh=0 / rc_lookahead=40 / rc=2pass / mbtree=0 / bitrate=2385 / ratetol=1.0 / qcomp=0.60 / qpmin=0 / qpmax=69 / qpstep=4 / cplxblur=20.0 / qblur=0.5 / vbv_maxrate=50000 / vbv_bufsize=62500 / nal_hrd=none / filler=0 / ip_ratio=1.40 / pb_ratio=1.30 / aq=1:1.00 Язык : Russian Default : Да Forced : НетАудио: Идентификатор : 2 Формат : AC-3 Формат/Информация : Audio Coding 3 Расширение режима : CM (complete main) Параметр Endianness формата : Big Идентификатор кодека : A_AC3 Продолжительность : 1 ч. 32 м. Вид битрейта : Постоянный Битрейт : 384 Кбит/сек Каналы : 6 каналов Расположение каналов : Front: L C R, Side: L R, LFE Частота : 48,0 КГц Частота кадров : 31,250 кадров/сек (1536 spf) Метод сжатия : С потерями Размер потока : 255 Мбайт (14%) Заголовок : iTunes Russia Язык : Russian Default : Да Forced : Нет 1,8 Gb 40 3 9 декабря 2016 11:32 8 лучших свиданий (2016) WEB-DLRip от MegaPeer | iTunes .torrent   [Информация о файле (нажмите для просмотра)] Перевод: Оригинал (русский) -iTunesФормат: AVIКачество: WEB-DLRipВидео: Xvid, 656x368, 25 fps, ~981 kbpsЗвук: MP3, 2 ch, ~128 kbpsСубтитры: | отсутствуют | 744,26 Mb 43 4 9 декабря 2016 11:32 8 лучших свиданий (2016) WEB-DL 1080р | iTunes .torrent   [Информация о файле (нажмите для просмотра)] Перевод: не требуется | оригинал (русский)Субтитры: нетКачество: WEB-DL 1080рФормат: МКVВидео: 1920x1080, 23.976 fps, MPEG-4 AVC ~5 100 kbps avgАудио: 48.0 kHz, AC3 Dolby Digital, 3/2 (L,C,R,l,r) + LFE ch, ~384.00 kbps 3,59 Gb 115 5 9 декабря 2016 11:32 8 лучших свиданий (2016) WEB-DL 720р | iTunes .torrent   [Информация о файле (нажмите для просмотра)] Перевод: не требуется | оригинал (русский)Субтитры: нетКачество: WEB-DL 720рФормат: МКVВидео: 1280x720, 23.976 fps, MPEG-4 AVC ~4 000 kbps avgАудио: 48.0 kHz, AC3 Dolby Digital, 3/2 (L,C,R,l,r) + LFE ch, ~384.00 kbps 2,88 Gb 25 1 9 декабря 2016 11:32 8 лучших свиданий (2016) WEB-DLRip | iTunes .torrent   [Информация о файле (нажмите для просмотра)] Перевод: не требуется | оригинал (русский)Субтитры: нетКачество: WEB-DLRipФормат: АVIВидео: 720x400, 23.976 fps, XviD ~1 715 kbps avgАудио: 48.0 kHz, AC3 Dolby Digital, 3/2 (L,C,R,l,r) + LFE ch, ~384.00 kbps 1,37 Gb 107 3

gig-torrent.net

Скачать фильм 8 лучших свиданий через торрент в хорошем качестве бесплатно WEB-DLRip

Размер: 1.37 GB | Добавлен: 1 год 6 мес. назад | Торрент скачан:672 раза
Реклама Дарим 3000 рублей за регистрацию, не упусти свой шанс получить шикарный бонус!!!

18-04-2016 07:28 8 лучших свиданий Скачать торрент  

8 лучших свиданий

Год выпуска: 2016Страна: РоссияЖанр: комедия, мелодрамаПродолжительность: 100 мин. / 01:40Перевод: Не требуется Субтитры: Нет

Режиссер: Марюс ВайсбергПродюссер: Екатерина Гордецкая, Андрей РадькоСценарий: Юрий Стукалин, Андрей Яковлев, Михаил Савин

Бюджет: $2 695 871Премьера в мире: 4 марта 2016

IMDB 2.00 (147)

В ролях: Владимир Зеленский, Вера Брежнева, Владимир Епифанцев, Евгений Кошевой, Сергей Казанин, Нино Кантария, Виктор Щур, Мария Ивакова

Описание: Одним солнечным днем преуспевающий владелец ветклиники Никита узнает, что неизлечимо болен. Он не подозревает, что это врачебная ошибка, и всерьез задумывается: кто же позаботится о его прекрасных жене, детях и бизнесе?.. И тут в его голову приходит мысль, что, как это ни прискорбно, кажется, пора подыскивать себе замену. Так — после жесткого отбора — в дом семьи Соколовых под благовидным предлогом заселяется пожарный Илья, мужчина надежный и без вредных привычек. Никита начинает тайную операцию под кодовым названием «замена». А когда Никита узнает, что его здоровью ничто не угрожает, уже поздно!.. Распрекрасного Илью уже успели полюбить все, включая пациентов ветклиники. Борьба не на жизнь, а на любовь только начинается.

Доп. информация: Реклама и прочая гадость отсутствует!

Релиз от:

Качество: WEB-DLRipФормат: AVIВидео кодек: XviDАудио кодек: AC3Видео: 720x400 (1.80:1), 25 fps, XviD build 50 ~1907 kbps avg, 0.265 bit/pixelАудио#1: 48 kHz, AC3 Dolby Digital, 2/0 (L,R) ch, ~192.00 kbps avg

8.Svidaniy.2016.O.WEB-DLRip.aviFormat : AVIFormat/Info : Audio Video InterleaveFile size : 1.37 GiBDuration : 1h 32mnOverall bit rate : 2 109 KbpsMovie name : rustorrents.infoWriting application : VirtualDubMod 1.5.10.3 | | (build 2550/release)

VideoID : 0Format : MPEG-4 VisualFormat profile : Advanced [email protected] settings, BVOP : 2Format settings, QPel : NoFormat settings, GMC : No warppointsFormat settings, Matrix : CustomCodec ID : XVIDCodec ID/Hint : XviDDuration : 1h 32mnBit rate : 1 907 KbpsWidth : 720 pixelsHeight : 400 pixelsDisplay aspect ratio : 16:9Frame rate : 25.000 fpsColor space : YUVChroma subsampling : 4:2:0Bit depth : 8 bitsScan type : ProgressiveCompression mode : LossyBits/(Pixel*Frame) : 0.265Stream size : 1.24 GiB (90%)Writing library : XviD 1.2.1 (UTC 2008-12-04)

AudioID : 1Format : AC-3Format/Info : Audio Coding 3Mode extension : CM (complete main)Format settings, Endianness : BigCodec ID : 2000Duration : 1h 32mnBit rate mode : ConstantBit rate : 192 KbpsChannel(s) : 2 channelsChannel positions : Front: L RSampling rate : 48.0 KHzBit depth : 16 bitsCompression mode : LossyStream size : 128 MiB (9%)Alignment : Split accross interleavesInterleave, duration : 40 ms (1.00 video frame)Interleave, preload duration : 500 ms

8 лучших свиданий скачать торрент

Скачать 8 лучших свиданий через торрент http://i78.fastpic.ru/big/2016/0418/47/9249c65a8d8af7dcfd46fed67b7c3e47.jpg Скачать фильм 8 лучших свиданий через торрент бесплантно в хорошем качестве Описание: Одним солнечным днем преуспевающий владелец ветклиники Никита узнает, что неизлечимо болен. Он не подозревает, что это врачебная ... 2016-04-18 07:28 6.2 10 29

Loading...

Loading...

Рекламный пират

18-04-2016 07:51 8 лучших свиданий Скачать торрент  

"Реклама и прочая гадость отсутствует!"Терзают смутные сомнения, насчет гадости :)

18-04-2016 08:01 8 лучших свиданий Скачать торрент  

Sergedoga писал(а):

"Реклама и прочая гадость отсутствует!"Терзают смутные сомнения, насчет гадости :)

бендеровская гадость для поддержания правого сектора тварь

18-04-2016 08:06 8 лучших свиданий Скачать торрент  

рейтинг зашкаливает и понятно почему))

18-04-2016 08:11 8 лучших свиданий Скачать торрент  

Во первых не бендеровская а бандеровская. (Бендеры город в Молдавии).Во вторых чтоб еврей и правый сектор берут смутные сомнения.
!ФёдорOFF писал(а):

Прекращаем националистические разговоры!

18-04-2016 08:24 8 лучших свиданий Скачать торрент  

рейтинг на кинопоиске уже давно не показатель. этот фильм на много лучше чем например филь "горько" а от горящых пуканов рецензоров с кинопоиска уже могла бы появится новая звезда

18-04-2016 08:41 8 лучших свиданий Скачать торрент  

paranja писал(а):

а от горящых пуканов рецензоров с кинопоиска уже могла бы появится новая звезда

Факт Вбейте название в гугл поиск и нажмите на картинки, там у многих не только пуканы горят

18-04-2016 08:48 8 лучших свиданий Скачать торрент  

блин дожились-зелёнку выложили.............бр

18-04-2016 08:53 8 лучших свиданий Скачать торрент  

Фильм редкостное ...

Pекламный агент PB

18-04-2016 10:35 8 лучших свиданий Скачать торрент  

Не смотрел, но осуждаю.

Дорогой пользователь! Огромная просьба, поблагодарите релизера, оцените раздачу и оставьте свои комментарий, если Вы скачали 8 лучших свиданий через торрент бесплатно! Внесите свою лепту в развитие PiratBit!

Комментировать посты могут только пользователи прошедшие не сложную регистрацию

8 лучших свиданий через торрент Скачать бесплатно 8 лучших свиданий 8 лучших свиданий скачать торрент 8 лучших свиданий смотреть онлайн Cкачать фильм 8 лучших свиданий бесплатно 8 лучших свиданий скачать торрент в хорошем качестве 8 лучших свиданий смотреть онлайн бесплатно в хорошем качестве

Вы можете начинать темыВы можете отвечать на сообщенияВы не можете редактировать свои сообщенияВы не можете удалять свои сообщенияВы не можете голосовать в опросахВы не можете прикреплять файлы к сообщениямВы можете скачивать файлы

piratbit.ru

Скачать фильм 8 лучших свиданий через торрент в хорошем качестве бесплатно 720p

Размер: 1.62 GB | Добавлен: 1 год 6 мес. назад | Торрент скачан:97 раз
Реклама Дарим 3000 рублей за регистрацию, не упусти свой шанс получить шикарный бонус!!!

18-04-2016 21:51 8 лучших свиданий Скачать торрент  

8 лучших свиданий«Ищу мужа своей жене» • Год выпуска » 2016• Страна » Россия• Жанр » Комедия, мелодрама• Продолжительность » 01:32:56• Перевод » Не требуется [русский]• Субтитры » Отсутствуют

В ролях » Владимир Зеленский, Вера Брежнева, Владимир Епифанцев, Евгений Кошевой, Сергей Казанин, Нино Кантария, Виктор Щур, Мария Ивакова

Режиссёр» Марюс Вайсберг

» Одним солнечным днем преуспевающий владелец ветклиники Никита узнает, что неизлечимо болен. Он не подозревает, что это врачебная ошибка, и всерьез задумывается: кто же позаботится о его прекрасных жене, детях и бизнесе?.. И тут в его голову приходит мысль, что, как это ни прискорбно, кажется, пора подыскивать себе замену. • Качество » WEB-DL 720p• Формат » MKV• Видео кодек » AVC• Аудио кодек » AC3• Видео » AVC at MPEG-4 AVC, 2300 Кбит/с, 1280x720 at 25.000 fps• Аудио » Русский (AC-3/ 2 ch / 192 kbps / 48,0 КГц / 16 bit )

Бюджет: 75 000 000 руб.Сборы в России:$2 695 871 Дата мировой премьеры: 4 марта 2016Дата российской премьеры: 3 марта 2016, «Централ Партнершип»

ОбщееУникальный идентификатор : 224490476880761080962710374809026995813 (0xA8E34B0CE3F53F998B766D84B638A665)Полное имя : D:\8.Svidaniy.2016.O.720p.WEB-DL.mkvФормат : MatroskaВерсия формата : Version 4 / Version 2Размер файла : 1,62 ГбайтПродолжительность : 1 ч. 32 м.Общий поток : 2493 Кбит/секНазвание фильма : rustorrents.infoДата кодирования : UTC 2016-04-18 08:34:38Программа кодирования : mkvmerge v6.1.0 ('Old Devil') built on Mar 4 2013 09:10:42Библиотека кодирования : libebml v1.3.0 + libmatroska v1.4.0

ВидеоИдентификатор : 1Формат : AVCФормат/Информация : Advanced Video CodecПрофиль формата : [email protected]Параметр CABAC формата : ДаПараметр ReFrames формата : 8 кадровИдентификатор кодека : V_MPEG4/ISO/AVCПродолжительность : 1 ч. 32 м.Битрейт : 2300 Кбит/секШирина : 1280 пикселейВысота : 720 пикселейСоотношение сторон : 16:9Режим частоты кадров : ПостоянныйЧастота кадров : 25,000 кадров/секЦветовое пространство : YUVСубдискретизация насыщенности : 4:2:0Битовая глубина : 8 битТип развёртки : ПрогрессивнаяБит/(Пиксели*Кадры) : 0.100Размер потока : 1,46 Гбайт (90%)Библиотека кодирования : x264 core 130 r2273 b3065e6Настройки программы : cabac=1 / ref=8 / deblock=1:-1:-1 / analyse=0x3:0x133 / me=umh / subme=7 / psy=1 / psy_rd=1.00:0.10 / mixed_ref=1 / me_range=16 / chroma_me=1 / trellis=2 / 8x8dct=1 / cqm=0 / deadzone=21,11 / fast_pskip=0 / chroma_qp_offset=-3 / threads=12 / lookahead_threads=2 / sliced_threads=0 / nr=0 / decimate=1 / interlaced=0 / bluray_compat=0 / constrained_intra=0 / bframes=3 / b_pyramid=2 / b_adapt=2 / b_bias=0 / direct=3 / weightb=1 / open_gop=0 / weightp=2 / keyint=250 / keyint_min=25 / scenecut=40 / intra_refresh=0 / rc_lookahead=50 / rc=2pass / mbtree=1 / bitrate=2300 / ratetol=1.0 / qcomp=0.60 / qpmin=0 / qpmax=69 / qpstep=4 / cplxblur=20.0 / qblur=0.5 / ip_ratio=1.40 / aq=1:1.00Default : ДаForced : Нет

АудиоИдентификатор : 2Формат : AC-3Формат/Информация : Audio Coding 3Расширение режима : CM (complete main)Параметр Endianness формата : BigИдентификатор кодека : A_AC3Продолжительность : 1 ч. 32 м.Вид битрейта : ПостоянныйБитрейт : 192 Кбит/секКаналы : 2 каналаРасположение каналов : Front: L RЧастота : 48,0 КГцБитовая глубина : 16 битМетод сжатия : С потерямиРазмер потока : 128 Мбайт (8%)Default : ДаForced : Нет[/code]

Скачать 8 лучших свиданий через торрент http://i74.fastpic.ru/big/2015/1218/b5/c39d072d168dbcde95d1a17f670689b5.gif Скачать фильм 8 лучших свиданий через торрент бесплантно в хорошем качестве В ролях » Владимир Зеленский, Вера Брежнева, Владимир Епифанцев, Евгений Кошевой, Сергей Казанин, Нино Кантария, Виктор Щур, Мария Ивакова ... 2016-04-18 21:51 6.1 10 14

Loading...

Loading...

Рекламный пират

19-04-2016 02:38 8 лучших свиданий Скачать торрент  

автору спасибо за труды, но из-за зеленского качать не буду принципиально

19-04-2016 03:46 8 лучших свиданий Скачать торрент  

Спасибо заценим)

19-04-2016 04:10 8 лучших свиданий Скачать торрент  

bubaRP писал(а):

Спасибо заценим,Зеленский отличный комедийный актёр)

19-04-2016 04:48 8 лучших свиданий Скачать торрент  

crest96 писал(а):

автору спасибо за труды, но из-за зеленского качать не буду принципиально

Правильно,нечего спонсировать украинских фашистов

19-04-2016 05:52 8 лучших свиданий Скачать торрент  

В топку это .

19-04-2016 07:32 8 лучших свиданий Скачать торрент  

Isscariot писал(а):

crest96 писал(а):

автору спасибо за труды, но из-за зеленского качать не буду принципиально

Правильно,нечего спонсировать украинских фашистов+++

19-04-2016 07:34 8 лучших свиданий Скачать торрент  

Mans писал(а):

Isscariot писал(а):

crest96 писал(а):

автору спасибо за труды, но из-за зеленского качать не буду принципиально

Правильно,нечего спонсировать украинских фашистов+++++++++++++++++++++++++++++++++++++++++++++++++++++

19-04-2016 08:03 8 лучших свиданий Скачать торрент  

Isscariot писал(а):

crest96 писал(а):

автору спасибо за труды, но из-за зеленского качать не буду принципиально

Правильно,нечего спонсировать украинских фашистовА вы ниче не попутали ?ПО МОЕМУ РУССКИЕ ФАШИСТЫ ТОПЧУТ УКРАИНСКУЮ ЗЕМЛЮ.

Pекламный агент PB

19-04-2016 08:05 8 лучших свиданий Скачать торрент  

martinnecc1 писал(а):

Isscariot писал(а):

crest96 писал(а):

автору спасибо за труды, но из-за зеленского качать не буду принципиально

Правильно,нечего спонсировать украинских фашистовА вы ниче не попутали ?ПО МОЕМУ РУССКИЕ ФАШИСТЫ ТОПЧУТ УКРАИНСКУЮ ЗЕМЛЮ.ОБЬЯВИТЕ бойкот всем кто снимался в этом фильме и всем нацистам кто убивал в чечне чеченский народ.

19-04-2016 08:37 8 лучших свиданий Скачать торрент  

martinnecc1 писал(а):

Isscariot писал(а):

crest96 писал(а):

автору спасибо за труды, но из-за зеленского качать не буду принципиально

Правильно,нечего спонсировать украинских фашистовА вы ниче не попутали ?ПО МОЕМУ РУССКИЕ ФАШИСТЫ ТОПЧУТ УКРАИНСКУЮ ЗЕМЛЮ.А вот за такие слова я бы тебя тварь лично кастрировал!

19-04-2016 09:05 8 лучших свиданий Скачать торрент  

Зеленский не виноват что хохол или еврей нация чтоли?

19-04-2016 09:11 8 лучших свиданий Скачать торрент  

К стати чечен тоесть нохча ездил к ним гостепреимный народ но не с оружием

19-04-2016 09:15 8 лучших свиданий Скачать торрент  

А в Авган кто послал? сам писал добровольно служить там

Дорогой пользователь! Огромная просьба, поблагодарите релизера, оцените раздачу и оставьте свои комментарий, если Вы скачали 8 лучших свиданий через торрент бесплатно! Внесите свою лепту в развитие PiratBit!

Комментировать посты могут только пользователи прошедшие не сложную регистрацию

8 лучших свиданий через торрент Скачать бесплатно 8 лучших свиданий 8 лучших свиданий скачать торрент 8 лучших свиданий смотреть онлайн Cкачать фильм 8 лучших свиданий бесплатно 8 лучших свиданий скачать торрент в хорошем качестве 8 лучших свиданий смотреть онлайн бесплатно в хорошем качестве

Вы можете начинать темыВы можете отвечать на сообщенияВы не можете редактировать свои сообщенияВы не можете удалять свои сообщенияВы не можете голосовать в опросахВы не можете прикреплять файлы к сообщениямВы можете скачивать файлы

piratbit.ru

Скачать фильм 8 первых свиданий через торрент в хорошем качестве бесплатно BDRip-AVC

Размер: 1.45 GB | Добавлен: 5 лет 4 мес. назад | Торрент скачан:2193 раза
Реклама Дарим 3000 рублей за регистрацию, не упусти свой шанс получить шикарный бонус!!!

19-06-2012 22:12 8 первых свиданий Скачать торрент  

8 первых свиданий Год выпуска: 2012Страна: РоссияЖанр: мелодрама, комедияПродолжительность: 01:23:04Перевод: ОригиналРусские субтитры: нетРежиссер: Дэвид Додсон, Александр МаляревскийВ ролях: Оксана Акиньшина, Владимир Зеленский, Денис Никифоров, Екатерина Варнава, Светлана Ходченкова, Мария Кравцова, Олеся Железняк, Виктория Боня, Игорь Жижикин, Сосо ПавлиашвилиОписание: Вера - телезвезда, ее жених Константин — профессиональный теннисист. Они собираются пожениться. Никита (врач-ветеринар) и красавица-хирург Илона также спешат оформить отношения. Но одно прекрасное утро разрушает все планы. После веселого вечера Вера просыпается в одной постели с Никитой. Решив, что это - последствия слишком бурной вечеринки, молодые люди разъезжаются в разные стороны. Но следующим днем всё повторяется — Никита и Лера снова вместе, хотя каждый хорошо помнит, как они засыпали дома, каждый у себя. Так происходит всю следующую неделю. Какие-то таинственные силы устраивают эти неожиданные «свидания», кто-то хочет разрушить их браки, или, может быть, просто доказать, что они созданы друг для друга...Качество : BDRip-AVCФормат : MKVВидео кодек: x264Аудио кодек: AC3 Видео: x264, 976x408 (4:2:0), 24.000 fps, 2 108 Kbps (0.211 bit/pixel)Аудио: 48 kHz,AC3 , 6 ch, 384.00 kbps Скачать 8 первых свиданий через торрент http://pic.pb.wtf/images/1/856v5f5giy.png Скачать фильм 8 первых свиданий через торрент бесплантно в хорошем качестве Описание: Вера - телезвезда, ее жених Константин — теннисист. Они собираются пожениться. Никита (врач-ветеринар) и ... 2012-06-19 22:12 9.6 10 30

Loading...

Loading...

Рекламный пират

29-07-2013 14:50 8 первых свиданий Скачать торрент  

хороший фильм

Дорогой пользователь! Огромная просьба, поблагодарите релизера, оцените раздачу и оставьте свои комментарий, если Вы скачали 8 первых свиданий через торрент бесплатно! Внесите свою лепту в развитие PiratBit!

Комментировать посты могут только пользователи прошедшие не сложную регистрацию

8 первых свиданий через торрент Скачать бесплатно 8 первых свиданий 8 первых свиданий скачать торрент 8 первых свиданий смотреть онлайн Cкачать фильм 8 первых свиданий бесплатно 8 первых свиданий скачать торрент в хорошем качестве 8 первых свиданий смотреть онлайн бесплатно в хорошем качестве

Вы не можете начинать темыВы не можете отвечать на сообщенияВы не можете редактировать свои сообщенияВы не можете удалять свои сообщенияВы не можете голосовать в опросахВы не можете прикреплять файлы к сообщениямВы можете скачивать файлы

piratbit.ru


Смотрите также