Скачать фильм анатомия любви через торрент в хорошем качестве


Скачать фильм Анатомия любви (2014) через торрент

15 февраля 2016 12:29 Анатомия любви / Endless Love (2014) BDRip 720p от HQCLUB | Лицензия .torrent   [Информация о файле (нажмите для просмотра)] Перевод: Профессиональный (полное дублирование) + Оригинал (английский)Субтитры: русские (полные, форсированные), украинские (полные, форсированные), английские (полные, SDH, SDH-Colored)Формат: MKVКачество: BDRip 720p (источник / Blu-ray EUR / 1080p)Видео: 1280x544 (2.35:1), 23.976 fps, MPEG-4 AVC, ~7310 kbps avg, 0.438 bit/pixelАудио #1: 48 kHz, DTS, 3/2 (L,C,R,l,r) + LFE ch, ~768 kbps (DUB)Аудио #2: 48 kHz, DTS, 3/2 (L,C,R,l,r) + LFE ch, ~1509 kbps (ENG)Видео: Идентификатор : 1 Формат : AVC Формат/Информация : Advanced Video Codec Профиль формата : [email protected] Параметр CABAC формата : Да Параметр ReFrames формата : 10 кадров Идентификатор кодека : V_MPEG4/ISO/AVC Продолжительность : 1 ч. 44 м. Битрейт : 7310 Кбит/сек Ширина : 1280 пикселей Высота : 544 пикселя Соотношение сторон : 2,35:1 Режим частоты кадров : Постоянный Частота кадров : 23,976 кадра/сек Цветовое пространство : YUV Субдискретизация насыщенности : 4:2:0 Битовая глубина : 8 бит Тип развёртки : Прогрессивная Бит/(Пиксели*Кадры) : 0.438 Размер потока : 5,20 Гбайт (74%) Заголовок : Анатомия любви / Endless Love (2014) BDRip 720p by HQCLUB [Elheym] Библиотека кодирования : x264 core 142 r2479kMod dd79a61 Настройки программы : cabac=1 / ref=11 / deblock=1:-3:-2 / analyse=0x3:0x113 / me=umh / subme=11 / psy=1 / fade_compensate=0.00 / psy_rd=1.05:0.05 / mixed_ref=1 / me_range=32 / chroma_me=1 / trellis=2 / 8x8dct=1 / cqm=0 / deadzone=21,11 / fast_pskip=0 / chroma_qp_offset=-5 / threads=6 / lookahead_threads=1 / sliced_threads=0 / nr=0 / decimate=1 / interlaced=0 / bluray_compat=0 / constrained_intra=0 / fgo=0 / bframes=12 / b_pyramid=1 / b_adapt=2 / b_bias=0 / direct=3 / weightb=1 / open_gop=0 / weightp=2 / keyint=240 / keyint_min=23 / scenecut=40 / intra_refresh=0 / rc_lookahead=40 / rc=2pass / mbtree=0 / bitrate=7310 / ratetol=1.0 / qcomp=0.60 / qpmin=0 / qpmax=69 / qpstep=4 / cplxblur=20.0 / qblur=0.5 / vbv_maxrate=50000 / vbv_bufsize=62500 / nal_hrd=none / filler=0 / ip_ratio=1.40 / pb_ratio=1.30 / aq=3:0.90 Язык : English Default : Да Forced : НетАудио #1: Идентификатор : 2 Формат : DTS Формат/Информация : Digital Theater Systems Режим : 16 Параметр Endianness формата : Big Идентификатор кодека : A_DTS Продолжительность : 1 ч. 44 м. Вид битрейта : Постоянный Битрейт : 768 Кбит/сек Каналы : 6 каналов Расположение каналов : Front: L C R, Side: L R, LFE Частота : 48,0 КГц Битовая глубина : 24 бит Метод сжатия : С потерями Размер потока : 575 Мбайт (8%) Заголовок : DTS 5.1 @ 768 kbps - Dub, BD EUR Язык : Russian Default : Нет Forced : НетАудио #2: Идентификатор : 3 Формат : DTS Формат/Информация : Digital Theater Systems Режим : 16 Параметр Endianness формата : Big Идентификатор кодека : A_DTS Продолжительность : 1 ч. 44 м. Вид битрейта : Постоянный Битрейт : 1509 Кбит/сек Каналы : 6 каналов Расположение каналов : Front: L C R, Side: L R, LFE Частота : 48,0 КГц Битовая глубина : 24 бит Метод сжатия : С потерями Размер потока : 1,10 Гбайт (16%) Заголовок : DTS 5.1 @ 1509 kbps - Original Язык : English Default : Нет Forced : Нет 7,01 Gb 7 2 15 февраля 2016 12:29 Анатомия любви / Endless Love (2014) BDRip-AVC от HQCLUB | Лицензия .torrent   [Информация о файле (нажмите для просмотра)] Перевод: Профессиональный (полное дублирование) + Оригинал (английский)Субтитры: русские (полные, форсированные), английские (полные, SDH, SDH-Colored), украинские (полные, форсированные)Формат: MKVКачество: BDRip-AVC (источник / Blu-ray EUR / 1080p)Видео: 1024x436 (2.35:1), 23.976 fps, MPEG-4 AVC, ~2999 kbps avg, 0.280 bit/pixelАудио #1: 48 kHz, AC3 Dolby Digital, 3/2 (L,C,R,l,r) + LFE ch, ~448 kbps (DUB)Аудио #2: 48 kHz, AC3 Dolby Digital, 3/2 (L,C,R,l,r) + LFE ch, ~448 kbps (ENG)Видео: Идентификатор : 1 Формат : AVC Формат/Информация : Advanced Video Codec Профиль формата : [email protected] Параметр CABAC формата : Да Параметр ReFrames формата : 15 кадров Идентификатор кодека : V_MPEG4/ISO/AVC Продолжительность : 1 ч. 44 м. Битрейт : 2999 Кбит/сек Ширина : 1024 пикселя Высота : 436 пикселей Соотношение сторон : 2,35:1 Режим частоты кадров : Постоянный Частота кадров : 23,976 кадра/сек Цветовое пространство : YUV Субдискретизация насыщенности : 4:2:0 Битовая глубина : 8 бит Тип развёртки : Прогрессивная Бит/(Пиксели*Кадры) : 0.280 Размер потока : 2,13 Гбайт (75%) Заголовок : Анатомия любви / Endless Love (2014) BDRip-AVC by HQCLUB [Elheym] Библиотека кодирования : x264 core 142 r2453 ea0ca51 Настройки программы : cabac=1 / ref=15 / deblock=1:-2:-2 / analyse=0x3:0x113 / me=umh / subme=11 / psy=1 / psy_rd=1.05:0.07 / mixed_ref=1 / me_range=32 / chroma_me=1 / trellis=2 / 8x8dct=1 / cqm=0 / deadzone=21,11 / fast_pskip=1 / chroma_qp_offset=-5 / threads=6 / lookahead_threads=1 / sliced_threads=0 / nr=0 / decimate=1 / interlaced=0 / bluray_compat=0 / constrained_intra=0 / bframes=11 / b_pyramid=2 / b_adapt=2 / b_bias=0 / direct=3 / weightb=1 / open_gop=0 / weightp=2 / keyint=240 / keyint_min=23 / scenecut=40 / intra_refresh=0 / rc_lookahead=40 / rc=2pass / mbtree=1 / bitrate=2999 / ratetol=1.0 / qcomp=0.60 / qpmin=10 / qpmax=69 / qpstep=4 / cplxblur=20.0 / qblur=0.5 / vbv_maxrate=50000 / vbv_bufsize=62500 / nal_hrd=none / filler=0 / ip_ratio=1.40 / aq=1:0.90 Язык : English Default : Да Forced : НетАудио #1: Идентификатор : 2 Формат : AC-3 Формат/Информация : Audio Coding 3 Расширение режима : CM (complete main) Параметр Endianness формата : Big Идентификатор кодека : A_AC3 Продолжительность : 1 ч. 44 м. Вид битрейта : Постоянный Битрейт : 448 Кбит/сек Каналы : 6 каналов Расположение каналов : Front: L C R, Side: L R, LFE Частота : 48,0 КГц Битовая глубина : 16 бит Метод сжатия : С потерями Размер потока : 335 Мбайт (12%) Заголовок : АС3 5.1 @ 448 kbps - Dub, Blu-ray EUR Язык : Russian Default : Нет Forced : НетАудио #2: Идентификатор : 3 Формат : AC-3 Формат/Информация : Audio Coding 3 Расширение режима : CM (complete main) Параметр Endianness формата : Big Идентификатор кодека : A_AC3 Продолжительность : 1 ч. 44 м. Вид битрейта : Постоянный Битрейт : 448 Кбит/сек Каналы : 6 каналов Расположение каналов : Front: L C R, Side: L R, LFE Частота : 48,0 КГц Битовая глубина : 16 бит Метод сжатия : С потерями Размер потока : 335 Мбайт (12%) Заголовок : АС3 5.1 @ 448 kbps - Original Язык : English Default : Нет Forced : Нет 2,85 Gb 206 9 15 февраля 2016 12:29 Анатомия любви / Endless Love (2014) BDRip-AVC от Leo.pard and Scarabey | D | Лицензия .torrent   [Информация о файле (нажмите для просмотра)] Перевод: Профессиональный (дублированный) лицензияФормат: MKVВидео: x264, 816x344 (2.40:1), 921 Kbps, 23.976 fpsАудио: AAC, 72 Kbps, 48 KHz, 2 channelsСубтитры: Русские (Форсированные, полные), английские (Full, SDH) 744,32 Mb 21 4 15 февраля 2016 12:29 Анатомия любви / Endless Love (2014) BDRip 720p от Leonardo and Scarabey | Лицензия .torrent   [Информация о файле (нажмите для просмотра)] Перевод: Профессиональный (полное дублирование) ЛицензияФормат: MKVВидео кодек: MPEG-4 AVC Аудио кодек: AC3Видео: AVC, 1280x544 (2.35:1) at 23.976 fps, AVC at 3889 kbps avg, 0.233 bit/pixelАудио: Russian: 48 kHz; AC3 5.1; 448.00 kbps avg; профессиональный, полное дублированиеСубтитры: Русские, английские 3,23 Gb 49 2 15 февраля 2016 12:29 Анатомия любви / Endless Love (2014) BDRip 720p | Лицензия .torrent   [Информация о файле (нажмите для просмотра)] Перевод: Дублированный [Лицензия]Кодек: MPEG-4 AVCКачество: BDRip (720p)Видео: 6900 Кбит/с, 1280x544Звук: Русский (DTS, 6 ch, 768 Кбит/с), (AC3, 6 ch, 640 Кбит/с), английский (DTS, 6 ch, 1536 Кбит/с), (AC3, 2 ch, 192 Кбит/с)Субтитры: Русские, английские, украинские 7,31 Gb 14 1 15 февраля 2016 12:29 Анатомия любви / Endless Love (2014) BDRip от HQCLUB | Лицензия .torrent   [Информация о файле (нажмите для просмотра)] Перевод: Профессиональный (полное дублирование) + Оригинал (английский)Субтитры: русские (полные, форсированные), английские (обычные, SDH, SDH-Colored), украинские (полные, форсированные)Формат: AVIКачество: BDRip (источник:Видео: 720x304 (2.37:1), 23.976 fps, XviD build 65 ~2084 kbps avg, 0.40 bit/pixelАудио #1: 48 kHz, AC3 Dolby Digital, 3/2 (L,C,R,l,r) + LFE ch, ~448 kbps avg (RUS)Аудио #2: 48 kHz, AC3 Dolby Digital, 3/2 (L,C,R,l,r) + LFE ch, ~448 kbps avg (ENG) 2,18 Gb 31 2 15 февраля 2016 12:29 Анатомия любви / Endless Love (2014) HDRip от Scarabey | D | Лицензия .torrent   [Информация о файле (нажмите для просмотра)] Перевод: Профессиональный (полное дублирование) - ЛицензияКачество: HDRipФормат: AVIВидео: 720x304 (2.37:1), 23.976 fps, XviD build 50 ~1587 kbps avg, 0.30 bit/pixelАудио: 48 kHz, AC3 Dolby Digital, 3/2 (L,C,R,l,r) + LFE ch, ~448 kbps 1,49 Gb 111 11 15 февраля 2016 12:29 Анатомия любви / Endless Love (2014) BDRip-AVC от HELLYWOOD | Лицензия .torrent   [Информация о файле (нажмите для просмотра)] Перевод: Профессиональный (полное дублирование) [лицензия BD CEE]Субтитры: Русские (полные + форс.), английские (Full+ SDH + SDH-Colored)Качество: BDRip-AVCФормат: MKVВидео: х.264, 1040x442 (2.35:1), 23,976 fps, 2086 Кbps, 0.189 bit/pixelАудио#1: 48 kHz, AC3 Dolby Digital, 3/2 (L,C,R,l,r) + LFE ch, 448.00 kbps |RUSАудио#2: 48 kHz, AC3 Dolby Digital, 3/2 (L,C,R,l,r) + LFE ch, 448.00 kbps |ENG 2,18 Gb 15 5 15 февраля 2016 12:29 Анатомия любви / Endless Love (2014) BDRip 1080p | Лицензия .torrent   [Информация о файле (нажмите для просмотра)] Перевод: Профессиональный (полное дублирование) - ЛицензияКачество: BDRip 1080pФормат: MKVВидео: MPEG4/AVC, 1920х816 (2.35:1), 13.4 Мбит/сек, 23.976 кадра/секАудио 1: AC3, 6 каналов, 448 Кбит/сек |Лицензия | русскийАудио 2: DTS, 6 каналов, 768 Кбит/сек |Лицензия | русскийАудио 3: AC3, 6 каналов, 640 Кбит/сек |АнглийскийСубтитры: Русские (форс., полные), украинские, английские (полные, SDH)Видео: Идентификатор : 1 Формат : AVC Формат/Информация : Advanced Video Codec Профиль формата : [email protected] Параметр CABAC формата : Да Параметр ReFrames формата : 5 кадров Идентификатор кодека : V_MPEG4/ISO/AVC Продолжительность : 1 ч. 44 м. Битрейт : 13,4 Мбит/сек Ширина : 1920 пикселей Высота : 816 пикселей Соотношение сторон : 2,35:1 Режим частоты кадров : Постоянный Частота кадров : 23,976 кадра/сек Цветовое пространство : YUV Субдискретизация насыщенности : 4:2:0 Битовая глубина : 8 бит Тип развёртки : Прогрессивная Бит/(Пиксели*Кадры) : 0.356 Размер потока : 9,56 Гбайт (86%) Заголовок : CHD Библиотека кодирования : x264 core 138 r2356 a1d3d17 Настройки программы : cabac=1 / ref=5 / deblock=1:-3:-3 / analyse=0x3:0x113 / me=umh / subme=10 / psy=1 / psy_rd=1.00:0.05 / mixed_ref=1 / me_range=32 / chroma_me=1 / trellis=2 / 8x8dct=1 / cqm=0 / deadzone=21,11 / fast_pskip=0 / chroma_qp_offset=-2 / threads=18 / lookahead_threads=1 / sliced_threads=0 / nr=0 / decimate=1 / interlaced=0 / bluray_compat=0 / constrained_intra=0 / bframes=6 / b_pyramid=2 / b_adapt=2 / b_bias=0 / direct=3 / weightb=1 / open_gop=0 / weightp=2 / keyint=250 / keyint_min=23 / scenecut=40 / intra_refresh=0 / rc=2pass / mbtree=0 / bitrate=13386 / ratetol=1.0 / qcomp=0.70 / qpmin=0 / qpmax=69 / qpstep=4 / cplxblur=20.0 / qblur=0.5 / ip_ratio=1.40 / pb_ratio=1.30 / aq=2:0.90 Язык : English Default : Да Forced : Нет Аудио #1: Идентификатор : 2 Формат : AC-3 Формат/Информация : Audio Coding 3 Расширение режима : CM (complete main) Параметр Endianness формата : Big Идентификатор кодека : A_AC3 Продолжительность : 1 ч. 44 м. Вид битрейта : Постоянный Битрейт : 448 Кбит/сек Каналы : 6 каналов Расположение каналов : Front: L C R, Side: L R, LFE Частота : 48,0 КГц Битовая глубина : 16 бит Метод сжатия : С потерями Размер потока : 335 Мбайт (3%) Заголовок : Dub | Лицензия Язык : Russian Default : Да Forced : Нет Аудио #2: Идентификатор : 3 Формат : DTS Формат/Информация : Digital Theater Systems Режим : 16 Параметр Endianness формата : Big Идентификатор кодека : A_DTS Продолжительность : 1 ч. 44 м. Вид битрейта : Постоянный Битрейт : 768 Кбит/сек Каналы : 6 каналов Расположение каналов : Front: L C R, Side: L R, LFE Частота : 48,0 КГц Битовая глубина : 24 бит Метод сжатия : С потерями Размер потока : 575 Мбайт (5%) Заголовок : Dub | Лицензия Язык : Russian Default : Нет Forced : Нет Аудио #3: Идентификатор : 4 Формат : AC-3 Формат/Информация : Audio Coding 3 Расширение режима : CM (complete main) Параметр Endianness формата : Big Идентификатор кодека : A_AC3 Продолжительность : 1 ч. 44 м. Вид битрейта : Постоянный Битрейт : 640 Кбит/сек Каналы : 6 каналов Расположение каналов : Front: L C R, Side: L R, LFE Частота : 48,0 КГц Битовая глубина : 16 бит Метод сжатия : С потерями Размер потока : 479 Мбайт (4%) Заголовок : Eng Язык : English Default : Нет Forced : Нет 11,14 Gb 6 3 15 февраля 2016 12:29 Анатомия любви / Endless Love (2014) HDRip от Scarabey | D | Лицензия .torrent   [Информация о файле (нажмите для просмотра)] Перевод: Профессиональный (полное дублирование) - ЛицензияКачество: HDRipФормат: AVIВидео: 688x288 (2.39:1), 23.976 fps, XviD build 73 ~857 kbps avg, 0.18 bit/pixelАудио: 48 kHz, MPEG Layer 3, 2 ch, ~128.00 kbps avg 744,95 Mb 32 2 15 февраля 2016 12:29 Анатомия любви / Endless Love (2014) HDRip | D | Лицензия .torrent   [Информация о файле (нажмите для просмотра)] Перевод: Профессиональный (полное дублирование)Качество: HDRipФормат: AVIВидео: XviD, 1892 Кбит/с, 720x304Аудио: Русский, английский (AC3, 6 ch, 448 Кбит/с) 2,05 Gb 35 5 15 февраля 2016 12:29 Анатомия любви / Endless Love (2014) BDRip-AVC от RG WazZzuP| D | Лицензия .torrent   [Информация о файле (нажмите для просмотра)] Перевод: Дублированный Субтитры: Русские и АнглийскиеКачество: ВDRip-AVC(c BD-Remux 1080p)Формат: MKVВидео: 720x306 (2.35:1), 23.976 fps, x264 ~923 kbps avg, 0.175 bit/pixelАудио: 48 / 24,0 kHz, HE-AAC / LC, 2 ch, ~72 kbps avgВидео: Идентификатор : 1 Формат : AVC Формат/Информация : Advanced Video Codec Профиль формата : [email protected] Параметр CABAC формата : Да Параметр ReFrames формата : 12 кадров Идентификатор кодека : V_MPEG4/ISO/AVC Продолжительность : 1 ч. 44 м. Номинальный битрейт : 923 Кбит/сек Ширина : 720 пикселей Высота : 306 пикселей Соотношение сторон : 2,35:1 Режим частоты кадров : Постоянный Частота кадров : 23,976 кадра/сек Цветовое пространство : YUV Субдискретизация насыщенности : 4:2:0 Битовая глубина : 8 бит Тип развёртки : Прогрессивная Бит/(Пиксели*Кадры) : 0.175 Заголовок : by Tuco (RG WazZzuP) Библиотека кодирования : x264 core 130 r2273 b3065e6 Настройки программы : cabac=1 / ref=12 / deblock=1:-3:-2 / analyse=0x3:0x133 / me=umh / subme=11 / psy=1 / psy_rd=1.00:0.05 / mixed_ref=1 / me_range=32 / chroma_me=1 / trellis=2 / 8x8dct=1 / cqm=0 / deadzone=21,11 / fast_pskip=0 / chroma_qp_offset=-3 / threads=6 / lookahead_threads=1 / sliced_threads=0 / nr=0 / decimate=1 / interlaced=0 / bluray_compat=0 / constrained_intra=0 / bframes=16 / b_pyramid=2 / b_adapt=2 / b_bias=0 / direct=3 / weightb=1 / open_gop=0 / weightp=2 / keyint=240 / keyint_min=23 / scenecut=40 / intra_refresh=0 / rc_lookahead=90 / rc=2pass / mbtree=1 / bitrate=923 / ratetol=1.0 / qcomp=0.60 / qpmin=0 / qpmax=69 / qpstep=4 / cplxblur=20.0 / qblur=0.5 / ip_ratio=1.40 / aq=1:1.00 Default : Да Forced : НетАудио: Идентификатор : 2 Формат : AAC Формат/Информация : Advanced Audio Codec Профиль формата : HE-AAC / LC Идентификатор кодека : A_AAC Продолжительность : 1 ч. 44 м. Каналы : 2 канала Расположение каналов : Front: L R Частота : 48,0 КГц / 24,0 КГц Метод сжатия : С потерями Задержка видео : 31 мс. Заголовок : Лицензия Язык : Russian Default : Да Forced : Нет 746,38 Mb 5 2 15 февраля 2016 12:29 Анатомия любви / Endless Love (2014) BDRip-AVC от MediaClub | D | Лицензия .torrent   [Информация о файле (нажмите для просмотра)] Перевод: ДублированныйКачество: BDRip (AVC)Видео: MPEG-4 AVC, 2500 Кбит/с, 1024x436, 23.976 кадр/сАудио #1: Русский (AC3, 6 ch, 448 Кбит/с) / Дублированный (Лицензия)Аудио #2: Английский (AC3, 6 ch, 448 Кбит/с)Субтитры: Русские (форсированные, полные), английские (full, SDH)Видео: Идентификатор : 1 Формат : AVC Формат/Информация : Advanced Video Codec Профиль формата : [email protected] Параметр CABAC формата : Да Параметр ReFrames формата : 10 кадров Идентификатор кодека : V_MPEG4/ISO/AVC Продолжительность : 1 ч. 44 м. Битрейт : 2500 Кбит/сек Ширина : 1024 пикселя Высота : 436 пикселей Соотношение сторон : 2,35:1 Режим частоты кадров : Постоянный Частота кадров : 23,976 кадра/сек Цветовое пространство : YUV Субдискретизация насыщенности : 4:2:0 Битовая глубина : 8 бит Тип развёртки : Прогрессивная Бит/(Пиксели*Кадры) : 0.234 Размер потока : 1,78 Гбайт (72%) Заголовок : -=MediaClub-kaspr=- Библиотека кодирования : x264 core 142 r2431+42 c69a006 tMod [[email protected]:2:0 X86_64] Настройки программы : cabac=1 / ref=10 / deblock=1:-3:-3 / analyse=0x3:0x113 / me=umh / subme=11 / psy=1 / fade_compensate=0.00 / psy_rd=1.00:0.20 / mixed_ref=1 / me_range=32 / chroma_me=1 / trellis=2 / 8x8dct=1 / cqm=0 / deadzone=21,11 / fast_pskip=0 / chroma_qp_offset=-3 / threads=12 / lookahead_threads=3 / sliced_threads=0 / nr=0 / decimate=0 / interlaced=0 / bluray_compat=0 / constrained_intra=0 / fgo=0 / bframes=14 / b_pyramid=2 / b_adapt=2 / b_bias=0 / direct=3 / weightb=1 / open_gop=0 / weightp=2 / keyint=240 / keyint_min=23 / scenecut=40 / intra_refresh=0 / rc=2pass / mbtree=0 / bitrate=2500 / ratetol=1.0 / qcomp=0.60 / qpmin=0:0:0 / qpmax=69:69:69 / qpstep=4 / cplxblur=20.0 / qblur=0.5 / ip_ratio=1.40 / pb_ratio=1.30 / aq=4:0.80 / aq-sensitivity=10.00 / aq-factor=1.00:1.00:1.00 / aq2=0 / aq3=0 Default : Да Forced : ДаАудио #1: Идентификатор : 2 Формат : AC-3 Формат/Информация : Audio Coding 3 Расширение режима : CM (complete main) Параметр Endianness формата : Big Идентификатор кодека : A_AC3 Продолжительность : 1 ч. 44 м. Вид битрейта : Постоянный Битрейт : 448 Кбит/сек Каналы : 6 каналов Расположение каналов : Front: L C R, Side: L R, LFE Частота : 48,0 КГц Битовая глубина : 16 бит Метод сжатия : С потерями Размер потока : 335 Мбайт (13%) Заголовок : Dub Язык : Russian Default : Да Forced : ДаАудио #2: Идентификатор : 3 Формат : AC-3 Формат/Информация : Audio Coding 3 Расширение режима : CM (complete main) Параметр Endianness формата : Big Идентификатор кодека : A_AC3 Продолжительность : 1 ч. 44 м. Вид битрейта : Постоянный Битрейт : 448 Кбит/сек Каналы : 6 каналов Расположение каналов : Front: L C R, Side: L R, LFE Частота : 48,0 КГц Битовая глубина : 16 бит Метод сжатия : С потерями Размер потока : 335 Мбайт (13%) Язык : English Default : Нет Forced : Нет 2,48 Gb 10 4 15 февраля 2016 12:29 Анатомия любви / Endless Love (2014) BDRip-AVC от MediaClub | D | iTunes .torrent   [Информация о файле (нажмите для просмотра)] Перевод: ДублированныйКачество: BDRip (AVC)Видео: MPEG-4 AVC, 2500 Кбит/с, 1024x436, 23.976 кадр/сАудио #1: Русский (AC3, 6 ch, 384 Кбит/с) / Дублированный (iTunes)Аудио #2: Английский (AC3, 6 ch, 448 Кбит/с)Субтитры: Русские (форсированные, полные), английские (full, SDH)Видео: Идентификатор : 1 Формат : AVC Формат/Информация : Advanced Video Codec Профиль формата : [email protected] Параметр CABAC формата : Да Параметр ReFrames формата : 10 кадров Идентификатор кодека : V_MPEG4/ISO/AVC Продолжительность : 1 ч. 44 м. Битрейт : 2500 Кбит/сек Ширина : 1024 пикселя Высота : 436 пикселей Соотношение сторон : 2,35:1 Режим частоты кадров : Постоянный Частота кадров : 23,976 кадра/сек Цветовое пространство : YUV Субдискретизация насыщенности : 4:2:0 Битовая глубина : 8 бит Тип развёртки : Прогрессивная Бит/(Пиксели*Кадры) : 0.234 Размер потока : 1,78 Гбайт (73%) Заголовок : -=MediaClub-kaspr=- Библиотека кодирования : x264 core 142 r2431+42 c69a006 tMod [[email protected]:2:0 X86_64] Настройки программы : cabac=1 / ref=10 / deblock=1:-3:-3 / analyse=0x3:0x113 / me=umh / subme=11 / psy=1 / fade_compensate=0.00 / psy_rd=1.00:0.20 / mixed_ref=1 / me_range=32 / chroma_me=1 / trellis=2 / 8x8dct=1 / cqm=0 / deadzone=21,11 / fast_pskip=0 / chroma_qp_offset=-3 / threads=12 / lookahead_threads=3 / sliced_threads=0 / nr=0 / decimate=0 / interlaced=0 / bluray_compat=0 / constrained_intra=0 / fgo=0 / bframes=14 / b_pyramid=2 / b_adapt=2 / b_bias=0 / direct=3 / weightb=1 / open_gop=0 / weightp=2 / keyint=240 / keyint_min=23 / scenecut=40 / intra_refresh=0 / rc=2pass / mbtree=0 / bitrate=2500 / ratetol=1.0 / qcomp=0.60 / qpmin=0:0:0 / qpmax=69:69:69 / qpstep=4 / cplxblur=20.0 / qblur=0.5 / ip_ratio=1.40 / pb_ratio=1.30 / aq=4:0.80 / aq-sensitivity=10.00 / aq-factor=1.00:1.00:1.00 / aq2=0 / aq3=0 Default : Да Forced : ДаАудио #1: Идентификатор : 2 Формат : AC-3 Формат/Информация : Audio Coding 3 Расширение режима : CM (complete main) Параметр Endianness формата : Big Идентификатор кодека : A_AC3 Продолжительность : 1 ч. 44 м. Вид битрейта : Постоянный Битрейт : 384 Кбит/сек Каналы : 6 каналов Расположение каналов : Front: L C R, Side: L R, LFE Частота : 48,0 КГц Битовая глубина : 16 бит Метод сжатия : С потерями Размер потока : 287 Мбайт (12%) Заголовок : Dub Язык : Russian Default : Да Forced : ДаАудио #2: Идентификатор : 3 Формат : AC-3 Формат/Информация : Audio Coding 3 Расширение режима : CM (complete main) Параметр Endianness формата : Big Идентификатор кодека : A_AC3 Продолжительность : 1 ч. 44 м. Вид битрейта : Постоянный Битрейт : 448 Кбит/сек Каналы : 6 каналов Расположение каналов : Front: L C R, Side: L R, LFE Частота : 48,0 КГц Битовая глубина : 16 бит Метод сжатия : С потерями Размер потока : 335 Мбайт (13%) Язык : English Default : Нет Forced : Нет 2,43 Gb 6 4 15 февраля 2016 12:29 Анатомия любви / Endless Love (2014) BDRip-AVC от NNNB | iTunes .torrent   [Информация о файле (нажмите для просмотра)] Перевод: ДублированныйКачество: BDRip-AVC (исходник Blu-ray)Видео: 960x408, 2 150 Кбит/сек, 23.976 кадр/сек, AVC, x264, [email protected], 0.229 Бит/[Пиксели*Кадры], 2passАудио 1: AC3 5.1 48 kHz 384 kbps -Дублированный (iTunes)Аудио 2: AC3 5.1 48 kHz 448 kbps -EnglishСубтитры: English 2,18 Gb 1 3 15 февраля 2016 12:29 Анатомия любви / Endless Love (2014) BDRip 1080p | iTunes .torrent   [Информация о файле (нажмите для просмотра)] Перевод: Профессиональный (полное дублирование) - iTunesКачество: BDRip 1080pФормат: MKVВидео: MPEG4/AVC, 1920х816 (2.35:1), 13.4 Мбит/сек, 23.976 кадра/секАудио 1: AC3, 6 каналов, 384 Кбит/сек |iTunesАудио 2: AC3, 6 каналов, 640 Кбит/сек |АнглийскийСубтитры: Английские (Full, SDH)Видео: Идентификатор : 1 Формат : AVC Формат/Информация : Advanced Video Codec Профиль формата : [email protected] Параметр CABAC формата : Да Параметр ReFrames формата : 5 кадров Идентификатор кодека : V_MPEG4/ISO/AVC Продолжительность : 1 ч. 44 м. Битрейт : 13,4 Мбит/сек Ширина : 1920 пикселей Высота : 816 пикселей Соотношение сторон : 2,35:1 Режим частоты кадров : Постоянный Частота кадров : 23,976 кадра/сек Цветовое пространство : YUV Субдискретизация насыщенности : 4:2:0 Битовая глубина : 8 бит Тип развёртки : Прогрессивная Бит/(Пиксели*Кадры) : 0.356 Размер потока : 9,57 Гбайт (91%) Заголовок : CHD Библиотека кодирования : x264 core 138 r2356 a1d3d17 Настройки программы : cabac=1 / ref=5 / deblock=1:-3:-3 / analyse=0x3:0x113 / me=umh / subme=10 / psy=1 / psy_rd=1.00:0.05 / mixed_ref=1 / me_range=32 / chroma_me=1 / trellis=2 / 8x8dct=1 / cqm=0 / deadzone=21,11 / fast_pskip=0 / chroma_qp_offset=-2 / threads=18 / lookahead_threads=1 / sliced_threads=0 / nr=0 / decimate=1 / interlaced=0 / bluray_compat=0 / constrained_intra=0 / bframes=6 / b_pyramid=2 / b_adapt=2 / b_bias=0 / direct=3 / weightb=1 / open_gop=0 / weightp=2 / keyint=250 / keyint_min=23 / scenecut=40 / intra_refresh=0 / rc=2pass / mbtree=0 / bitrate=13386 / ratetol=1.0 / qcomp=0.70 / qpmin=0 / qpmax=69 / qpstep=4 / cplxblur=20.0 / qblur=0.5 / ip_ratio=1.40 / pb_ratio=1.30 / aq=2:0.90 Язык : English Default : Да Forced : Нет Аудио #1: Идентификатор : 2 Формат : AC-3 Формат/Информация : Audio Coding 3 Расширение режима : CM (complete main) Параметр Endianness формата : Big Идентификатор кодека : A_AC3 Продолжительность : 1 ч. 44 м. Вид битрейта : Постоянный Битрейт : 384 Кбит/сек Каналы : 6 каналов Расположение каналов : Front: L C R, Side: L R, LFE Частота : 48,0 КГц Битовая глубина : 16 бит Метод сжатия : С потерями Размер потока : 287 Мбайт (3%) Заголовок : iTunes Язык : Russian Default : Да Forced : Нет Аудио #2: Идентификатор : 3 Формат : AC-3 Формат/Информация : Audio Coding 3 Расширение режима : CM (complete main) Параметр Endianness формата : Big Идентификатор кодека : A_AC3 Продолжительность : 1 ч. 44 м. Вид битрейта : Постоянный Битрейт : 640 Кбит/сек Каналы : 6 каналов Расположение каналов : Front: L C R, Side: L R, LFE Частота : 48,0 КГц Битовая глубина : 16 бит Метод сжатия : С потерями Размер потока : 479 Мбайт (4%) Заголовок : Eng Язык : English Default : Нет Forced : Нет 10,53 Gb 8 3 15 февраля 2016 12:29 Анатомия любви / Endless Love (2014) BDRemux 1080p от HYPERHD | iTunes .torrent   [Информация о файле (нажмите для просмотра)] Качество: BDRemux 1080pКонтейнер: MKVВидео: MPEG-4 AVC Video / 32832 kbps / 1920x1080 / 23,976 fps / 16:9 / High Profile 4.1Аудио 1: Russian / AC3 / 5.1 / 48 kHz / 384 kbps / 16-bit | Dub iTunes RussiaАудио 2: English / DTS-HD MA / 5.1 / 48 kHz / 3660 kbps / 24-bit | OriginalАудио 3: English / AC3 / 2.0 / 48 kHz / 192 kbps / 16-bit | DescriрtionСубтитры: English (Full, SDH), French (Full), Spanish (Full) 26,67 Gb 12 4 15 февраля 2016 12:29 Анатомия любви / Endless Love (2014) HDRip-AVC | iTunes .torrent   [Информация о файле (нажмите для просмотра)] Качество: HDRip-AVCВидео: MPEG-4 AVC, 1485 Кбит/с, 720x304Аудио: AC3, 6 ch, 384 Кбит/с 1,36 Gb 33 5 15 февраля 2016 12:28 Анатомия любви / Endless Love (2014) BDRip 720p | iTunes .torrent   [Информация о файле (нажмите для просмотра)] Формат: MKVКачество: BDRip 720pВидео: 6900 kb/s, 1280x544Аудио: Russian: AC3, 384 kb/s (6 ch) / English: DTS, 1510 kb/s (6 ch)Субтитры: English 6,43 Gb 15 5 15 февраля 2016 12:28 Анатомия любви / Endless Love (2014) HDRip | iTunes .torrent   [Информация о файле (нажмите для просмотра)] Качество: HDRipФормат: AVI (XviD)Видео: 1963 kb/s, 720x304Аудио: Russian: AC3, 384 kb/s (6 ch) / English: AC3, 448 kb/s (6 ch) 2,05 Gb 66 7

gig-torrent.net

Анатомия любви / Endless Love скачать фильм торрент 2014 -

Коротко о фильме "Анатомия любви" - Он — далеко не ангел, высокий дерзкий парень, помешанный на тачках. Она — примерная ученица, белокурая красотка из богатой семьи. Их любовь под запретом, а потому вдвойне желанна. Страсть сжигает их дотла и бросает в бездну.

Анатомия любви

Оригинальное название Endless Love
Фильм выпущен: 2014
Страна (кинокомпания): США
Pежиссер: Шана Фест
Сценарий фильма: Шана Фест, Джошуа Сафран, Скотт Спенсер
Продюсер фильма: Памела Эбди, Стефани Сэвадж, Джош Шварц
Оператор: Эндрю Данн
Композитор: Кристоф Бек
Художники: Клэй А. Гриффит, Анджела Стойффер, Стэйси Баттат
Монтаж: Марианн Брэндон
Жанр фильма: драма, мелодрама
Премьера (мир): 12 февраля 2014
премьера (Pоссия): 6 марта 2014, UPI
продолжительность104 мин
В главных ролях:
Анна Энгер
Эмма Ригби
Дайо Окенайи
Риз Уэйкфилд
Роберт Патрик
Джоэли Ричардсон
Брюс Гринвуд
Габриэлла Уайлд
Алекс Петтифер
и другие ...

Трейлер фильма:

 

Фильм Анатомия любви / Endless Love скачать торрент - новинка кино 2014

Скачать файлы .torrent Анатомия любви (фильм)

на сайте Вы можете получить ссылку на торрент файлы или скачать сами торрент файлы, в которых находится информация о местонахождении фильмов, сериалов у пользователей.

В фильме "Анатомия любви" - между примерной девушкой и харизматичным юношей возникла любовная интрига вопреки запрету родителей



Параметры: 03.06.2014 HDRip от Scarabey | D | Лицензия, 1,49 Гб

Формат: HDRip, AVI, XviD, AC3, размер файла: 1,49 ГбВидео: 720x304, XviD - build 50 ~1587 Кбит/сАудио: AC3, 6 каналов, 448 Кбит/сПеревод (озвучивание): Профессиональный (полное дублирование) - Лицензия

Параметры: 21.05.2014 HDRip, 1,37 Гб -

Формат: HDRip, XviD, AC3, размер файла: 1,37 ГбВидео: 720x304, XviD - 1477 Кбит/сАудио: AC3, 6 каналов, 384 Кбит/сПеревод (озвучивание): Дублированный [iTunes]

Параметры: 21.05.2014 HDRip, 2,05 Гб -

Формат: HDRip, XviD, размер файла: 2,05 ГбВидео: 720x304, XviD - 1963 Кбит/сАудио: Русский / Английский: AC3, 6 каналов, 384 Кбит/сПеревод (озвучивание): Дублированный [iTunes]

Скачать Анатомия любви, Endless Love, фильм бесплатно скачать торрент, драма, мелодрама, новинка кино

 

hokit.ru

Скачать Анатомия любви через торрент

Категория: Фильмы 1419 0 Торрент добавлен: 23-04-2015 Рейтинг:

2014 / драма, мелодрама / 104 мин.Год выпуска: 2014Страна: СШАРежиссер: Шана Фест / Shana FesteВ ролях: Алекс Петтифер, Габриэлла Уайлд, Брюс Гринвуд, Джоэли Ричардсон, Роберт Патрик, Риз Уэйкфилд, Дайо Окенайи, Эмма Ригби, Анна Энгер, Фаббианн Терез

Этот парень хорош собой, дерзок и совершает весьма рискованные поступки, обожает тачки и хороших девочек. Она отличница из обеспеченной семьи, которую родители излишне оберегают от опасностей. Любовь этих подростков становится под запретом и от этого делается более желанной. Страсть заставляет их терять головы и прожигает их дотла.

Трейлер к фильму Анатомия любви

Анатомия любви скачать торрент

Качество: BDRemux 1080pКонтейнер: MKVВидео: MPEG-4 AVC Video / 32832 kbps / 1920x1080 / 23,976 fps / 16:9 / High Profile 4.1Аудио 1: Russian / AC3 / 5.1 / 48 kHz / 384 kbps / 16-bit | Dub iTunes RussiaПрофессиональное (дублированное)

26,67 Gb

Качество: BDRip 1080p Формат: MKV Видео: MPEG4/AVC, 1920х816 (2.35:1), 13.4 Мбит/сек, 23.976 кадра/сек Аудио 1: AC3, 6 каналов, 448 Кбит/сек | Лицензия | русскийПрофессиональный (полное дублирование)

11,14 Gb

Формат: MKVКачество: BDRip 720pВидео: 6900 kb/s, 1280x544Аудио: Russian: AC3, 384 kb/s (6 ch) / English: DTS, 1510 kb/s (6 ch), Дублированное [iTunes]

6,43 Gb

Качество: HDRipФормат: AVIВидео: 720x304 (2.37:1), 23.976 fps, XviD build 50 ~1587 kbps avg, 0.30 bit/pixelАудио: 48 kHz, AC3 Dolby Digital, 3/2 (L,C,R,l,r) + LFE ch, ~448 kbpsПрофессиональный (полное дублирование)

Вы находитесь на странице, где можете совершенно бесплатно скачать фильм Анатомия любви в хорошем качестве через торрент, в любом формате, который больше всего вам на данный момент подходит. Скачивание осуществляется через торрент, что означает максимально высокую скорость загрузки. Желаем Вам приятного просмотра!. Не забудь поделиться своими впечатлениями после того как посмотришь фильм Анатомия любви.

Информация Посетители, находящиеся в группе Гости, не могут оставлять комментарии к данной публикации.

psp-gu.ru

Анатомия любви / Endless Love (фильм, 2014) скачать торрент - Фильм Анатомия любви

Коротко о фильме "Анатомия любви" - Он — далеко не ангел, высокий дерзкий парень, помешанный на тачках. Она — примерная ученица, белокурая красотка из богатой семьи. Их любовь под запретом, а потому вдвойне желанна. Страсть сжигает их дотла и бросает в бездну.

Анатомия любви

Оригинальное название Endless Love
Фильм выпущен: 2014
Страна (кинокомпания): США
Pежиссер: Шана Фест
Сценарий фильма: Шана Фест, Джошуа Сафран, Скотт Спенсер
Продюсер фильма: Памела Эбди, Стефани Сэвадж, Джош Шварц
Оператор: Эндрю Данн
Композитор: Кристоф Бек
Художники: Клэй А. Гриффит, Анджела Стойффер, Стэйси Баттат
Монтаж: Марианн Брэндон
Жанр фильма: драма, мелодрама
Премьера (мир): 12 февраля 2014
премьера (Pоссия): 6 марта 2014, UPI
продолжительность104 мин
В главных ролях:
Анна Энгер
Эмма Ригби
Дайо Окенайи
Риз Уэйкфилд
Роберт Патрик
Джоэли Ричардсон
Брюс Гринвуд
Габриэлла Уайлд
Алекс Петтифер
и другие ...

Трейлер фильма:

 

Скачать фильм Анатомия любви / Endless Love - новинка кино 2014

В фильме "Анатомия любви" - между примерной девушкой и харизматичным юношей возникла любовная интрига вопреки запрету родителей

Скачать файлы .torrent Endless Love (фильм)

на сайте Вы можете получить ссылку на торрент файлы или скачать сами торрент файлы, в которых находится информация о местонахождении фильмов, сериалов у пользователей.

Ссылки убраны по требованию правообладателя.

 

hotkit.ru


Смотрите также