Скачать фильм автостопом по галактике через торрент в хорошем качестве


Автостопом по галактике через торрент

Размер: 1.53 GB | Добавлен: 6 лет 5 мес. назад | Торрент скачан:72 раза
Реклама Дарим 3000 рублей за регистрацию, не упусти свой шанс получить шикарный бонус!!!

27-04-2011 05:39 Автостопом по галактике Скачать торрент  

Автостопом по галактике / Hitchhiker's Guide to the Galaxy, The

Год выпуска: 2005Страна: США, ВеликобританияЖанр: фантастика, комедия, приключенияПродолжительность: 01:44:20Перевод: Авторский (одноголосый) Ю. Сербин

Режиссер: Гарт ДженнингсПродюссер: Гари Барбер, Роджер Бернбаум, Джонатан ГликманСценарий: Дуглас Адамс, Кэри Киркпатрик

Бюджет: $50 000 000Премьера в мире: 20 апреля 2005

PG

-Рекомендуется присутствие родителейМировой рейтинг IMDB 6.60 (66 301)

В ролях: Билл Бэйли, Мартин Фриман, Мос Деф, Сэм Рокуэлл, Зои Дешанель, Билл Найи, Уорвик Дэвис, Анна Чэнселлор, Алан Рикман, Хелен Миррен..

Описание: Конец света подкрался, э-э-э... заметно. В один прекрасный день над Землей нависли огромные звездолеты инопланетян, и людям объявили, что их родная планета подлежит сносу, а на ее месте будет проложено шикарное межзвездное шоссе. Н-да, не повезло человечеству. Кроме самого заурядного парня по имени Артур Дент, старый друг и собутыльник которого Форд Перфект оказался... замаскированным инопланетянином! Соавтор знаменитого путеводителя "Автостопом по Галактике", Форд не мог оставить того в беде и пригласил лишившегося дома приятеля составить ему компанию в странствиях по Вселенной. Ведь на свете так много странных, забавных и удивительных миров, еще не отмеченных в путеводителях и ждущих своих пытливых исследователей!.. Что такое "Автостопом по Галактике"? Это тираж в 15 000 000 000 экземпляров, многолетнее лидерство в списках бестселлеров и четыре успешных романа- продолжения! Четверть века мир ждал его киноадаптации, и вот шедевр иронической фантастики приходит к нам во всем великолепии отменных спецэффектов и, конечно, блеске неподражаемого английского юмора.

Доп. информация: Автору Rip-а- intellect - спасибо!Звуковая дорожка взята из DVD у _int_ - спасибо ему!

Качество: DVDRipФормат: AVIВидео кодек: XviDАудио кодек: AC3Видео: 704x304 (2.32:1), 25 fps, XviD build 47 ~1893 kbps avg, 0.35 bit/pixelАудио: 48 kHz, AC3 Dolby Digital, 2/0 (L,R) ch, ~192 kbps

Скачать Автостопом по галактике через торрент http://i20.fastpic.ru/big/2011/0427/0f/d26a23bb06fe7566da66241248a7320f.png Скачать фильм Автостопом по галактике через торрент бесплантно в хорошем качестве Описание: Конец света подкрался, э-э-э... заметно. В один прекрасный день над Землей нависли огромные звездолеты инопланетян, и людям ... 2011-04-27 05:39 10 10 1

Loading...

Loading...

Рекламный пират

27-04-2011 08:01 Автостопом по галактике Скачать торрент  

Юмор у англичан точно неподражаемый,тупой почти всегда,но тем не менее они снимают крутые фильмы,правда,иногда)))Автору спасибо,будем ценить))

Дорогой пользователь! Огромная просьба, поблагодарите релизера, оцените раздачу и оставьте свои комментарий, если Вы скачали Автостопом по галактике через торрент бесплатно! Внесите свою лепту в развитие PiratBit!

Комментировать посты могут только пользователи прошедшие не сложную регистрацию

Автостопом по галактике через торрент Скачать бесплатно Автостопом по галактике Автостопом по галактике скачать торрент Автостопом по галактике смотреть онлайн Cкачать фильм Автостопом по галактике бесплатно Автостопом по галактике скачать торрент в хорошем качестве Автостопом по галактике смотреть онлайн бесплатно в хорошем качестве

Вы не можете начинать темыВы не можете отвечать на сообщенияВы не можете редактировать свои сообщенияВы не можете удалять свои сообщенияВы не можете голосовать в опросахВы не можете прикреплять файлы к сообщениямВы можете скачивать файлы

piratbit.ru

Автостопом по галактике через торрент

Размер: 2.05 GB | Добавлен: 5 лет назад | Торрент скачан:487 раз
Реклама Дарим 3000 рублей за регистрацию, не упусти свой шанс получить шикарный бонус!!!

09-10-2012 19:42 Автостопом по галактике Скачать торрент  

Автостопом по галактике / The Hitchhiker's Guide to the Galaxy

Год выпуска: 2005Страна: СШАЖанр: фантастика, комедия, приключенияПродолжительность: 01:48:46Перевод: Дубляж + English

Режиссер: Гарт ДженнингсПродюссер: Гари Барбер, Роджер Бернбаум, Джонатан ГликманСценарий: Кэри Киркпатрик, Дуглас Адамс

Премьера в мире: 20 апреля 2005Премьера (РФ): 9 июня 2005Релиз на DVD: 14 июня 2011

Мировой рейтинг IMDB 6.70 (94 525)

В ролях: Билл Бэйли, Мартин Фриман, Мос Деф, Сэм Рокуэлл, Зои Дешанель, Билл Найи, Уорвик Дэвис, Анна Чэнселлор, Алан Рикман, Хелен Миррен, Анатолий Петров, Олег Куликович, Валерий Соловьев, Станислав Концевич, Светлана Репетина

Описание: В один прекрасный день над Землей нависли огромные звездолеты инопланетян, и людям объявили, что их родная планета подлежит сносу, а на ее месте будет проложено шикарное межзвездное шоссе. Н-да, не повезло человечеству. Кроме самого заурядного парня по имени Артур Дент, старый друг и собутыльник которого Форд Префект оказался... инопланетянином!

Качество: HDRipФормат: AVIВидео кодек: XviDАудио кодек: AC3Видео: 720x304 (2.37:1), 23.976 fps, XviD build 64 ~1927 kbps avg, 0.37 bit/pixelАудио#1: 48 kHz, AC3 Dolby Digital, 3/2 (L,C,R,l,r) + LFE ch, ~384 kbps |Russian|Аудио#2: 48 kHz, AC3 Dolby Digital, 3/2 (L,C,R,l,r) + LFE ch, ~384 kbps |English |

Формат : AVIФормат/Информация : Audio Video InterleaveПрофиль формата : OpenDMLРазмер файла : 2,05 ГбайтПродолжительность : 1 ч. 48 м.Общий поток : 2702 Кбит/секНазвание фильма : Автостопом по галактикеЖанр : фантастика, комедияПрограмма кодирования : VirtualDubMod 1.5.10.3 (build 2550/release)Формат оригинала/Имя : КиноПримечание : Rip от кэп

ВидеоИдентификатор : 0Формат : MPEG-4 VisualПрофиль формата : Advanced [email protected]Параметр BVOP формата : НетПараметр QPel формата : НетПараметр GMC формата : Без точки переходаПараметр матрицы формата : Default (MPEG)Идентификатор кодека : XVIDИдентификатор кодека/Подсказка : XviDПродолжительность : 1 ч. 48 м.Битрейт : 1922 Кбит/секШирина : 720 пикселейВысота : 304 пикселяСоотношение сторон : 2,40:1Частота кадров : 23,976 кадра/секЦветовое пространство : YUVСубдискретизация насыщенности : 4:2:0Битовая глубина : 8 битТип развёртки : ПрогрессивнаяМетод сжатия : С потерямиБит/(Пиксели*Кадры) : 0.366Размер потока : 1,46 Гбайт (71%)Библиотека кодирования : XviD 64

Аудио #1Идентификатор : 1Формат : AC-3Формат/Информация : Audio Coding 3Расширение режима : CM (complete main)Параметр Endianness формата : BigИдентификатор кодека : 2000Продолжительность : 1 ч. 48 м.Вид битрейта : ПостоянныйБитрейт : 384 Кбит/секКаналы : 6 каналовРасположение каналов : Front: L C R, Side: L R, LFEЧастота : 48,0 КГцБитовая глубина : 16 битМетод сжатия : С потерямиРазмер потока : 299 Мбайт (14%)Выравнивание : Разделение по промежуткамПродолжительность промежутка : 80 мс. (1,92 видеокадра)Время предзагрузки промежутка : 560 мс.

Аудио #2Идентификатор : 2Формат : AC-3Формат/Информация : Audio Coding 3Расширение режима : CM (complete main)Параметр Endianness формата : BigИдентификатор кодека : 2000Продолжительность : 1 ч. 48 м.Вид битрейта : ПостоянныйБитрейт : 384 Кбит/секКаналы : 6 каналовРасположение каналов : Front: L C R, Side: L R, LFEЧастота : 48,0 КГцБитовая глубина : 16 битМетод сжатия : С потерямиРазмер потока : 299 Мбайт (14%)Выравнивание : Разделение по промежуткамПродолжительность промежутка : 80 мс. (1,92 видеокадра)Время предзагрузки промежутка : 560 мс.

Скачать Автостопом по галактике через торрент http://img255.imageshack.us/img255/9052/95834699.png Скачать фильм Автостопом по галактике через торрент бесплантно в хорошем качестве Описание: В один прекрасный день над Землей нависли огромные звездолеты инопланетян, и людям объявили, что их родная планета подлежит ... 2012-10-09 19:42 10 10 11

Loading...

Loading...

Рекламный пират

Дорогой пользователь! Огромная просьба, поблагодарите релизера, оцените раздачу и оставьте свои комментарий, если Вы скачали Автостопом по галактике через торрент бесплатно! Внесите свою лепту в развитие PiratBit!

Комментировать посты могут только пользователи прошедшие не сложную регистрацию

Автостопом по галактике через торрент Скачать бесплатно Автостопом по галактике Автостопом по галактике скачать торрент Автостопом по галактике смотреть онлайн Cкачать фильм Автостопом по галактике бесплатно Автостопом по галактике скачать торрент в хорошем качестве Автостопом по галактике смотреть онлайн бесплатно в хорошем качестве

Вы не можете начинать темыВы не можете отвечать на сообщенияВы не можете редактировать свои сообщенияВы не можете удалять свои сообщенияВы не можете голосовать в опросахВы не можете прикреплять файлы к сообщениямВы можете скачивать файлы

piratbit.ru

Автостопом по галактике через торрент

Размер: 8.14 GB | Добавлен: 4 года 1 мес. назад | Торрент скачан:152 раза
Реклама Дарим 3000 рублей за регистрацию, не упусти свой шанс получить шикарный бонус!!!

28-08-2013 08:03 Автостопом по галактике Скачать торрент  

Автостопом по галактике / The Hitchhiker's Guide to the Galaxy

Год выпуска: 2005Страна: США, ВеликобританияЖанр: фантастика, семейный, комедия, приключения,Перевод: Профессиональный (полное дублирование)Двухголосый закадровый, Tycoon-studioАвторский: Сербин Юрий, Визгунов Сергей, Королёв ВладимирСубтитры: русские (полные (R5, Tycoon), форсированные, на комментарии), английские

Режиссер: Гарт Дженнингс / Garth Jennings

Бюджет: $50 000 000

Релиз от:

В ролях: Билл Бэйли (The Whale, озвучка), Мартин Фриман (Arthur Dent), Мос Деф (Ford Prefect), Сэм Рокуэлл (Zaphod Beeblebrox), Зои Дешанель (Trillian), Билл Найи (Slartibartfast), Уорвик Дэвис (Marvin), Анна Чэнселлор (Questular Rontok), Алан Рикман (Marvin, озвучка), Хелен Миррен (Deep Thought, озвучка), Стивен Фрай (рассказчик / The Guide, озвучка), Саймон Джонс (Ghostly Image), Джон Малкович (Humma Kavula),

Описание: В один прекрасный день над Землей нависли огромные звездолеты инопланетян, и людям объявили, что их родная планета подлежит сносу, а на ее месте будет проложено шикарное межзвездное шоссе. Н-да, не повезло человечеству. Кроме самого заурядного парня по имени Артур Дент, старый друг и собутыльник которого Форд Префект оказался… инопланетянином!

В 2003 году в составленном BBC списке лучших книг роман Дугласа Адамса «The Hitchhiker’s Guide to the Galaxy» занял четвёртое место, уступив лишь «Властелину колец» Джона Р. Р. Толкина, «Гордости и предубеждению» Джейн Остин и «Тёмным началам» Филипа Пуллмана. Если даже учесть, что все эти списки и опросы вещь достаточно условная и относительная, всё равно сей факт невозможно оставить без внимания, и можно с уверенностью заявить, что произведение представляет немалое значение для современной английской культуры. Действительно, «Автостопом по Галактике» (именно такой перевод оригинального названия книги более всего известен российскому читателю) является весьма любопытным сочинением, которое запоминается не только своим неповторимо весёлым стилем изложения, но и при этом остаётся научно-фантастическим по своей сути и полным самых разнообразных толковых идей. Разумеется, кинематографисты не могли пройти мимо него...

Качество: BDRip 720pФормат: MKVВидео кодек:AVCАудио кодек: AC3Видео: 1280x534 at 23.976 fps, [email protected], crf, ~7366 kbps avgАудио#1: Russian: 48 kHz, AC3, 3/2 (L,C,R,l,r) + LFE ch, ~384 kbps avg |Дубляж, Невафильм|Аудио#2: Russian: 48 kHz, AC3, 3/2 (L,C,R,l,r) + LFE ch, ~448 kbps avg |Двухголосый закадровый, Tycoon-studio|Аудио#3: Russian: 48 kHz, AC3, 3/2 (L,C,R,l,r) + LFE ch, ~640 kbps avg |Одноголосый закадровый, Ю.Сербин|Аудио#4: Russian: 48 kHz, AC3, 3/2 (L,C,R,l,r) + LFE ch, ~640 kbps avg |Одноголосый закадровый, В.Королёв|Аудио#5: Russian: 48 kHz, AC3, 2/0 (L,R) ch, ~192 kbps avg |Одноголосый закадровый, С.Визгунов|Аудио#6: English: 48 kHz, AC3, 3/2 (L,C,R,l,r) + LFE ch, ~640 kbps avg Аудио#7: English: 48 kHz, AC3, 1/0 (C) ch, ~96 kbps avg |Commentary with M.FreemanB.NighyN.GoldsmithG.Jennings|Аудио#8: English: 48 kHz, AC3, 1/0 (C) ch, ~96 kbps avg |Commentary with R.StampS.Solle|

E:киноАвтостопом по галактикеThe.Hitchhikers.Guide.to.the.Galaxy.2005.BDRip.720p.5xRUS.ENG.HDCLUB-Rudolpho.mkvGeneralUnique ID : 171368048690015332310906897910148263792 (0x80EC49203FBFF4528CBAED134F866F70)Complete name : E:киноАвтостопом по галактикеThe.Hitchhikers.Guide.to.the.Galaxy.2005.BDRip.720p.5xRUS.ENG.HDCLUB-Rudolpho.mkvFormat : MatroskaFormat version : Version 2File size : 8.14 GiBDuration : 1h 48mnOverall bit rate : 10.7 MbpsEncoded date : UTC 2012-10-03 16:00:22Writing application : mkvmerge v5.7.0 ('The Whirlwind') built on Jul 8 2012 20:08:51Writing library : libebml v1.2.3 + libmatroska v1.3.0Video #1ID : 1Format : AVCFormat/Info : Advanced Video CodecFormat profile : [email protected] settings, CABAC : YesFormat settings, ReFrames : 11 framesCodec ID : V_MPEG4/ISO/AVCDuration : 1h 48mnBit rate : 7 367 KbpsWidth : 1 280 pixelsHeight : 534 pixelsDisplay aspect ratio : 2.40:1Frame rate mode : ConstantFrame rate : 23.976 fpsColor space : YUVChroma subsampling : 4:2:0Bit depth : 8 bitsScan type : ProgressiveBits/(Pixel*Frame) : 0.450Stream size : 5.60 GiB (69%)Writing library : x264 core 125 r2208kMod d9d2288Encoding settings : cabac=1 / ref=11 / deblock=1:-3:-2 / analyse=0x3:0x113 / me=umh / subme=11 / psy=1 / fade_compensate=0.00 / psy_rd=1.30:0.15 / mixed_ref=1 / me_range=48 / chroma_me=1 / trellis=2 / 8x8dct=1 / cqm=0 / deadzone=21,11 / fast_pskip=1 / chroma_qp_offset=-3 / threads=3 / lookahead_threads=1 / sliced_threads=0 / nr=0 / decimate=0 / interlaced=0 / bluray_compat=0 / constrained_intra=0 / bframes=12 / b_pyramid=2 / b_adapt=2 / b_bias=0 / direct=1 / weightb=1 / open_gop=0 / weightp=2 / keyint=250 / keyint_min=23 / scenecut=40 / intra_refresh=0 / rc=crf / mbtree=0 / crf=17.3000 / qcomp=0.60 / qpmin=0 / qpmax=69 / qpstep=4 / ip_ratio=1.40 / pb_ratio=1.25 / aq=1:0.85Language : EnglishDefault : YesForced : NoAudio #2ID : 2Format : AC-3Format/Info : Audio Coding 3Mode extension : CM (complete main)Format settings, Endianness : BigCodec ID : A_AC3Duration : 1h 48mnBit rate mode : ConstantBit rate : 384 KbpsChannel(s) : 6 channelsChannel positions : Front: L C R, Side: L R, LFESampling rate : 48.0 KHzBit depth : 16 bitsCompression mode : LossyStream size : 299 MiB (4%)Title : Dub (NevaFilm)Language : RussianDefault : YesForced : NoAudio #3ID : 3Format : AC-3Format/Info : Audio Coding 3Mode extension : CM (complete main)Format settings, Endianness : BigCodec ID : A_AC3Duration : 1h 48mnBit rate mode : ConstantBit rate : 448 KbpsChannel(s) : 6 channelsChannel positions : Front: L C R, Side: L R, LFESampling rate : 48.0 KHzBit depth : 16 bitsCompression mode : LossyStream size : 349 MiB (4%)Title : DVO (Tycoon-studio)Language : RussianDefault : NoForced : NoAudio #4ID : 4Format : AC-3Format/Info : Audio Coding 3Mode extension : CM (complete main)Format settings, Endianness : BigCodec ID : A_AC3Duration : 1h 48mnBit rate mode : ConstantBit rate : 640 KbpsChannel(s) : 6 channelsChannel positions : Front: L C R, Side: L R, LFESampling rate : 48.0 KHzBit depth : 16 bitsCompression mode : LossyStream size : 498 MiB (6%)Title : AVO (Serbin)Language : RussianDefault : NoForced : NoAudio #5ID : 5Format : AC-3Format/Info : Audio Coding 3Mode extension : CM (complete main)Format settings, Endianness : BigCodec ID : A_AC3Duration : 1h 48mnBit rate mode : ConstantBit rate : 640 KbpsChannel(s) : 6 channelsChannel positions : Front: L C R, Side: L R, LFESampling rate : 48.0 KHzBit depth : 16 bitsCompression mode : LossyStream size : 498 MiB (6%)Title : AVO (Korolev)Language : RussianDefault : NoForced : NoAudio #6ID : 6Format : AC-3Format/Info : Audio Coding 3Mode extension : CM (complete main)Format settings, Endianness : BigCodec ID : A_AC3Duration : 1h 48mnBit rate mode : ConstantBit rate : 192 KbpsChannel(s) : 2 channelsChannel positions : Front: L RSampling rate : 48.0 KHzBit depth : 16 bitsCompression mode : LossyStream size : 149 MiB (2%)Title : AVO (Vizgunov)Language : RussianDefault : NoForced : NoAudio #7ID : 7Format : AC-3Format/Info : Audio Coding 3Mode extension : CM (complete main)Format settings, Endianness : BigCodec ID : A_AC3Duration : 1h 48mnBit rate mode : ConstantBit rate : 640 KbpsChannel(s) : 6 channelsChannel positions : Front: L C R, Side: L R, LFESampling rate : 48.0 KHzBit depth : 16 bitsCompression mode : LossyStream size : 498 MiB (6%)Title : OriginalLanguage : EnglishDefault : NoForced : NoAudio #8ID : 8Format : AC-3Format/Info : Audio Coding 3Mode extension : CM (complete main)Format settings, Endianness : BigCodec ID : A_AC3Duration : 1h 48mnBit rate mode : ConstantBit rate : 96.0 KbpsChannel(s) : 1 channelChannel positions : Front: CSampling rate : 48.0 KHzBit depth : 16 bitsCompression mode : LossyStream size : 74.7 MiB (1%)Title : Commentary with M.FreemanB.NighyN.GoldsmithG.JenningsLanguage : EnglishDefault : NoForced : NoAudio #9ID : 9Format : AC-3Format/Info : Audio Coding 3Mode extension : CM (complete main)Format settings, Endianness : BigCodec ID : A_AC3Duration : 1h 48mnBit rate mode : ConstantBit rate : 96.0 KbpsChannel(s) : 1 channelChannel positions : Front: CSampling rate : 48.0 KHzBit depth : 16 bitsCompression mode : LossyStream size : 74.7 MiB (1%)Title : Commentary with R.StampS.SolleLanguage : EnglishDefault : NoForced : NoText #10ID : 10Format : UTF-8Codec ID : S_TEXT/UTF8Codec ID/Info : UTF-8 Plain TextTitle : R5Language : RussianDefault : NoForced : NoText #11ID : 11Format : UTF-8Codec ID : S_TEXT/UTF8Codec ID/Info : UTF-8 Plain TextTitle : TycoonLanguage : RussianDefault : NoForced : NoText #12ID : 12Format : UTF-8Codec ID : S_TEXT/UTF8Codec ID/Info : UTF-8 Plain TextTitle : forced (Korolev, Vizgunov)Language : RussianDefault : NoForced : NoText #13ID : 13Format : UTF-8Codec ID : S_TEXT/UTF8Codec ID/Info : UTF-8 Plain TextLanguage : EnglishDefault : NoForced : NoText #14ID : 14Format : UTF-8Codec ID : S_TEXT/UTF8Codec ID/Info : UTF-8 Plain TextTitle : Commentary with M.FreemanB.NighyN.GoldsmithG.JenningsLanguage : RussianDefault : NoForced : NoText #15ID : 15Format : UTF-8Codec ID : S_TEXT/UTF8Codec ID/Info : UTF-8 Plain TextTitle : Commentary with R.StampS.SolleLanguage : RussianDefault : NoForced : NoMenu00:00:00.000 : en:So Long, And Thanks For All The Fish00:03:53.232 : en:Arthur Dent00:06:46.781 : en:The World is about to end00:12:57.485 : en:Demolition00:14:33.247 : en:The Hitchhiker's Guide To The Galaxy00:18:34.696 : en:Vogons00:25:41.331 : en:Space is big, really big!00:30:17.273 : en:The Heart of Gold00:34:33.321 : en:Escaping the Vogons00:40:10.950 : en:The Magrathean Legend00:43:55.633 : en:The Infinite Improbability Drive00:48:41.668 : en:You know why I'm here00:52:33.984 : en:Fire upon the Kidnappers00:56:34.766 : en:Planet Vogsphere01:01:03.826 : en:Where is she?01:06:15.888 : en:Who are we waiting for?01:10:18.797 : en:The Planet of Magrathea01:14:01.979 : en:A Sperm Whale & A Bowl Of Petunias01:18:38.630 : en:Slartibartfast01:23:06.356 : en:Deep Thought01:26:01.447 : en:The "Point Of View" gun01:30:46.315 : en:Back home01:35:49.785 : en:The Vogon Army01:41:53.816 : en:End Credits01:48:46.269 : en:End

Автостопом по галактике скачать торрент

Скачать Автостопом по галактике через торрент http://pic.pb.wtf/images/3/7u851zskyp.png Скачать фильм Автостопом по галактике через торрент бесплантно в хорошем качестве Описание: В один прекрасный день над Землей нависли огромные звездолеты инопланетян, и людям объявили, что их родная планета подлежит ... 2013-08-28 08:03 9.2 10 13

Loading...

Loading...

Рекламный пират

04-09-2013 03:26 Автостопом по галактике Скачать торрент  

Редкостное фуфло. Скачал только потому что читал книгу, оказывается зря. Экранизация никакая. :negative:

25-10-2014 17:39 Автостопом по галактике Скачать торрент  

Супер фильм!!! Смотрел уже раз 100, не меньше! И продолжаю пересматривать. Фильм классный, надо просто понять его.

28-10-2014 17:55 Автостопом по галактике Скачать торрент  

Rushx писал(а):

Редкостное фуфло. Скачал только потому что читал книгу, оказывается зря. Экранизация никакая. :negative:

Экранизация почти полностью соответствует книге...может быть вы книгу не читали?Я читала и не только ...достался в детстве очень плохой экземпляр, без оглавления и обложек... перештопала.... подклеила и только через пять лет узнала о том ...кто это написал:)

01-11-2014 20:18 Автостопом по галактике Скачать торрент  

Книгу не читал, но фильм весьма годный.Не знаю, чем он вызывает ненависть... Интересный, смешной, фантастический, приключенческий) отличные актеры, обстановка. Да и вообще, фильм, который хочется пересматривать.

Дорогой пользователь! Огромная просьба, поблагодарите релизера, оцените раздачу и оставьте свои комментарий, если Вы скачали Автостопом по галактике через торрент бесплатно! Внесите свою лепту в развитие PiratBit!

Комментировать посты могут только пользователи прошедшие не сложную регистрацию

Автостопом по галактике через торрент Скачать бесплатно Автостопом по галактике Автостопом по галактике скачать торрент Автостопом по галактике смотреть онлайн Cкачать фильм Автостопом по галактике бесплатно Автостопом по галактике скачать торрент в хорошем качестве Автостопом по галактике смотреть онлайн бесплатно в хорошем качестве

Вы не можете начинать темыВы не можете отвечать на сообщенияВы не можете редактировать свои сообщенияВы не можете удалять свои сообщенияВы не можете голосовать в опросахВы не можете прикреплять файлы к сообщениямВы можете скачивать файлы

piratbit.ru

Автостопом по галактике через торрент

Дело в том, что я очень люблю книги Адамса. Я впервые купил Hitchhiker's Guide в 1980м году - в первом карманном издании Pan Books 1979 года, в Доме Книги на Арбате, среди других 3 или 4х неизвестных мне книг. Тогда на английском почти ничего не было, кроме ветхой классики, и выбор книг был именно таким - мы просто выбирали что поновее. Попутно заметим, Адамсу в момент выхода книги было 27 лет, и она уже была написана по мотивам суперуспешного радиоспектакля BBC - кажется, ему было 24, когда он написал первый текст. Возьмём это на заметку.

Тогда я мало что понял, если честно, и даже на следующий год подарил эту книжку своему другу на день рождения. А ещё через пару лет спохватился, и мне повезло - в знаменитой букинистике на Качалова, ныне Малой Никитской, я перехватил то же самое издание, которое до сих пор со мной. Интересно, что книга была реально дорогой - за 160 страниц даже в букинистике драли семь с полтиной, при восьми тридцати за новую, в то время как любой толстый роман Диккенса (английского карманного издания) стоил от силы рубля три)) Но это так, к слову. А вот факт, что с этого второго контакта началась любовь. За два года я гораздо лучше освоил язык и главное, стал его ЧУВСТВОВАТЬ. Я хохотал так, что не мог остановиться. Это была такая правда о жизни и о людях, что я терялся - в СССР никто ничего такого сказать не мог. Но и цензура явно была не в состоянии это отследить и запретить, слишком глубоко. И на этом всё - Адамс стал для меня культовым автором, который всегда мог поднять настроение и заставить думать, как никто другой.

Мало того, я постепенно обнаружил, что есть часть человечества, которая любит и понимает Адамса, а есть - другие. И если человек, не знавший раньше Хичхайкера, заводится и радуется, то это о хорошем говорит. Обратное не обязательно говорит о плохом, поймите правильно, но меня стали радовать люди, которые понимают. "Мне приснилось небо Лондона" и так далее - я не знаю, читала Земфира So Long, And Thanks For All The Fish, но я хочу верить, что либо читала, либо просто думала так же и о том же. Так много начинает пересекаться, когда есть куда смотреть..

Адамс однажды играл на концерте Pink Floyd. Гилмор вывел его на сцену реально играть в составе, на одну или две песни, без объявления, без шума, а как друг. Pink Floyd, не гаражный бэнд. Вы знаете об этом?!))) Удивительный был человек.........удивительный..........

Постепенно я собрал всё, что он написал, включая CD-сборник того самого радиоспектакля ВВС, с которого всё началось. Когда в России вышли переводы, которые поразили меня своей неадекватностью и по сути дела убили этот цикл, на долгие годы, я не выдержал и написал об этом Дагласу. Это было в очень ранние годы имейла, когда это была ещё очень персональная и узкая среда - но к моему огромному удивлению, Адамс ответил. Он был расстроен, поскольку права были уже проданы на много лет вперёд, изменить было ничего нельзя, то же подтвердил и его агент Эд Виктор. Я даже не знаю, тот ли самый перевод издаётся теперь, но...того, первого, лучше бы и не было.

Когда пришло известие о смерти Адамса - в 49 лет! – это был шок. Наверное, что-то такое я испытал только в декабре 80го, когда тот урод убил Леннона. Вторая волна пришла, когда я купил и прочел The Salmon of Doubt, посмертный сборник всего неизданного и недоизданного, что нашлось в его компьютере. Как много всего могло ещё быть, чего уже никогда не будет.

Третья волна пришла с выходом этого фильма. Самый многострадальный проект в истории кино. Проклятие Адамса.

Достаточно сказать, что (только Диснеем в реальном производстве) он снимался четыре года при жизни Дагласа и четыре года после, причем его прижизненный сценарий был беспощадно изменен после смерти. За это время фильм сменил минимум двух режиссеров, не считая актёров. Настоящая история этого кино - большой конфуз и в каком-то смысле трагедия.

Даглас был бы рад его выходу, после всех этих лет, - но вряд ли одобрил бы конечный продукт.

История фильма началась ещё году в 82м, когда Адамс продал права на экранизацию Айвену Райтману. Тогда Райтман был ещё не особо известен. Если копаться всерьёз, то раннюю карьеру Райтмана никак нельзя оставить в стороне, она многое объясняет. Например, дружбу с Эйкройдом и профнепригодность к серьезному делу. Но неважно - на тот момент он спродюсировал пару вполне среднекалиберных комедий и искал новый материал. Как выяснилось потом, книгу Адамса он даже не читал, а просто ориентировался на цифры продаж. С автором он не встретился ни разу.

Как человек честный, Адамс по контракту написал три тритмента (заявки на сценарий). Как человек вежливый, Адамс потом говорил, что «просто это было не для Айвена», и это, наверное, правда. Но Райтман успел сделать пару вещей даже с тем, что имел.

Во-первых, он успел нанять каких-то людей для переработки книги и тритментов в киносценарий. И прицепил к числу авторов, конечно же, имя Адамса. Во-вторых, он успел отобрать Эйкройда (с которым см. ранняя карьера) и Мюррея на роли в Хичхайкере. В-третьих, он перепродал права Columbia Pictures. Отметим это для интереса.

Между вторым и третьим, или вокруг второго и третьего, произошла хорошо знакомая нам вещь. Эйкройд (который должен был играть Форда) в процессе переговоров о Хичхайкере берёт и выкладывает на стол собственный сценарий. Сценарий Ghostbusters.

Поэтому мне пока непонятно, как произошла продажа или уступка прав на Хичхайкер от Райтмана к Коламбии. Мы вряд ли узнаем об этом. Скорее всего, Райтман продался с потрохами и отдал всё, что имел, в обеспечение контракта на GhostBusters. Адамс в этом не участвовал никак, а узнал обо всём задним числом, со следующими последствиями.

Во-первых, сценарий или сценарии, написанные людьми Райтмана, были настолько чудовищны, что их никто не хотел трогать. Во-вторых, под ними стояло имя Адамса (который утверждал, что он не касался «ни одной запятой»!), и поэтому его считали никуда не годным сценаристом. А в-третьих, жанр «фантастической комедии» на долгие годы стал стопроцентно ассоциироваться с Ghostbusters, который вышел с полным триумфом в 1984 году – через полтора или два года после продажи прав Райтману. Если на что этот дядька и способен, так это на мгновенные решения.

И всё дело было на долгие годы похоронено в недрах Коламбии, которая не представляла и не представляет.

Прошли годы.

В своих бесконечных музыкальных кругах Даглас однажды натолкнулся на странную, почти инопланетную знаменитость - Michael Nesmith из группы Monkeys, которая когда-то – недолго - была известна не меньше, чем The Beatles и Rolling Stones. Несмит в тот момент активно занимался продюсированием. По сути дела, именно он потратил лет десять на то, чтобы заново привлечь интерес кинокомпаний к Адамсу. Но из этого ничего не вышло, и Несмит с Адамсом расстались как друзья, утомленные бессмысленным процессом.

Одна из причин была в том, что к этому времени Голливуд считал – всё это устарело.Фантастическая комедия в кино не работает - а то кто-нибудь давно бы это сделал.

А потом вышли Men in Black (1997).

Как говорит сам Адамс, «…и как бы сказать повежливее…я увидел в нём некоторые знакомые элементы…»

И тут вдруг всем захотелось фантастической комедии. Но здесь смутная полоса – я пока не понимаю, как перешли права к Диснею. Моя догадка – в процессе десятилетней работы с Несмитом были разные метания, и одно из метаний привело к тому, что Дисней откупил права – задёшево, как ненужные. Но если это так, это ещё один поклон Майклу Несмиту.

Факт тот, что права оказались у Диснея. И да, всем захотелось фантастической комедии. И да, Дисней сказал – давайте наконец снимем. И…. вы думаете, это хеппи-енд? (Да шиш вам без поправок.)

В 1998 году, в разгар рывка, Даглас сказал, что всё лучше, чем когда-либо. Да, говорил он, теперь кино в руках у Диснея, это хорошо. И по сравнению с другими временами, теперь оно может получиться куда лучше технически, убедительнее и интереснее. И мы с вами знаем, что это искренняя правда, ведь уже был Jurassic Park, и много после.

Только он был слишком наивен и слишком честен. Верил в верность и данное слово и всю такую чепуху, даже после Райтмана.

Я не думаю, что Адамс не понимал, что происходит. Отлично понимал. Я думаю, что, как культурный и невероятно тонкий человек, он просто не мог заставить себя высказываться грубо. Не мог себя заставить назвать воров ворами, лжецов лжецами, а скотов скотами. Всегда находил способы ДАТЬ ПОНЯТЬ – но не тем людям, нет, не тем ОСОБЯМ. Всю жизнь не мог, и здесь не смог.

Он говорил о том, что ему нравится режиссёр картины, Jay Roach (тот, что снял Austin Powers). Но буквально тут же Роуч свалил с проекта снимать Mystery, Alaska, а потом и «Знакомство с родителями». Ему было по фиг, ему нужны были звёзды и бабло.

В апреле 1999 Адамс не выдержал и написал письмо в Дисней, поскольку всё встало и все от него бегали. Он оставил 33 контакта (!!! телефоны и адреса !!!), включая рестораны, где он часто бывает. Через месяц с ним наконец снова встретились и дело – вроде бы - двинулось дальше.

Роуч везде рассказывает, что якобы хотел, чтобы проект остался в надёжных руках. Поэтому он пытался передать его Спайку Джонзи, а тот, будучи занят и всё такое, порекомендовал хорошую британскую команду. И вот нам счастье.

Но на самом деле, по-моему, было так, что Роуч лихорадочно искал затычку, лишь бы свалить на более выгодный проект, а Джонзи (знаменитость!!!! куда там….) сказал ему – ты что, мудак полный? С какого хрена я тут стану тебя заменять на такой заднице? Автор брит? Ну вот пусть бритые им и занимаются, у меня тут есть пара пацанов…..

….в общем, ему было в лом, и он перекинул на Дженнингса. На человека, видимо, хорошего, но никогда – НИКОГДА – до этого не снимавшего кино. На музыкального клипмейкера.

Вот так и вышло. Hitchhiker’s Guide To The Galaxy снят музыкальным клипмейкером. Если вы хичхайкер, вы можете это вообразить???????????? Наверное, они (Garth Jennings, Nick Goldsmith) хорошие люди, раз умудрились хотя бы это. В тот момент им было чуть больше 30, видимо, подействовало…или первая возможность снять первый в жизни реальный фильм…..

Даглас умер в мае 2001, и не факт, что он знал об этих переменах. Он не ждал смерти и жил очень активной жизнью, но фильм явно не был частью этой жизни. Адамс не ждал его выхода на днях или следующей весной. После 19 лет борьбы за фильм ему, возможно, было уже всё равно - думаю, он поставил на картине крест. Нет публичных свидетельств, что он был в курсе смены режиссёров и так далее. В конце концов, за время НЕПОСТАВЛЕННОГО кино он стал вдвое старше. Думаю, у него не было даже мечты увидеть это кино. У него были другие, более продуктивные заботы.

После его смерти его сценарий основательно переписали. Четыре года до смерти автора, четыре года после его смерти – фильм выпустили просто потому, что было бы неприлично не выпустить. Дежурное кино ради отметки в журнале – начали, закончили, выпустили, окупили. И это всё.

Позорно. Неприлично. Проклятие Адамса.

И просто ОГРОМНОЕ, ИСКРЕННЕЕ, ГОРЯЧЕЕ спасибо всем, кто хоть как-то довёл это до зрителя. Может быть, начнут читать.

И без паники, друзья)

piratbit.ru

Автостопом по галактике (2005) HD 1080p скачать торрент в хорошем качестве

Информация о фильмеНазвание Автостопом по галактикеОригинальное название: The Hitchhiker's Guide to the GalaxyГод выхода: 2005Жанр: фантастика, комедия, приключенияРежиссер: Гарт ДженнингсВ ролях: Мартин Фриман, Ясин Бей, Сэм Рокуэлл, Зои Дешанель, Билл Найи, Джон Малкович, Алан Рикман, Уорвик Дэвис, Анна Чэнселлор, Хелен Миррен

О фильме: В один прекрасный день над Землей нависли огромные звездолеты инопланетян, и людям объявили, что их родная планета подлежит сносу, а на ее месте будет проложено шикарное межзвездное шоссе. Н-да, не повезло человечеству. Кроме самого заурядного парня по имени Артур Дент, старый друг и собутыльник которого Форд Префект оказался… инопланетянином!

Страна: США, ВеликобританияПродолжительность: 01:48:46Перевод: Дублированный

ФайлКодек: HEVC 10bitКачество: BDRip 1080pВидео: 1920x800 at 23.976 fps, [email protected] [email protected]@Main, crf, ~5265 kbps avgЗвук: 1: Russian: 48.0 KHz, AC-3, 3/2 (L,C,R,l,r) + LFE ch, ~384 Kbps avg | Dub2: English: 48.0 KHz, AC-3, 3/2 (L,C,R,l,r) + LFE ch, ~640 Kbps avg | OriginalСубтитры: Russian (Full), English (Full)

GeneralUnique ID : 223248630898415160916076652626316023271 (0xA7F41F50F53FD57A82BBF39DB77AD5E7)Complete name : Автостопом по галактике.2005.HEVC.mkvFormat : MatroskaFormat version : Version 4 / Version 2File size : 4.78 GiBDuration : 1h 48mnOverall bit rate : 6 293 KbpsMovie name : The Hitchhiker's Guide to the GalaxyEncoded date : UTC 2017-06-02 12:22:40Writing application : mkvmerge v9.5.0 ('Quiet Fire') 64bitWriting library : libebml v1.3.4 + libmatroska v1.4.5

VideoID : 1Format : HEVCFormat/Info : High Efficiency Video CodingFormat profile : Main [email protected]@MainCodec ID : V_MPEGH/ISO/HEVCDuration : 1h 48mnBit rate : 5 267 KbpsWidth : 1 920 pixelsHeight : 800 pixelsDisplay aspect ratio : 2.40:1Frame rate mode : ConstantFrame rate : 23.976 (24000/1001) fpsColor space : YUVChroma subsampling : 4:2:0Bit depth : 10 bitsBits/(Pixel*Frame) : 0.143Stream size : 4.00 GiB (84%)Title : HEVCWriting library : x265 2.3+27-7e137e3ae083:[Windows][GCC 5.3.1][64 bit] 10bitEncoding settings : cpuid=1173503 / frame-threads=2 / numa-pools=4 / wpp / no-pmode / no-pme / no-psnr / no-ssim / log-level=2 / input-csp=1 / input-res=1920x800 / interlace=0 / total-frames=0 / level-idc=0 / high-tier=1 / uhd-bd=0 / ref=4 / no-allow-non-conformance / no-repeat-headers / annexb / no-aud / no-hrd / info / hash=0 / no-temporal-layers / open-gop / min-keyint=23 / keyint=250 / bframes=4 / b-adapt=2 / b-pyramid / bframe-bias=0 / rc-lookahead=30 / lookahead-slices=0 / scenecut=40 / no-intra-refresh / ctu=64 / min-cu-size=8 / no-rect / no-amp / max-tu-size=32 / tu-inter-depth=1 / tu-intra-depth=1 / limit-tu=0 / rdoq-level=2 / dynamic-rd=0.00 / signhide / no-tskip / nr-intra=0 / nr-inter=0 / no-constrained-intra / no-strong-intra-smoothing / max-merge=3 / limit-refs=0 / no-limit-modes / me=3 / subme=5 / merange=32 / temporal-mvp / weightp / weightb / no-analyze-src-pics / no-deblock / no-sao / no-sao-non-deblock / rd=4 / no-early-skip / rskip / no-fast-intra / no-tskip-fast / no-cu-lossless / no-b-intra / rdpenalty=0 / psy-rd=1.00 / psy-rdoq=1.00 / no-rd-refine / analysis-mode=0 / no-lossless / cbqpoffs=0 / crqpoffs=0 / rc=crf / crf=20.0 / qcomp=0.60 / qpstep=4 / stats-write=0 / stats-read=0 / ipratio=1.40 / pbratio=1.30 / aq-mode=1 / aq-strength=1.00 / cutree / zone-count=0 / no-strict-cbr / qg-size=32 / no-rc-grain / qpmax=69 / qpmin=0 / sar=0 / overscan=0 / videoformat=5 / range=0 / colorprim=2 / transfer=2 / colormatrix=2 / chromaloc=0 / display-window=0 / max-cll=0,0 / min-luma=0 / max-luma=1023 / log2-max-poc-lsb=8 / vui-timing-info / vui-hrd-info / slices=1 / opt-qp-pps / opt-ref-list-length-pps / no-multi-pass-opt-rps / scenecut-bias=0.05 / no-opt-cu-delta-qp / aq-motion / no-hdr / no-hdr-opt / refine-level=5Default : YesForced : No

Audio #1ID : 2Format : AC-3Format/Info : Audio Coding 3Mode extension : CM (complete main)Format settings, Endianness : BigCodec ID : A_AC3Duration : 1h 48mnBit rate mode : ConstantBit rate : 384 KbpsChannel(s) : 6 channelsChannel positions : Front: L C R, Side: L R, LFESampling rate : 48.0 KHzFrame rate : 31.250 fps (1536 spf)Compression mode : LossyStream size : 299 MiB (6%)Title : DubLanguage : RussianDefault : YesForced : No

Audio #2ID : 3Format : AC-3Format/Info : Audio Coding 3Mode extension : CM (complete main)Format settings, Endianness : BigCodec ID : A_AC3Duration : 1h 48mnBit rate mode : ConstantBit rate : 640 KbpsChannel(s) : 6 channelsChannel positions : Front: L C R, Side: L R, LFESampling rate : 48.0 KHzFrame rate : 31.250 fps (1536 spf)Compression mode : LossyStream size : 498 MiB (10%)Title : OriginalLanguage : EnglishDefault : NoForced : No

Text #1ID : 4Format : UTF-8Codec ID : S_TEXT/UTF8Codec ID/Info : UTF-8 Plain TextDuration : 1h 46mnBit rate : 108 bpsCount of elements : 1381Stream size : 84.4 KiB (0%)Title : FullLanguage : RussianDefault : NoForced : No

Text #2ID : 5Format : UTF-8Codec ID : S_TEXT/UTF8Codec ID/Info : UTF-8 Plain TextDuration : 1h 46mnBit rate : 69 bpsCount of elements : 1361Stream size : 54.1 KiB (0%)Title : FullLanguage : EnglishDefault : NoForced : No

Menu00:00:00.000 : en:00:00:00.00000:03:53.232 : en:00:03:53.23200:06:46.781 : en:00:06:46.78100:12:57.485 : en:00:12:57.48500:14:33.247 : en:00:14:33.24700:18:34.696 : en:00:18:34.69600:25:41.331 : en:00:25:41.33100:30:17.273 : en:00:30:17.27300:34:33.321 : en:00:34:33.32100:40:10.950 : en:00:40:10.95000:43:55.633 : en:00:43:55.63300:48:41.668 : en:00:48:41.66800:52:33.984 : en:00:52:33.98400:56:34.766 : en:00:56:34.76601:01:03.826 : en:01:01:03.82601:06:15.888 : en:01:06:15.88801:10:18.797 : en:01:10:18.79701:14:01.979 : en:01:14:01.97901:18:38.630 : en:01:18:38.63001:23:06.356 : en:01:23:06.35601:26:01.447 : en:01:26:01.44701:30:46.315 : en:01:30:46.31501:35:49.785 : en:01:35:49.78501:41:53.816 : en:01:41:53.81601:48:46.269 : en:01:48:46.269

x265 [info]: HEVC encoder version 2.3+27-7e137e3ae083x265 [info]: build info [Windows][GCC 5.3.1][64 bit] 10bitx265 [info]: using cpu capabilities: MMX2 SSE2Fast SSSE3 SSE4.2 AVX AVX2 FMA3 LZCNT BMI2x265 [info]: Main 10 profile, Level-4 (Main tier)x265 [info]: Thread pool created using 4 threadsx265 [info]: Slices : 1x265 [info]: frame threads / pool features : 2 / wpp(13 rows)x265 [info]: Coding QT: max CU size, min CU size : 64 / 8x265 [info]: Residual QT: max TU size, max depth : 32 / 1 inter / 1 intrax265 [info]: ME / range / subpel / merge : star / 32 / 5 / 3x265 [info]: Keyframe min / max / scenecut / bias: 23 / 250 / 40 / 5.00x265 [info]: Lookahead / bframes / badapt : 30 / 4 / 2x265 [info]: b-pyramid / weightp / weightb : 1 / 1 / 1x265 [info]: References / ref-limit cu / depth : 4 / off / offx265 [info]: AQ: mode / str / qg-size / cu-tree : 1 / 1.0 / 32 / 1x265 [info]: Rate Control / qCompress : CRF-20.0 / 0.60x265 [info]: tools: rd=4 psy-rd=1.00 rdoq=2 psy-rdoq=1.00 rskip signhide tmvpx265 [info]: frame I: 1646, Avg QP:19.30 kb/s: 21458.61x265 [info]: frame P: 37249, Avg QP:20.33 kb/s: 11113.88x265 [info]: frame B: 117585, Avg QP:25.40 kb/s: 3186.67x265 [info]: Weighted P-Frames: Y:7.1% UV:5.8%x265 [info]: Weighted B-Frames: Y:7.1% UV:5.5%x265 [info]: consecutive B-frames: 7.2% 6.7% 4.1% 40.3% 41.6%

encoded 156480 frames in 141910.50s (1.10 fps), 5265.89 kb/s, Avg QP:24.13

11 49 8-06-2017, 20:30 4.78 GB Связанные раздачи

rutorg2.ru


Смотрите также