Скачать фильм близкие через торрент бесплатно в хорошем качестве


Сериал Близкие 1,2 серия (2017) все серии скачать торрент

27 334

Физрук 4 сезон (2017)

377

Мой сын (2017)

26

Три сестры (2017)

294

Единственный живой парень в Нью-Йорке (2017)

9 706

Иностранец (2017)

352

Будь мужиком (2017)

1 586

Коматозники (2017)

1 376

Реальный Рокки (2017)

3 303

Геошторм (2017)

1 201

Двуличный любовник (2017)

885

Как Витька Чеснок вез Леху Штыря в дом инвалидов (2017)

13 853

Сделано в Америке (2017)

6 669

Напарник (2017)

1 226

Борг / Макинрой (2017)

1 117

Яма. Наши дни (2017)

3 797

Бегущий по лезвию 2049 (2017)

14 909

Сериал Беглец (2017)

6 288

Безбашенные (2017)

3 474

Послание от Кинга (2017)

2 347

Между нами горы (2017)

13 006

Жизнь впереди (2017)

119 788

Сериал Ольга 2 сезон 18 19 20 серия (2017)

782

Хорошее время (2017)

3 085

Любовь в городе ангелов (2017)

1 838

Уотергейт. Крушение Белого дома (2017)

7 268

Наемник (2017)

14 689

Сериал Отличница (2017)

2 744

Техасская резня бензопилой: Кожаное лицо (2017)

2 701

Убить Гюнтера (2017)

1 558

Заложники (2017)

24 692

Сериал Отчий берег (2017)

865

ЛЕГО Ниндзяго Фильм (2017)

3 436

Kingsman: Золотое кольцо (2017)

1 596

Мадам (2017)

kinonax.com

Близкие скачать фильм торрент 2013 -

Коротко о фильме "Близкие" - У Андрея Акимова две семьи: он - «папа» криминальной группировки, насчитывающей полторы тысячи человек, и многодетный отец, которого каждый вечер ждут дома. Дела в обеих семьях идут не так хорошо, как хотелось бы. Акимов вязнет в болоте. Он уже готов проститься с жизнью и полностью уйти под рябь трясины - но вселенная, кажется, готова дать ему второй шанс. Но сможет ли Андрей жить как нормальный человек и решать проблемы цивилизованно.

Близкие

Фильм выпущен: 2013
Страна (кинокомпания): Россия
Режиссер: Петр Буслов
Сценарий фильма: Ким Белов
Продюсер фильма: Валерий Федорович, Евгений Никишов, Александр Дулерайн
Оператор: Александр Симонов
Композитор: -
Художники:
Монтаж:
Жанр фильма: криминал
Премьера (мир):
премьера (Pоссия):
продолжительность49 мин
В главных ролях:
Владимир Вдовиченков
Владимир Сычев
Андрей Крыжний
Евгений Пронин
и другие ...

 

Фильм Близкие скачать торрент - новинка кино 2013

Скачать файлы .torrent Близкие (фильм)

на сайте Вы можете получить ссылку на торрент файлы или скачать сами торрент файлы, в которых находится информация о местонахождении фильмов, сериалов у пользователей.

В фильме "Близкие" - Андрей одновременно глава крупной криминальной группировки и многодетный отец, он все глубже вязнет в проблемах, но судьба дает ему шанс



Параметры: 10.04.2017 WEB-DL 720p, 1,29 Гб

Формат: MKV, AVC, AC3, размер файла: 1,29 ГбВидео: 1280x720, AVC - ~ 3483 Кбит/сАудио: AC3, 2 канала, 192 Кбит/сПеревод (озвучивание): Оригинал

Параметры: 10.04.2017 WEB-DL 720p, 1,29 Гб

Формат: MKV, AVC, AC3, размер файла: 1,29 ГбВидео: 1280x720, AVC - ~ 3483 Кбит/сАудио: AC3, 2 канала, 192 Кбит/сПеревод (озвучивание): Оригинал

Параметры: 09.04.2017 SATRip, 675,34 Мб

Формат: XviD, MP3, размер файла: 675,34 МбВидео: 720x400, XviD - ~ 1800 Кбит/сАудио: MP3, 2 канала, 128 Кбит/сПеревод (озвучивание): Оригинал

Параметры: 9.04.2017 [2017, Криминал, SATRip], 675,34 Мб -

Формат: SATRip, AVI, XviD, MP3, размер файла: 675,34 МбВидео: 720x400, XviD - build 50 ~1800 Кбит/сАудио: MP3, 2 канала, 128 Кбит/сПеревод (озвучивание):

Параметры: 09.04.2017 SATRip, 675,34 Мб

Формат: XviD, MP3, размер файла: 675,34 МбВидео: 720x400, XviD - ~ 1800 Кбит/сАудио: MP3, 2 канала, 128 Кбит/сПеревод (озвучивание): Оригинал

Параметры: 9.04.2017 [2017, Криминал, SATRip], 675,34 Мб -

Формат: SATRip, AVI, XviD, MP3, размер файла: 675,34 МбВидео: 720x400, XviD - build 50 ~1800 Кбит/сАудио: MP3, 2 канала, 128 Кбит/сПеревод (озвучивание):

Смотрите фильм Близкие онлайн:

Скачать Близкие, фильм бесплатно скачать торрент, криминал, новинка кино

 

hokit.ru

Скачать фильм Близкие враги (2013) через торрент

28 марта 2016 11:47 Близкие враги / Enemies Closer (2013) BDRemux 1080p от NovaLan .torrent   [Информация о файле (нажмите для просмотра)] Перевод: Профессиональный многоголосый (Кинопоказ) / Профессиональный двухголосый (Пиратская Студия) / Авторский одноголосый (Есарев) / Любительский одноголосый (Хихикающий доктор)Кодек: H.264Качество: Blu-Ray Remux 1080pВидео: MPEG-4 AVC, 21985 Кбит/с, 1920x1080, 23.976 кадр/сЗвук: Русский (AC3, 2 ch, 192 Кбит/с), (AC3, 6 ch, 448 Кбит/с), (DTS, 6 ch, 1509 Кбит/с), (DTS-HD MA, 6 ch, 3752 Кбит/с), английский (DTS-HD MA, 6 ch, 4084 Кбит/с), (AC3, 2 ch, 224 Кбит/с)Субтитры: Русские, английские, испанские 20,41 Gb 2 3 28 марта 2016 11:47 Близкие враги / Enemies Closer (2013) BDRip от HQCLUB .torrent   [Информация о файле (нажмите для просмотра)] Перевод: Профессиональный (многоголосый, закадровый) Кинопоказ + Оригинальная звуковая дорожка +Одноголосый закадровый Д.ЕсаревСубтитры: Русские, Английские SDH (внешние srt*)Формат: AVIКачество: BDRip (источник: MediaClub /BD-Remux / 1080p)Видео: 720x304 (2.37:1), 23.976 fps, XviD build 65 ~1801 kbps avg, 0.34 bit/pixelАудио #1: 48 kHz, AC3 Dolby Digital, 2/0 (L,R), ~192.00 kbps avgАудио #2: 48 kHz, AC3 Dolby Digital, 3/2 (L,C,R,l,r) + LFE ch, ~448.00 kbps avgАудио #3: 48 kHz, AC3 Dolby Digital, 3/2 (L,C,R,l,r) + LFE ch, ~448.00 kbps avg(отдельно, http) 1,46 Gb 3 1 28 марта 2016 11:47 Близкие враги / Enemies Closer (2013) BDRip 720p от Leonardo and Scarabey | P2, A .torrent   [Информация о файле (нажмите для просмотра)] Перевод: Профессиональный (двухголосый закадровый) Пиратская студияПеревод: Любительский (одноголосый закадровый) Д.ЕсаревФормат: MKVВидео кодек: MPEG-4 AVC Аудио кодек: AC3Видео: AVC, 1280x534 (2.40:1) at 23.976 fps, AVC at 2660 kbps avg, 0.158 bit/pixelАудио: Русский; AC3 5.1; 448 kbps; 48 kHz; профессиональный, двухголосый закадровый, Пиратская студияАудио: Русский; AC3 5.1; 448 kbps; 48 kHz; одноголосый закадровый, Д.ЕсаревАудио: Английский; AC3 5.1; 448 kbps; 48 kHz; оригиналСубтитры: Русские, английские 2,37 Gb 4 4 28 марта 2016 11:47 Близкие враги / Enemies Closer (2013) BDRip-AVC от MediaClub | P2, A .torrent   [Информация о файле (нажмите для просмотра)] Перевод: Профессиональный двухголосый, авторский одноголосыйКачество: BDRip-AVCВидео: MPEG-4 AVC, 1300 Кбит/с, 1024x426, 23.976 кадр/сАудио #1: Русский (AC3, 6 ch, 448 Кбит/с) / Профессиональный двухголосый (Пиратская студия)Аудио #2: Русский (AC3, 6 ch, 448 Кбит/с) / Авторский одноголосый (Есарев)Аудио #3: Английский (AC3, 6 ch, 448 Кбит/с)Субтитры: Русские, английскиеВидео: Идентификатор : 1 Формат : AVC Формат/Информация : Advanced Video Codec Профиль формата : [email protected] Параметр CABAC формата : Да Параметр ReFrames формата : 10 кадров Идентификатор кодека : V_MPEG4/ISO/AVC Продолжительность : 1 ч. 24 м. Битрейт : 1300 Кбит/сек Ширина : 1024 пикселя Высота : 426 пикселей Соотношение сторон : 2,40:1 Режим частоты кадров : Постоянный Частота кадров : 23,976 кадра/сек Цветовое пространство : YUV Субдискретизация насыщенности : 4:2:0 Битовая глубина : 8 бит Тип развёртки : Прогрессивная Бит/(Пиксели*Кадры) : 0.124 Размер потока : 758 Мбайт (47%) Заголовок : -=MediaClub-kaspr=- Библиотека кодирования : x264 core 142 r2389+41 02cb608 tMod [[email protected]:2:0 X86_64] Настройки программы : cabac=1 / ref=10 / deblock=1:-3:-3 / analyse=0x3:0x113 / me=umh / subme=11 / psy=1 / fade_compensate=0.00 / psy_rd=1.00:0.20 / mixed_ref=1 / me_range=32 / chroma_me=1 / trellis=2 / 8x8dct=1 / cqm=0 / deadzone=21,11 / fast_pskip=0 / chroma_qp_offset=-3 / threads=12 / lookahead_threads=3 / sliced_threads=0 / nr=0 / decimate=0 / interlaced=0 / bluray_compat=0 / constrained_intra=0 / fgo=0 / bframes=14 / b_pyramid=2 / b_adapt=2 / b_bias=0 / direct=3 / weightb=1 / open_gop=0 / weightp=2 / keyint=240 / keyint_min=23 / scenecut=40 / intra_refresh=0 / rc=2pass / mbtree=0 / bitrate=1300 / ratetol=1.0 / qcomp=0.60 / qpmin=0:0:0 / qpmax=69:69:69 / qpstep=4 / cplxblur=20.0 / qblur=0.5 / ip_ratio=1.40 / pb_ratio=1.30 / aq=2:0.80 / aq-sensitivity=10.00 / aq-factor=1.00:1.00:1.00 / aq2=0 / aq3=0 Default : Да Forced : ДаАудио #1: Идентификатор : 2 Формат : AC-3 Формат/Информация : Audio Coding 3 Расширение режима : CM (complete main) Параметр Endianness формата : Big Идентификатор кодека : A_AC3 Продолжительность : 1 ч. 24 м. Вид битрейта : Постоянный Битрейт : 448 Кбит/сек Каналы : 6 каналов Расположение каналов : Front: L C R, Side: L R, LFE Частота : 48,0 КГц Битовая глубина : 16 бит Метод сжатия : С потерями Размер потока : 272 Мбайт (17%) Заголовок : DVO Язык : Russian Default : Да Forced : ДаАудио #2: Идентификатор : 3 Формат : AC-3 Формат/Информация : Audio Coding 3 Расширение режима : CM (complete main) Параметр Endianness формата : Big Идентификатор кодека : A_AC3 Продолжительность : 1 ч. 24 м. Вид битрейта : Постоянный Битрейт : 448 Кбит/сек Каналы : 6 каналов Расположение каналов : Front: L C R, Side: L R, LFE Частота : 48,0 КГц Битовая глубина : 16 бит Метод сжатия : С потерями Размер потока : 272 Мбайт (17%) Заголовок : Есарев Язык : Russian Default : Нет Forced : НетАудио #3: Идентификатор : 4 Формат : AC-3 Формат/Информация : Audio Coding 3 Расширение режима : CM (complete main) Параметр Endianness формата : Big Идентификатор кодека : A_AC3 Продолжительность : 1 ч. 24 м. Вид битрейта : Постоянный Битрейт : 448 Кбит/сек Каналы : 6 каналов Расположение каналов : Front: L C R, Side: L R, LFE Частота : 48,0 КГц Битовая глубина : 16 бит Метод сжатия : С потерями Размер потока : 272 Мбайт (17%) Язык : English Default : Нет Forced : Нет 1,57 Gb 3 3 28 марта 2016 11:47 Близкие враги / Enemies Closer (2013) BDRip 1080p от CINEMANIA | P2, A, L1 .torrent   [Информация о файле (нажмите для просмотра)] Формат: MKVКачество: BDRip 1080p[WiKi]Видео: 9000 kb/s, 1920x1080Аудио: Russian [Пиратская Студия]: AC3, 448 kb/s (6 ch) Russian [Д.Есарев] / [ХихиДок]: DTS, 1510 kb/s (6 ch) English: DTS, 1510 kb/s (6 ch) Субтитры: Russian[jasinpapa], EnglishВидео: Идентификатор : 1 Формат : AVC Формат/Информация : Advanced Video Codec Профиль формата : [email protected] Параметр CABAC формата : Да Параметр ReFrames формата : 4 кадра Идентификатор кодека : V_MPEG4/ISO/AVC Продолжительность : 1 ч. 21 м. Битрейт : 9000 Кбит/сек Ширина : 1920 пикселей Высота : 1080 пикселей Соотношение сторон : 16:9 Режим частоты кадров : Постоянный Частота кадров : 25,000 кадров/сек Цветовое пространство : YUV Субдискретизация насыщенности : 4:2:0 Битовая глубина : 8 бит Тип развёртки : Прогрессивная Бит/(Пиксели*Кадры) : 0.174 Размер потока : 4,97 Гбайт (62%) Заголовок : Release Group CINEMANIA Библиотека кодирования : x264 core 136 r2348+704+51 d1baef6 tMod [[email protected] X86] Настройки программы : cabac=1 / ref=4 / deblock=1:-3:-3 / analyse=0x3:0x133 / me=umh / subme=11 / psy=1 / fade_compensate=0.00 / psy_rd=1.05:0.05 / mixed_ref=1 / me_range=64 / chroma_me=1 / trellis=2 / 8x8dct=1 / cqm=0 / deadzone=21,11 / fast_pskip=0 / chroma_qp_offset=-3 / threads=12 / lookahead_threads=2 / sliced_threads=0 / nr=0 / decimate=0 / interlaced=0 / bluray_compat=0 / constrained_intra=0 / fgo=0 / bframes=8 / b_pyramid=2 / b_adapt=2 / b_bias=0 / direct=3 / weightb=1 / open_gop=0 / weightp=2 / keyint=250 / keyint_min=25 / scenecut=40 / intra_refresh=0 / rc_lookahead=120 / rc=2pass / mbtree=0 / bitrate=9000 / ratetol=1.0 / qcomp=0.70 / qpmin=0:0:0 / qpmax=69:69:69 / qpstep=4 / cplxblur=20.0 / qblur=0.5 / vbv_maxrate=50000 / vbv_bufsize=50000 / nal_hrd=none / ip_ratio=1.40 / pb_ratio=1.30 / aq=1:0.85 / aq-sensitivity=10.00 / aq-factor=1.00:1.00:1.00 / aq2=0 / aq3=0 Язык : English Default : Да Forced : Нет Аудио #1: Идентификатор : 2 Формат : AC-3 Формат/Информация : Audio Coding 3 Расширение режима : CM (complete main) Параметр Endianness формата : Big Идентификатор кодека : A_AC3 Продолжительность : 1 ч. 21 м. Вид битрейта : Постоянный Битрейт : 448 Кбит/сек Каналы : 6 каналов Расположение каналов : Front: L C R, Side: L R, LFE Частота : 48,0 КГц Битовая глубина : 16 бит Метод сжатия : С потерями Размер потока : 262 Мбайт (3%) Заголовок : Пиратская Студия Язык : Russian Default : Да Forced : Да Аудио #2: Идентификатор : 3 Формат : DTS Формат/Информация : Digital Theater Systems Режим : 16 Параметр Endianness формата : Big Идентификатор кодека : A_DTS Продолжительность : 1 ч. 21 м. Вид битрейта : Постоянный Битрейт : 1509 Кбит/сек Каналы : 6 каналов Расположение каналов : Front: L C R, Side: L R, LFE Частота : 48,0 КГц Битовая глубина : 16 бит Метод сжатия : С потерями Размер потока : 882 Мбайт (11%) Заголовок : Д.Есарев Язык : Russian Default : Нет Forced : Нет Аудио #3: Идентификатор : 4 Формат : DTS Формат/Информация : Digital Theater Systems Режим : 16 Параметр Endianness формата : Big Идентификатор кодека : A_DTS Продолжительность : 1 ч. 21 м. Вид битрейта : Постоянный Битрейт : 1510 Кбит/сек Каналы : 6 каналов Расположение каналов : Front: L C R, Side: L R, LFE Частота : 48,0 КГц Битовая глубина : 24 бит Метод сжатия : С потерями Размер потока : 882 Мбайт (11%) Заголовок : ХиХиДок Язык : Russian Default : Нет Forced : Нет Аудио #4: Идентификатор : 5 Формат : DTS Формат/Информация : Digital Theater Systems Режим : 16 Параметр Endianness формата : Big Идентификатор кодека : A_DTS Продолжительность : 1 ч. 21 м. Вид битрейта : Постоянный Битрейт : 1509 Кбит/сек Каналы : 6 каналов Расположение каналов : Front: L C R, Side: L R, LFE Частота : 48,0 КГц Битовая глубина : 16 бит Метод сжатия : С потерями Размер потока : 882 Мбайт (11%) Язык : English Default : Нет Forced : Нет 7,97 Gb 6 3 28 марта 2016 11:47 Близкие враги / Enemies Closer (2013) HDRip | Д. Есарев .torrent   [Информация о файле (нажмите для просмотра)] Формат: AVI (XviD)Качество: HDRipВидео: 2092 kb/s, 720x400Аудио: AC3 448 kb/s (6 ch) 1,45 Gb 4 3 28 марта 2016 11:47 Близкие враги / Enemies Closer (2013) HDRip | L1 .torrent   [Информация о файле (нажмите для просмотра)] Формат: AVI (XviD)Качество: HDRip [Рип с BDRip 720p]Видео: 2091 kb/s, 720x304Аудио: AC3 448 kb/s (6 ch) 1,45 Gb 3 5 28 марта 2016 11:47 Близкие враги / Enemies Closer (2013) DVDRip | L1 .torrent   [Информация о файле (нажмите для просмотра)] Формат: AVI (XviD)Качество: DVDRipВидео: XviD, 720x384 (1.875), 1715 kbps, 23,976 fps, 0,259 bppАудио: Russian: MP3, 192 kb/s (2 ch) / English: AC3 384 kb/s (6 ch) 1,37 Gb 1 5 28 марта 2016 11:47 Близкие враги / Enemies Closer (2013) DVDRip-AVC | L1 .torrent   [Информация о файле (нажмите для просмотра)] Формат: MKVКачество: DVDRip-AVCВидео: 1985 kb/s, 720x384Аудио: Russian: MP3, 192 kb/s (2 ch) / English: AC3, 384 kb/s (6 ch) 1,52 Gb 5 5 28 марта 2016 11:46 Близкие враги / Enemies Closer (2013) DVDRip | L1 .torrent   [Информация о файле (нажмите для просмотра)] Перевод: Любительский (одноголосый закадровый) -Хихикающий докторКачество: DVDRipВидео: XviD, 1014 Кбит/с, 640x352Аудио: MP3, 2 ch, 192 Кбит/с 737,67 Mb 3 1

gig-torrent.net

Скачать фильм Близкий враг (2010) через торрент

11 января 2016 11:24 Близкий враг (2010) BDRip-AVC от 0ptimus .torrent   [Информация о файле (нажмите для просмотра)] Перевод: Не требуетсяКодек: h.264Качество: BDRip-AVCВидео: 1813 Кбит/с, 1024x440, 24.000 кадр/сЗвук: AC3, 6 ch, 384 Кбит/сВидео: Идентификатор : 1 Формат : AVC Формат/Информация : Advanced Video Codec Профиль формата : [email protected] Параметр CABAC формата : Да Параметр ReFrames формата : 8 кадров Идентификатор кодека : V_MPEG4/ISO/AVC Продолжительность : 1 ч. 25 м. Битрейт : 1813 Кбит/сек Ширина : 1024 пикселя Высота : 440 пикселей Соотношение сторон : 2,35:1 Режим частоты кадров : Постоянный Частота кадров : 24,000 кадра/сек Цветовое пространство : YUV Субдискретизация насыщенности : 4:2:0 Битовая глубина : 8 бит Тип развёртки : Прогрессивная Бит/(Пиксели*Кадры) : 0.168 Размер потока : 1,06 Гбайт (81%) Заголовок : Rip by 0ptimus Библиотека кодирования : x264 core 133 r2334 a3ac64b Настройки программы : cabac=1 / ref=8 / deblock=1:-3:-3 / analyse=0x3:0x113 / me=umh / subme=10 / psy=1 / psy_rd=1.00:0.20 / mixed_ref=1 / me_range=32 / chroma_me=1 / trellis=2 / 8x8dct=1 / cqm=0 / deadzone=21,11 / fast_pskip=0 / chroma_qp_offset=-3 / threads=3 / lookahead_threads=1 / sliced_threads=0 / nr=0 / decimate=0 / interlaced=0 / bluray_compat=0 / constrained_intra=0 / bframes=10 / b_pyramid=2 / b_adapt=2 / b_bias=0 / direct=3 / weightb=1 / open_gop=0 / weightp=2 / keyint=240 / keyint_min=24 / scenecut=40 / intra_refresh=0 / rc_lookahead=40 / rc=2pass / mbtree=0 / bitrate=1813 / ratetol=1.0 / qcomp=0.60 / qpmin=0 / qpmax=69 / qpstep=4 / cplxblur=20.0 / qblur=0.5 / vbv_maxrate=50000 / vbv_bufsize=50000 / nal_hrd=none / ip_ratio=1.40 / pb_ratio=1.30 / aq=1:1.00 Язык : Russian Default : Да Forced : ДаАудио: Идентификатор : 2 Формат : AC-3 Формат/Информация : Audio Coding 3 Расширение режима : CM (complete main) Параметр Endianness формата : Big Идентификатор кодека : A_AC3 Продолжительность : 1 ч. 25 м. Вид битрейта : Постоянный Битрейт : 384 Кбит/сек Каналы : 6 каналов Расположение каналов : Front: L C R, Side: L R, LFE Частота : 48,0 КГц Битовая глубина : 16 бит Метод сжатия : С потерями Размер потока : 236 Мбайт (17%) Заголовок : AC3 5.1 @ 384 kbps Язык : Russian Default : Да Forced : Да 1,32 Gb 179 4 11 января 2016 11:24 Близкий враг (2010) DVDRip .torrent   [Информация о файле (нажмите для просмотра)] Перевод: Не требуетсяКодек: XviD / MP3Качество: DVDRipВидео: XviD, 640x272 (2.35:1), 25 fps, ~1023 kbps, 0.23 bit/pixelЗвук: 48 kHz, MPEG Layer 3, 2 ch, ~192.00 kbps 745,5 Mb 23 3 11 января 2016 11:24 Близкий враг (2010) BDRip 720p от Freeisland .torrent   [Информация о файле (нажмите для просмотра)] Перевод: Оригинальный [лицензия]Кодек: Н.264Качество: BDRip 720p Исходник Blu-Ray 1080рВидео: 1280x544,6546 Кбит/сек,24,000 кадр/сек,0.392bit/pixelЗвук: DTS,755 Кбит/сек,6 канала(ов),24 бит,48,0 КГцСубтитры: нетВидео: Идентификатор : 1 Формат : AVC Формат/Информация : Advanced Video Codec Профайл формата : [email protected] Параметры CABAC формата : Да Параметры ReFrames формата : 16 кадры Режим смешивания : Container [email protected] Идентификатор кодека : V_MPEG4/ISO/AVC Продолжительность : 1 ч. 25 м. Битрейт : 6546 Кбит/сек Ширина : 1280 пикс. Высота : 544 пикс. Соотношение кадра : 2,35:1 Частота кадров : 24,000 кадр/сек ColorSpace : YUV ChromaSubsampling : 4:2:0 BitDepth/String : 8 бит Тип развёртки : Прогрессивная Бит/(Пиксели*Кадры) : 0.392 Размер потока : 3,83 ГиБ (88%) Библиотека кодирования : x264 core 112 r1867 22bfd31 Настройки программы : cabac=1 / ref=16 / deblock=1:-3:-3 / analyse=0x3:0x113 / me=umh / subme=7 / psy=1 / psy_rd=1.00:0.15 / mixed_ref=1 / me_range=32 / chroma_me=1 / trellis=1 / 8x8dct=1 / cqm=0 / deadzone=21,11 / fast_pskip=1 / chroma_qp_offset=-3 / threads=6 / sliced_threads=0 / nr=0 / decimate=1 / interlaced=0 / constrained_intra=0 / bframes=10 / b_pyramid=2 / b_adapt=2 / b_bias=0 / direct=3 / weightb=1 / open_gop=0 / weightp=2 / keyint=250 / keyint_min=24 / scenecut=40 / intra_refresh=0 / rc_lookahead=50 / rc=2pass / mbtree=1 / bitrate=6546 / ratetol=1.0 / qcomp=0.60 / qpmin=0 / qpmax=51 / qpstep=4 / cplxblur=20.0 / qblur=0.5 / ip_ratio=1.40 / aq=1:1.00 Язык : EnglishАудио: Идентификатор : 2 Формат : DTS Формат/Информация : Digital Theater Systems Идентификатор кодека : A_DTS Продолжительность : 1 ч. 25 м. Вид битрейта : Постоянный Битрейт : 755 Кбит/сек Канал(ы) : 6 канала(ов) Расположение каналов : Front: L C R, Side: L R, LFE Частота : 48,0 КГц BitDepth/String : 24 бит Размер потока : 463 МиБ (10%) Язык : Russian 4,37 Gb 6 6 11 января 2016 11:24 Близкий враг (2010) HDRip .torrent   [Информация о файле (нажмите для просмотра)] Перевод: Оригинальный [лицензия]Кодек: XviDКачество: HDRip [Рип с Bluray 1080p]Видео: 1825 kb/s, 720x304Звук: AC3, 448 kb/s (6 ch)Субтитры: Нет 1,37 Gb 53 4 11 января 2016 11:24 Близкий враг (2010) DVD5 vadi .torrent   [Информация о файле (нажмите для просмотра)] Перевод: не требуетсяКачество: DVD5 (от vadi)Контейнер: DVD VideoВидео: PAL 16:9 (720x576) VBRАудио: Pyccкuй (Dolby AC3, 6 ch, 384Kbps) - оригинальная звуковая дорожкаВидео: Идентификатор : 224 (0xE0) Формат : MPEG Video Версия формата : Version 2 Профайл формата : [email protected] Параметры BVOP формата : Да Параметры матрицы формата : По умолчанию Продолжительность : 24 м. Вид битрейта : Переменный Битрейт : 5376 Кбит/сек Номинальный битрейт : 9000 Кбит/сек Ширина : 720 пикс. Высота : 576 пикс. Соотношение кадра : 16:9 Частота кадров : 25,000 кадр/сек Стандарт вещания : PAL Разрешение : 8 бит Колориметрия : 4:2:0 Тип развёртки : Прогрессивная Порядок развёртки : Верхнее поле первое Бит/(Пиксели*Кадры) : 0.518 Размер потока : 937 МиБ (91%)Аудио: Идентификатор : 128 (0x80) Формат : AC-3 Формат/Информация : Audio Coding 3 Format_Settings_ModeExtension : CM (complete main) Продолжительность : 24 м. Вид битрейта : Постоянный Битрейт : 384 Кбит/сек Канал(ы) : 6 канала(ов) Расположение каналов : Front: L C R, Side: L R, LFE Частота : 48,0 КГц Размер потока : 66,9 МиБ (7%) 4,37 Gb 9 3

gig-torrent.net


Смотрите также