Скачать фильм большая афера через торрент в хорошем качестве бесплатно


Скачать фильм Большая афера (2013) через торрент

18 февраля 2016 13:12 Большая афера / The Grand Seduction (2013) BDRip от HQ-ViDEO .torrent   [Информация о файле (нажмите для просмотра)] Перевод: Профессиональный (многоголосый, закадровый)|R5| + Оригинал (Английский)Субтитры: Русские, Английские (полные, SDH).Формат: AVIКачество: BDRip (источник: HDCLUB /Blu-ray Disc / 1080p)Кодек: XviD, build 73 codecВидео: 704 x 384; 23.976 fps; 1850 kbps; 0.285 bit/pixelАудио: AC3 Dolby Digital; 448 Kbps; 6 channels; 48 KHz|все дорожки| 2,18 Gb 63 7 18 февраля 2016 13:12 Большая афера / The Grand Seduction (2013) HDRip | A .torrent   [Информация о файле (нажмите для просмотра)] Перевод: Авторский (одноголосый закадровый)Юрий СербинКодек: XviDКачество: НDRipВидео: 720x384 (1.88:1), 23.976 fps, XviD build 73 ~1454 kbps avg, 0.22 bit/pixelАудио: 48 kHz, AC3 Dolby Digital, 3/2 (L,C,R,l,r) + LFE ch, ~384 kbpsСубтитры: нет 1,46 Gb 15 2 18 февраля 2016 13:12 Большая афера / The Grand Seduction (2013) BDRip 720p от NNNB | D,A .torrent   [Информация о файле (нажмите для просмотра)] Перевод: Профессиональный многоголосый [Лицензия], Авторский (одноголосый)Качество: BDRip 720p (исходник Blu-ray)Формат: AVC (библиотека кодирования x.264)Видео: 1280x690 (1.855), 3778 Кбит/сек, 23,976 кадр/сек, 0,178 Бит/[Пиксели*Кадры]Аудио №1: русский / AC3 / 5.1 / 48 kHz / 448 kbps /|Профессиональный многоголосый, R5| Аудио №2: русский / AC3 / 5.1 / 48 kHz / 640 kbps /|Авторский, Юрий Сербин| Аудио №3: английский / AC3 / 5.1 / 48 kHz / 640 kbps /Субтитры: русские (Full), английские (Full), английские (SDH) 4,44 Gb 15 2 18 февраля 2016 13:12 Большая афера / The Grand Seduction (2013) BDRip 720p от Leonardo and Scarabey | Лицензия .torrent   [Информация о файле (нажмите для просмотра)] Перевод: Профессиональный (многоголосый закадровый) Лицензия (R5)Формат: MKVВидео кодек: MPEG-4 AVC Аудио кодек: AC3Видео: AVC, 1280x690 (1.85:1) at 23.976 fps, AVC at 3817 kbps avg, 0.180 bit/pixelАудио: Russian; AC3; 448 Kbps; CBR; 6 ch; 16 bit; MVOСубтитры: Русские, английские 3,44 Gb 58 4 18 февраля 2016 13:12 Большая афера / The Grand Seduction (2014) BDRip-AVC от HELLYWOOD | Лицензия .torrent   [Информация о файле (нажмите для просмотра)] Перевод: Профессиональный (многоголосый закадровый) [R5]Субтитры: Русские, английские (Full + SDH)Качество: BDRip-AVCФормат: MKVВидео: х.264, 960x518 (1,85:1), 23,976 fps, 1862 kbps, 0.156 bit/pixelАудио#1: 48 kHz, AC3 Dolby Digital, 3/2 (L,C,R,l,r) + LFE ch, 448.00 kbps |RUSАудио#2: 48 kHz, AC3 Dolby Digital, 3/2 (L,C,R,l,r) + LFE ch, 448.00 kbps |ENG 2,18 Gb 34 4 18 февраля 2016 13:12 Большая афера / The Grand Seduction (2013) DVD5 от New-Team | P | Сжатый .torrent   [Информация о файле (нажмите для просмотра)] Перевод: Профессиональный (многоголосый закадровый)Кодек: MPEG2Качество: DVD5 (сжатый)Видео: PAL 16:9 (720x576) VBR ~ 5746.33 kbps avgЗвук: Русский / Английский DD 5.1 (448Kbps)Субтитры: Русские 4,37 Gb 5 3 18 февраля 2016 13:12 Большая афера / The Grand Seduction (2013) DVD9 от New-Team | P | Лицензия .torrent   [Информация о файле (нажмите для просмотра)] Перевод: Профессиональный (многоголосый закадровый)Кодек: MPEG2Качество: DVD9Видео: PAL 16:9 (720x576) VBR ~ 6953.15 kbps avgЗвук: Русский / Английский DD 5.1 (448Kbps)Субтитры: Русские 5,77 Gb 2 1 18 февраля 2016 13:12 Большая афера / The Grand Seduction (2013) HDRip от Scarabey | Р | Лицензия .torrent   [Информация о файле (нажмите для просмотра)] Перевод: Профессиональный (многоголосый закадровый) - ЛицензияВидео: 704x384 (1.83:1), 23.976 fps, XviD build 73 ~1381 kbps avg, 0.21 bit/pixelАудио: 48 kHz, AC3 Dolby Digital, 3/2 (L,C,R,l,r) + LFE ch, ~448 kbps 1,45 Gb 88 4 18 февраля 2016 13:12 Большая афера / The Grand Seduction (2013) HDRip от Scarabey | Р | Лицензия .torrent   [Информация о файле (нажмите для просмотра)] Перевод: Профессиональный (многоголосый закадровый) - ЛицензияВидео: 624x336 (1.86:1), 23.976 fps, XviD build 73 ~783 kbps avg, 0.16 bit/pixelАудио: 48 kHz, MPEG Layer 3, 2 ch, ~128.00 kbps avg 745,39 Mb 21 2 18 февраля 2016 13:12 Большая афера / The Grand Seduction (2013) BDRip-AVC от Leo.pard and Scarabey | Лицензия .torrent   [Информация о файле (нажмите для просмотра)] Перевод: Профессиональный (многоголосый закадровый) лицензияФормат: MKVВидео: x264, 736x400 (1.85:1), 846 Kbps, 23.976 fpsАудио: AAC, 72 Kbps, 48 KHz, 2 channelsСубтитры: Русские, английские (Full, SDH) 744,8 Mb 24 7 18 февраля 2016 13:12 Большая афера / The Grand Seduction (2013) BDRip-AVC от ExKinoRay | P | Лицензия .torrent   [Информация о файле (нажмите для просмотра)] Перевод: Профессиональный (многоголосый закадровый)Кодек: х264Качество: ВDRip-AVC (Bolshaya.afera.2013.P.BDRemux.1080p)Видео: 720x388 (1,85:1), 23,976 fps, x264 ~ 847 kbps avg, 0.126 bit/pixelАудио: 48 / 24,0 kHz, HE-AAC / LC, 2 ch, ~72 kbps avgСубтитры: Русские, Aнглийские, ФранцузскиеВидео: Идентификатор : 1 Формат : AVC Формат/Информация : Advanced Video Codec Профиль формата : [email protected] Параметр CABAC формата : Да Параметр ReFrames формата : 11 кадров Идентификатор кодека : V_MPEG4/ISO/AVC Продолжительность : 1 ч. 53 м. Номинальный битрейт : 847 Кбит/сек Ширина : 720 пикселей Высота : 388 пикселей Соотношение сторон : 1,85:1 Режим частоты кадров : Постоянный Частота кадров : 23,976 кадра/сек Цветовое пространство : YUV Субдискретизация насыщенности : 4:2:0 Битовая глубина : 8 бит Тип развёртки : Прогрессивная Бит/(Пиксели*Кадры) : 0.126 Заголовок : by Vovan1979 WazZzuP & ExKinoRay Библиотека кодирования : x264 core 130 r2273 b3065e6 Настройки программы : cabac=1 / ref=11 / deblock=1:-3:-3 / analyse=0x3:0x113 / me=umh / subme=11 / psy=1 / psy_rd=1.00:0.10 / mixed_ref=1 / me_range=32 / chroma_me=1 / trellis=2 / 8x8dct=1 / cqm=0 / deadzone=21,11 / fast_pskip=1 / chroma_qp_offset=-3 / threads=6 / lookahead_threads=1 / sliced_threads=0 / nr=0 / decimate=0 / interlaced=0 / bluray_compat=0 / constrained_intra=0 / bframes=8 / b_pyramid=2 / b_adapt=2 / b_bias=0 / direct=3 / weightb=1 / open_gop=0 / weightp=2 / keyint=250 / keyint_min=23 / scenecut=40 / intra_refresh=0 / rc_lookahead=40 / rc=2pass / mbtree=1 / bitrate=847 / ratetol=1.0 / qcomp=0.60 / qpmin=0 / qpmax=69 / qpstep=4 / cplxblur=20.0 / qblur=0.5 / ip_ratio=1.40 / aq=1:1.00 Default : Да Forced : Нет Аудио: Идентификатор : 2 Формат : AAC Формат/Информация : Advanced Audio Codec Профиль формата : HE-AAC / LC Идентификатор кодека : A_AAC Продолжительность : 1 ч. 53 м. Каналы : 2 канала Расположение каналов : Front: L R Частота : 48,0 КГц / 24,0 КГц Метод сжатия : С потерями Задержка видео : 31 мс. Заголовок : Лицензия Язык : Russian Default : Да Forced : Нет 745,41 Mb 4 5 18 февраля 2016 13:12 Большая афера / The Grand Seduction (2013) BDRip 1080p от KinoRay | Лицензия .torrent   [Информация о файле (нажмите для просмотра)] Перевод: Профессиональный многоголосый (Лицензия)Кодек: MPEG-4 AVCКачество: BDRip (1080p)Видео: 1920x1040, 23.976 fps, 10.1 Мбит/сЗвук: Русский (AС3, 6 ch, 448 Кбит/с), английский (DTS, 6 ch, 1509 Кбит/с)Субтитры: Русские, английские, французские 9,8 Gb 15 6 18 февраля 2016 13:12 Большая афера / The Grand Seduction (2013) BDRip 720p от KinoRay | Лицензия .torrent   [Информация о файле (нажмите для просмотра)] Перевод: Профессиональный многоголосый (Лицензия)Кодек: MPEG-4 AVCКачество: BDRip (720p)Видео: 1280x694, 5240 Кбит/сЗвук: Русский (AС3, 6 ch, 448 Кбит/с), английский (AC3, 6 ch, 640 Кбит/с)Субтитры: Русские, английские, французские 5,15 Gb 24 5 18 февраля 2016 13:12 Большая афера / The Grand Seduction (2013) BDRip-AVC от MediaClub | P | Лицензия .torrent   [Информация о файле (нажмите для просмотра)] Перевод: Профессиональный многоголосый закадровыйКачество: BDRip-AVCВидео: MPEG-4 AVC, 2648 Кбит/с, 1024x552, 23.976 кадр/сАудио #1: Русский (AC3, 6 ch, 448 Кбит/с) / Профессиональный многоголосый (Лицензия)Аудио #2: Английский (AC3, 6 ch, 448 Кбит/с)Субтитры: Русские, английские 2,8 Gb 14 4 18 февраля 2016 13:12 Большая афера / The Grand Seduction (2013) BDRip 1080p от New-Team | P | лицензия .torrent   [Информация о файле (нажмите для просмотра)] Перевод: Профессиональный (многоголосый закадровый)Качество: BDRip 1080p /DVD9 R5 - лицензионный диск от Premium Film + Bolshaja.afera.2013.P.BDRip.1080p.mkvФормат: MKVВидео: 1920x1040, MPEG-4 AVC, 8049 kbps / 23,976 fps / 1,85:1 / High Profile 4.1 / bit/pix=0.168Аудио 1: Russian: 48 kHz, AC3, 3/2 (L,C,R,l,r) + LFE ch, 448.00 kbps constantАудио 2: English: 48 kHz/24-bit, DTS 5.1, ~1536.00 kbps avg |оригинал|Видео: Идентификатор : 1 Формат : AVC Формат/Информация : Advanced Video Codec Профиль формата : [email protected] Параметр CABAC формата : Да Параметр ReFrames формата : 4 кадра Идентификатор кодека : V_MPEG4/ISO/AVC Продолжительность : 1 ч. 53 м. Битрейт : 8049 Кбит/сек Ширина : 1920 пикселей Высота : 1040 пикселей Соотношение сторон : 1,85:1 Режим частоты кадров : Постоянный Частота кадров : 23,976 кадра/сек Цветовое пространство : YUV Субдискретизация насыщенности : 4:2:0 Битовая глубина : 8 бит Тип развёртки : Прогрессивная Бит/(Пиксели*Кадры) : 0.168 Размер потока : 6,21 Гбайт (78%) Библиотека кодирования : x264 core 142 r2479 dd79a61 Настройки программы : cabac=1 / ref=4 / deblock=1:-3:-3 / analyse=0x3:0x113 / me=umh / subme=8 / psy=1 / psy_rd=1.00:0.00 / mixed_ref=1 / me_range=16 / chroma_me=1 / trellis=1 / 8x8dct=1 / cqm=0 / deadzone=21,11 / fast_pskip=1 / chroma_qp_offset=-2 / threads=12 / lookahead_threads=2 / sliced_threads=0 / nr=0 / decimate=1 / interlaced=0 / bluray_compat=0 / constrained_intra=0 / bframes=3 / b_pyramid=2 / b_adapt=2 / b_bias=0 / direct=3 / weightb=1 / open_gop=0 / weightp=2 / keyint=240 / keyint_min=24 / scenecut=40 / intra_refresh=0 / rc_lookahead=50 / rc=2pass / mbtree=1 / bitrate=8049 / ratetol=1.0 / qcomp=0.60 / qpmin=0 / qpmax=69 / qpstep=4 / cplxblur=20.0 / qblur=0.5 / ip_ratio=1.40 / aq=1:1.00 Язык : English Default : Да Forced : Да DURATION : 01:53:08.407000000 NUMBER_OF_FRAMES : 162759 NUMBER_OF_BYTES : 6830077841 _STATISTICS_WRITING_APP : mkvmerge v7.2.0 ('On Every Street') 64bit built on Sep 13 2014 15:52:10 _STATISTICS_WRITING_DATE_UTC : 2014-09-23 17:23:25 _STATISTICS_TAGS : BPS DURATION NUMBER_OF_FRAMES NUMBER_OF_BYTESАудио #1: Идентификатор : 2 Формат : AC-3 Формат/Информация : Audio Coding 3 Расширение режима : CM (complete main) Параметр Endianness формата : Big Идентификатор кодека : A_AC3 Продолжительность : 1 ч. 53 м. Вид битрейта : Постоянный Битрейт : 448 Кбит/сек Каналы : 6 каналов Расположение каналов : Front: L C R, Side: L R, LFE Частота : 48,0 КГц Битовая глубина : 16 бит Метод сжатия : С потерями Размер потока : 363 Мбайт (4%) Язык : Russian Default : Да Forced : НетАудио #2: Идентификатор : 3 Формат : DTS Формат/Информация : Digital Theater Systems Режим : 16 Параметр Endianness формата : Big Идентификатор кодека : A_DTS Продолжительность : 1 ч. 53 м. Вид битрейта : Постоянный Битрейт : 1509 Кбит/сек Каналы : 6 каналов Расположение каналов : Front: L C R, Side: L R, LFE Частота : 48,0 КГц Битовая глубина : 24 бит Метод сжатия : С потерями Размер потока : 1,19 Гбайт (15%) Язык : English Default : Нет Forced : Нет 7,91 Gb 19 5 18 февраля 2016 13:12 Большая афера / The Grand Seduction (2013) BDRip 720p от New-Team | P | лицензия .torrent   [Информация о файле (нажмите для просмотра)] Перевод: Профессиональный (многоголосый закадровый)Качество: BDRip 720p /DVD9 R5 - лицензионный диск от Premium Film + The Grand Seduction.2013.P.720p.mkvФормат: MKVВидео: 1280x688, MPEG-4 AVC, 4020 kbps / 23,976 fps / 1,85:1 / High Profile 4.1 / bit/pix=0.190Аудио 1: Russian: 48 kHz, AC3, 3/2 (L,C,R,l,r) + LFE ch, 448.00 kbps constantАудио 2: English: 48 kHz/24-bit, DTS 5.1, ~1536.00 kbps avg |оригинал|Видео: Идентификатор : 1 Формат : AVC Формат/Информация : Advanced Video Codec Профиль формата : [email protected] Параметр CABAC формата : Да Параметр ReFrames формата : 5 кадров Идентификатор кодека : V_MPEG4/ISO/AVC Продолжительность : 1 ч. 53 м. Битрейт : 4020 Кбит/сек Ширина : 1280 пикселей Высота : 688 пикселей Соотношение сторон : 1,85:1 Режим частоты кадров : Постоянный Частота кадров : 23,976 кадра/сек Цветовое пространство : YUV Субдискретизация насыщенности : 4:2:0 Битовая глубина : 8 бит Тип развёртки : Прогрессивная Бит/(Пиксели*Кадры) : 0.190 Размер потока : 3,08 Гбайт (65%) Библиотека кодирования : x264 core 142 r2479 dd79a61 Настройки программы : cabac=1 / ref=5 / deblock=1:-3:-3 / analyse=0x3:0x113 / me=umh / subme=8 / psy=1 / psy_rd=1.00:0.00 / mixed_ref=1 / me_range=16 / chroma_me=1 / trellis=1 / 8x8dct=1 / cqm=0 / deadzone=21,11 / fast_pskip=1 / chroma_qp_offset=-2 / threads=12 / lookahead_threads=2 / sliced_threads=0 / nr=0 / decimate=1 / interlaced=0 / bluray_compat=0 / constrained_intra=0 / bframes=3 / b_pyramid=2 / b_adapt=2 / b_bias=0 / direct=3 / weightb=1 / open_gop=0 / weightp=2 / keyint=240 / keyint_min=24 / scenecut=40 / intra_refresh=0 / rc_lookahead=50 / rc=2pass / mbtree=1 / bitrate=4020 / ratetol=1.0 / qcomp=0.60 / qpmin=0 / qpmax=69 / qpstep=4 / cplxblur=20.0 / qblur=0.5 / ip_ratio=1.40 / aq=1:1.00 Язык : English Default : Да Forced : Нет DURATION : 01:53:08.407000000 NUMBER_OF_FRAMES : 162759 NUMBER_OF_BYTES : 3409463256 _STATISTICS_WRITING_APP : mkvmerge v7.2.0 ('On Every Street') 64bit built on Sep 13 2014 15:52:10 _STATISTICS_WRITING_DATE_UTC : 2014-09-23 16:57:40 _STATISTICS_TAGS : BPS DURATION NUMBER_OF_FRAMES NUMBER_OF_BYTESАудио #1: Идентификатор : 2 Формат : AC-3 Формат/Информация : Audio Coding 3 Расширение режима : CM (complete main) Параметр Endianness формата : Big Идентификатор кодека : A_AC3 Продолжительность : 1 ч. 53 м. Вид битрейта : Постоянный Битрейт : 448 Кбит/сек Каналы : 6 каналов Расположение каналов : Front: L C R, Side: L R, LFE Частота : 48,0 КГц Битовая глубина : 16 бит Метод сжатия : С потерями Размер потока : 363 Мбайт (7%) Язык : Russian Default : Да Forced : НетАудио #2: Идентификатор : 3 Формат : DTS Формат/Информация : Digital Theater Systems Режим : 16 Параметр Endianness формата : Big Идентификатор кодека : A_DTS Продолжительность : 1 ч. 53 м. Вид битрейта : Постоянный Битрейт : 1509 Кбит/сек Каналы : 6 каналов Расположение каналов : Front: L C R, Side: L R, LFE Частота : 48,0 КГц Битовая глубина : 24 бит Метод сжатия : С потерями Размер потока : 1,19 Гбайт (25%) Язык : English Default : Нет Forced : Нет 4,72 Gb 3 5 18 февраля 2016 13:11 Большая афера / The Grand Seduction (2013) BDRip-AVC от New-Team | P | лицензия .torrent   [Информация о файле (нажмите для просмотра)] Перевод: Профессиональный (многоголосый закадровый)Качество: BDRip-AVC /DVD9 R5 - лицензионный диск от Premium Film + The Grand Seduction.2013.x264.BDremux.1080p-MediaClub.mkvФормат: MKVВидео: 1024x552, MPEG-4 AVC, 1856 kbps / 23,976 fps / 1,85:1 / High Profile 4.1 / bit/pix=0.137Аудио 1: Russian: 48 kHz, AC3, 3/2 (L,C,R,l,r) + LFE ch, 448.00 kbps constantАудио 2: English: 48 kHz, AC3, 3/2 (L,C,R,l,r) + LFE ch, 448.00 kbps constantВидео: Идентификатор : 1 Формат : AVC Формат/Информация : Advanced Video Codec Профиль формата : [email protected] Параметр CABAC формата : Да Параметр ReFrames формата : 8 кадров Идентификатор кодека : V_MPEG4/ISO/AVC Продолжительность : 1 ч. 53 м. Битрейт : 1856 Кбит/сек Ширина : 1024 пикселя Высота : 552 пикселя Соотношение сторон : 1,85:1 Режим частоты кадров : Постоянный Частота кадров : 23,976 кадра/сек Цветовое пространство : YUV Субдискретизация насыщенности : 4:2:0 Битовая глубина : 8 бит Тип развёртки : Прогрессивная Бит/(Пиксели*Кадры) : 0.137 Размер потока : 1,42 Гбайт (65%) Библиотека кодирования : x264 core 130 r2273 b3065e6 Настройки программы : cabac=1 / ref=8 / deblock=1:-3:-2 / analyse=0x3:0x113 / me=umh / subme=10 / psy=1 / psy_rd=1.00:0.05 / mixed_ref=1 / me_range=32 / chroma_me=1 / trellis=2 / 8x8dct=1 / cqm=0 / deadzone=21,11 / fast_pskip=0 / chroma_qp_offset=-3 / threads=9 / lookahead_threads=1 / sliced_threads=0 / nr=0 / decimate=0 / interlaced=0 / bluray_compat=0 / constrained_intra=0 / bframes=8 / b_pyramid=2 / b_adapt=2 / b_bias=0 / direct=3 / weightb=1 / open_gop=0 / weightp=2 / keyint=240 / keyint_min=24 / scenecut=40 / intra_refresh=0 / rc_lookahead=40 / rc=2pass / mbtree=1 / bitrate=1856 / ratetol=1.0 / qcomp=0.60 / qpmin=0 / qpmax=69 / qpstep=4 / cplxblur=20.0 / qblur=0.5 / ip_ratio=1.40 / aq=1:1.00 Язык : English Default : Да Forced : Нет DURATION : 01:53:08.407000000 NUMBER_OF_FRAMES : 162759 NUMBER_OF_BYTES : 1573399398 _STATISTICS_WRITING_APP : mkvmerge v7.2.0 ('On Every Street') 64bit built on Sep 13 2014 15:52:10 _STATISTICS_WRITING_DATE_UTC : 2014-09-24 06:37:42 _STATISTICS_TAGS : BPS DURATION NUMBER_OF_FRAMES NUMBER_OF_BYTESАудио #1: Идентификатор : 2 Формат : AC-3 Формат/Информация : Audio Coding 3 Расширение режима : CM (complete main) Параметр Endianness формата : Big Идентификатор кодека : A_AC3 Продолжительность : 1 ч. 53 м. Вид битрейта : Постоянный Битрейт : 448 Кбит/сек Каналы : 6 каналов Расположение каналов : Front: L C R, Side: L R, LFE Частота : 48,0 КГц Битовая глубина : 16 бит Метод сжатия : С потерями Размер потока : 363 Мбайт (16%) Язык : Russian Default : Да Forced : НетАудио #2: Идентификатор : 3 Формат : AC-3 Формат/Информация : Audio Coding 3 Расширение режима : CM (complete main) Параметр Endianness формата : Big Идентификатор кодека : A_AC3 Продолжительность : 1 ч. 53 м. Вид битрейта : Постоянный Битрейт : 448 Кбит/сек Каналы : 6 каналов Расположение каналов : Front: L C R, Side: L R, LFE Частота : 48,0 КГц Битовая глубина : 16 бит Метод сжатия : С потерями Размер потока : 363 Мбайт (16%) Язык : English Default : Нет Forced : Нет 2,18 Gb 10 7 18 февраля 2016 13:11 Большая афера / The Grand Seduction (2013) BDRip от New-Team | P | лицензия .torrent   [Информация о файле (нажмите для просмотра)] Перевод: Профессиональный (многоголосый закадровый)Качество: BDRip /DVD9 R5 - лицензионный диск от Premium Film + The Grand Seduction.2013.x264.BDremux.1080p-MediaClub.mkvФормат: AVIВидео: 720x384, XViD, 1852 kbps / 23,976 fps / 1,85:1 / bit/pix=0.279Аудио 1: Russian: 48 kHz, AC3, 3/2 (L,C,R,l,r) + LFE ch, 448.00 kbps constantАудио 2: English: 48 kHz, AC3, 3/2 (L,C,R,l,r) + LFE ch, 448.00 kbps constantВидео: Идентификатор : 0 Формат : MPEG-4 Visual Профиль формата : Advanced [email protected] Параметр BVOP формата : 1 Параметр QPel формата : Нет Параметр GMC формата : Без точки перехода Параметр матрицы формата : Выборочная Идентификатор кодека : XVID Идентификатор кодека/Подсказка : XviD Продолжительность : 1 ч. 53 м. Битрейт : 1852 Кбит/сек Ширина : 720 пикселей Высота : 384 пикселя Соотношение сторон : 1,85:1 Частота кадров : 23,976 кадра/сек Цветовое пространство : YUV Субдискретизация насыщенности : 4:2:0 Битовая глубина : 8 бит Тип развёртки : Прогрессивная Метод сжатия : С потерями Бит/(Пиксели*Кадры) : 0.279 Размер потока : 1,46 Гбайт (67%) Библиотека кодирования : XviD 73Аудио #1: Идентификатор : 1 Формат : AC-3 Формат/Информация : Audio Coding 3 Расширение режима : CM (complete main) Параметр Endianness формата : Big Идентификатор кодека : 2000 Продолжительность : 1 ч. 53 м. Вид битрейта : Постоянный Битрейт : 448 Кбит/сек Каналы : 6 каналов Расположение каналов : Front: L C R, Side: L R, LFE Частота : 48,0 КГц Битовая глубина : 16 бит Метод сжатия : С потерями Размер потока : 363 Мбайт (16%) Выравнивание : Разделение по промежуткам Продолжительность промежутка : 42 мс. (1,00 видеокадр) Время предзагрузки промежутка : 500 мс.Аудио #2: Идентификатор : 2 Формат : AC-3 Формат/Информация : Audio Coding 3 Расширение режима : CM (complete main) Параметр Endianness формата : Big Идентификатор кодека : 2000 Продолжительность : 1 ч. 53 м. Вид битрейта : Постоянный Битрейт : 448 Кбит/сек Каналы : 6 каналов Расположение каналов : Front: L C R, Side: L R, LFE Частота : 48,0 КГц Битовая глубина : 16 бит Метод сжатия : С потерями Размер потока : 363 Мбайт (16%) Выравнивание : Разделение по промежуткам Продолжительность промежутка : 42 мс. (1,00 видеокадр) Время предзагрузки промежутка : 500 мс. 2,19 Gb 13 5 18 февраля 2016 13:11 Большая афера / The Grand Seduction (2013) BDRip от New-Team | P | лицензия .torrent   [Информация о файле (нажмите для просмотра)] Перевод: Профессиональный (многоголосый закадровый)Качество: BDRip /DVD9 R5 - лицензионный диск от Premium Film + The Grand Seduction.2013.x264.BDremux.1080p-MediaClub.mkvФормат: AVIВидео: 720x384, XViD, 1391 kbps / 23,976 fps / 1,85:1 / bit/pix=0.210Аудио: Russian: 48 kHz, AC3, 3/2 (L,C,R,l,r) + LFE ch, 448.00 kbps constantВидео: Идентификатор : 0 Формат : MPEG-4 Visual Профиль формата : Advanced [email protected] Параметр BVOP формата : 1 Параметр QPel формата : Нет Параметр GMC формата : Без точки перехода Параметр матрицы формата : Выборочная Идентификатор кодека : XVID Идентификатор кодека/Подсказка : XviD Продолжительность : 1 ч. 53 м. Битрейт : 1391 Кбит/сек Ширина : 720 пикселей Высота : 384 пикселя Соотношение сторон : 1,85:1 Частота кадров : 23,976 кадра/сек Цветовое пространство : YUV Субдискретизация насыщенности : 4:2:0 Битовая глубина : 8 бит Тип развёртки : Прогрессивная Метод сжатия : С потерями Бит/(Пиксели*Кадры) : 0.210 Размер потока : 1,10 Гбайт (75%) Библиотека кодирования : XviD 1.2.1 (UTC 2008-12-04)Аудио: Идентификатор : 1 Формат : AC-3 Формат/Информация : Audio Coding 3 Расширение режима : CM (complete main) Параметр Endianness формата : Big Идентификатор кодека : 2000 Продолжительность : 1 ч. 53 м. Вид битрейта : Постоянный Битрейт : 448 Кбит/сек Каналы : 6 каналов Расположение каналов : Front: L C R, Side: L R, LFE Частота : 48,0 КГц Битовая глубина : 16 бит Метод сжатия : С потерями Размер потока : 363 Мбайт (24%) Выравнивание : Разделение по промежуткам Продолжительность промежутка : 42 мс. (1,00 видеокадр) Время предзагрузки промежутка : 500 мс. 1,46 Gb 58 6 18 февраля 2016 13:11 Большая афера / The Grand Seduction (2013) BDRemux 1080p от New-Team | P | лицензия .torrent   [Информация о файле (нажмите для просмотра)] Перевод: Профессиональный (многоголосый закадровый)Качество: BDRemux 1080p /DVD9 R5 - лицензионный диск от Premium Film + The Grand Seduction.2013.x264.BDremux.1080p-MediaClub.mkvФормат: MKVВидео: 1920x1080, MPEG-4 AVC, 29700 kbps 1080p / 23,976 fps / 16:9 / High Profile 4.1Аудио 1: Russian: 48 kHz, AC3, 3/2 (L,C,R,l,r) + LFE ch, 448.00 kbps constantАудио 2: English: 48 kHz/24-bit, DTS-HD MA 5.1, ~1560.00 kbps avg |оригинал|Видео: Идентификатор : 1 Формат : AVC Формат/Информация : Advanced Video Codec Профиль формата : [email protected] Параметр CABAC формата : Да Параметр ReFrames формата : 4 кадра Идентификатор кодека : V_MPEG4/ISO/AVC Продолжительность : 1 ч. 53 м. Вид битрейта : Переменный Максимальный битрейт : 35,0 Мбит/сек Ширина : 1920 пикселей Высота : 1080 пикселей Соотношение сторон : 16:9 Режим частоты кадров : Постоянный Частота кадров : 23,976 кадра/сек Стандарт вещания : NTSC Цветовое пространство : YUV Субдискретизация насыщенности : 4:2:0 Битовая глубина : 8 бит Тип развёртки : Прогрессивная Язык : English Default : Да Forced : Нет Основные цвета : BT.709 Характеристики трансфера : BT.709 Коэффициенты матрицы : BT.709Аудио #1: Идентификатор : 2 Формат : AC-3 Формат/Информация : Audio Coding 3 Расширение режима : CM (complete main) Параметр Endianness формата : Big Идентификатор кодека : A_AC3 Продолжительность : 1 ч. 53 м. Вид битрейта : Постоянный Битрейт : 448 Кбит/сек Каналы : 6 каналов Расположение каналов : Front: L C R, Side: L R, LFE Частота : 48,0 КГц Битовая глубина : 16 бит Метод сжатия : С потерями Размер потока : 363 Мбайт (1%) Язык : Russian Default : Да Forced : НетАудио #2: Идентификатор : 3 Формат : DTS Формат/Информация : Digital Theater Systems Профиль формата : MA / Core Режим : 16 Параметр Endianness формата : Big Идентификатор кодека : A_DTS Продолжительность : 1 ч. 53 м. Вид битрейта : Переменный Битрейт : Неизвестно / 1509 Кбит/сек Каналы : 6 каналов Расположение каналов : Front: L C R, Side: L R, LFE Частота : 48,0 КГц Битовая глубина : 16 бит Метод сжатия : Без потерь / Lossy Язык : English Default : Нет Forced : Нет 25,56 Gb 4 3 18 февраля 2016 13:11 Большая афера / The Grand Seduction (2013) HDRip от ImperiaFilm | КПК | Чистый звук .torrent   [Информация о файле (нажмите для просмотра)] Качество: HDRip | КПК (BDRip 720p)Видео: кодеккодек: x264,формат: mp4,размер кадра: 480x272, битрейт: 350 кб/сАудио: языкрусский, перевод: Профессиональный (многоголосый, закадровый) - Чистый звук, 386,78 Mb 10 5 18 февраля 2016 13:11 Большая афера / The Grand Seduction (2013) BDRip 1080p | P | Чистый звук .torrent   [Информация о файле (нажмите для просмотра)] Перевод: Профессиональный (многоголосый, закадровый) - Чистый звукКачество: BDRip 1080pФормат: MKVВидео: MPEG4/AVC, 1920х1040 (1.85:1), 8173 Кбит/сек, 23.976 кадра/секАудио 1: AC3, 2 канала, 192 Кбит/сек |РусскийАудио 2: AC3, 6 каналов, 640 Кбит/сек |АнглийскийСубтитры: Английские (Full, SDH)Видео: Идентификатор : 1 Формат : AVC Формат/Информация : Advanced Video Codec Профиль формата : [email protected] Параметр CABAC формата : Да Параметр ReFrames формата : 4 кадра Идентификатор кодека : V_MPEG4/ISO/AVC Продолжительность : 1 ч. 53 м. Битрейт : 8173 Кбит/сек Ширина : 1920 пикселей Высота : 1040 пикселей Соотношение сторон : 1,85:1 Режим частоты кадров : Постоянный Частота кадров : 23,976 кадра/сек Цветовое пространство : YUV Субдискретизация насыщенности : 4:2:0 Битовая глубина : 8 бит Тип развёртки : Прогрессивная Бит/(Пиксели*Кадры) : 0.171 Размер потока : 6,32 Гбайт (89%) Заголовок : AMIABLE Библиотека кодирования : x264 core 142 r2479 dd79a61 Настройки программы : cabac=1 / ref=4 / deblock=1:-3:-3 / analyse=0x3:0x113 / me=umh / subme=8 / psy=1 / psy_rd=1.00:0.00 / mixed_ref=1 / me_range=16 / chroma_me=1 / trellis=1 / 8x8dct=1 / cqm=0 / deadzone=21,11 / fast_pskip=1 / chroma_qp_offset=-2 / threads=12 / lookahead_threads=2 / sliced_threads=0 / nr=0 / decimate=1 / interlaced=0 / bluray_compat=0 / constrained_intra=0 / bframes=3 / b_pyramid=2 / b_adapt=2 / b_bias=0 / direct=3 / weightb=1 / open_gop=0 / weightp=2 / keyint=240 / keyint_min=24 / scenecut=40 / intra_refresh=0 / rc_lookahead=50 / rc=2pass / mbtree=1 / bitrate=8173 / ratetol=1.0 / qcomp=0.60 / qpmin=0 / qpmax=69 / qpstep=4 / cplxblur=20.0 / qblur=0.5 / ip_ratio=1.40 / aq=1:1.00 Язык : English Default : Да Forced : Нет Аудио #1: Идентификатор : 2 Формат : AC-3 Формат/Информация : Audio Coding 3 Расширение режима : CM (complete main) Параметр Endianness формата : Big Идентификатор кодека : A_AC3 Продолжительность : 1 ч. 53 м. Вид битрейта : Постоянный Битрейт : 192 Кбит/сек Каналы : 2 канала Расположение каналов : Front: L R Частота : 48,0 КГц Битовая глубина : 16 бит Метод сжатия : С потерями Размер потока : 155 Мбайт (2%) Заголовок : Rus | Line Язык : Russian Default : Да Forced : Нет Аудио #2: Идентификатор : 3 Формат : AC-3 Формат/Информация : Audio Coding 3 Расширение режима : CM (complete main) Параметр Endianness формата : Big Идентификатор кодека : A_AC3 Продолжительность : 1 ч. 53 м. Вид битрейта : Постоянный Битрейт : 640 Кбит/сек Каналы : 6 каналов Расположение каналов : Front: L C R, Side: L R, LFE Частота : 48,0 КГц Битовая глубина : 16 бит Метод сжатия : С потерями Размер потока : 518 Мбайт (7%) Заголовок : Eng Язык : English Default : Нет Forced : Нет 7,12 Gb 20 2 18 февраля 2016 13:11 Большая афера / The Grand Seduction (2013) BDRip 720p | P | Чистый звук .torrent   [Информация о файле (нажмите для просмотра)] Перевод: Профессиональный (многоголосый, закадровый) - Чистый звукКачество: BDRip 720pФормат: MKVВидео: MPEG4/AVC, 1280х688 (1.85:1), 4020 Кбит/сек, 23.976 кадра/секАудио 1: AC3, 2 канала, 192 Кбит/сек |РусскийАудио 2: AC3, 6 каналов, 640 Кбит/сек |АнглийскийСубтитры: Английские (Full, SDH)Видео: Идентификатор : 1 Формат : AVC Формат/Информация : Advanced Video Codec Профиль формата : [email protected] Параметр CABAC формата : Да Параметр ReFrames формата : 5 кадров Идентификатор кодека : V_MPEG4/ISO/AVC Продолжительность : 1 ч. 53 м. Битрейт : 4020 Кбит/сек Ширина : 1280 пикселей Высота : 688 пикселей Соотношение сторон : 1,85:1 Режим частоты кадров : Постоянный Частота кадров : 23,976 кадра/сек Цветовое пространство : YUV Субдискретизация насыщенности : 4:2:0 Битовая глубина : 8 бит Тип развёртки : Прогрессивная Бит/(Пиксели*Кадры) : 0.190 Размер потока : 3,10 Гбайт (81%) Заголовок : AMIABLE Библиотека кодирования : x264 core 142 r2479 dd79a61 Настройки программы : cabac=1 / ref=5 / deblock=1:-3:-3 / analyse=0x3:0x113 / me=umh / subme=8 / psy=1 / psy_rd=1.00:0.00 / mixed_ref=1 / me_range=16 / chroma_me=1 / trellis=1 / 8x8dct=1 / cqm=0 / deadzone=21,11 / fast_pskip=1 / chroma_qp_offset=-2 / threads=12 / lookahead_threads=2 / sliced_threads=0 / nr=0 / decimate=1 / interlaced=0 / bluray_compat=0 / constrained_intra=0 / bframes=3 / b_pyramid=2 / b_adapt=2 / b_bias=0 / direct=3 / weightb=1 / open_gop=0 / weightp=2 / keyint=240 / keyint_min=24 / scenecut=40 / intra_refresh=0 / rc_lookahead=50 / rc=2pass / mbtree=1 / bitrate=4020 / ratetol=1.0 / qcomp=0.60 / qpmin=0 / qpmax=69 / qpstep=4 / cplxblur=20.0 / qblur=0.5 / ip_ratio=1.40 / aq=1:1.00 Язык : English Default : Да Forced : Нет Аудио #1: Идентификатор : 2 Формат : AC-3 Формат/Информация : Audio Coding 3 Расширение режима : CM (complete main) Параметр Endianness формата : Big Идентификатор кодека : A_AC3 Продолжительность : 1 ч. 53 м. Вид битрейта : Постоянный Битрейт : 192 Кбит/сек Каналы : 2 канала Расположение каналов : Front: L R Частота : 48,0 КГц Битовая глубина : 16 бит Метод сжатия : С потерями Размер потока : 155 Мбайт (4%) Заголовок : Rus | Line Язык : Russian Default : Да Forced : Нет Аудио #2: Идентификатор : 3 Формат : AC-3 Формат/Информация : Audio Coding 3 Расширение режима : CM (complete main) Параметр Endianness формата : Big Идентификатор кодека : A_AC3 Продолжительность : 1 ч. 53 м. Вид битрейта : Постоянный Битрейт : 640 Кбит/сек Каналы : 6 каналов Расположение каналов : Front: L C R, Side: L R, LFE Частота : 48,0 КГц Битовая глубина : 16 бит Метод сжатия : С потерями Размер потока : 518 Мбайт (13%) Заголовок : Eng Язык : English Default : Нет Forced : Нет 3,83 Gb 20 4 18 февраля 2016 13:11 Большая афера / The Grand Seduction (2013) HDTVRip | P | Чистый звук .torrent   [Информация о файле (нажмите для просмотра)] Формат: AVI (XviD)Качество: HDTVRipВидео: 1528 kb/s, 720x384Аудио: AC3, 192 kb/s (2 ch) 1,37 Gb 133 4

gig-torrent.net

Скачать фильм Большая афера через торрент в хорошем качестве бесплатно 720p]

Format                                   : MatroskaFormat version                           : Version 2File size                                : 4.44 GiBDuration                                 : 1h 53mnOverall bit rate                         : 5 618 KbpsMovie name                               : Bol'shaja afera.(2013).BDRip.720p.[denis100]Encoded date                             : UTC 2015-02-28 12:23:51Writing application                      : mkvmerge v5.8.0 ('No Sleep / Pillow') built on Sep  2 2012 15:37:04Writing library                          : libebml v1.2.3 + libmatroska v1.3.0

VideoID                                       : 1Format                                   : AVCFormat/Info                              : Advanced Video CodecFormat profile                           : [email protected] settings, CABAC                   : YesFormat settings, ReFrames                : 9 framesCodec ID                                 : V_MPEG4/ISO/AVCDuration                                 : 1h 53mnBit rate                                 : 3 778 KbpsWidth                                    : 1 280 pixelsHeight                                   : 690 pixelsDisplay aspect ratio                     : 1.855Frame rate                               : 23.976 fpsColor space                              : YUVChroma subsampling                       : 4:2:0Bit depth                                : 8 bitsScan type                                : ProgressiveBits/(Pixel*Frame)                       : 0.178Stream size                              : 2.99 GiB (67%)Title                                    : Bol'shaja afera.(2013).BDRip.720p.[denis100]Writing library                          : x264 core 144 r2525 40bb568Encoding settings                        : cabac=1 / ref=9 / deblock=1:-3:-3 / analyse=0x3:0x133 / me=umh / subme=11 / psy=1 / psy_rd=1.00:0.00 / mixed_ref=1 / me_range=48 / chroma_me=1 / trellis=2 / 8x8dct=1 / cqm=0 / deadzone=21,11 / fast_pskip=0 / chroma_qp_offset=-2 / threads=6 / lookahead_threads=1 / sliced_threads=0 / nr=0 / decimate=1 / interlaced=0 / bluray_compat=0 / constrained_intra=0 / bframes=10 / b_pyramid=2 / b_adapt=2 / b_bias=0 / direct=3 / weightb=1 / open_gop=0 / weightp=2 / keyint=240 / keyint_min=23 / scenecut=40 / intra_refresh=0 / rc=crf / mbtree=0 / crf=17.5 / qcomp=0.60 / qpmin=0 / qpmax=69 / qpstep=4 / ip_ratio=1.40 / pb_ratio=1.30 / aq=1:1.00Language                                 : EnglishDefault                                  : YesForced                                   : No

Audio #1ID                                       : 2Format                                   : AC-3Format/Info                              : Audio Coding 3Mode extension                           : CM (complete main)Codec ID                                 : A_AC3Duration                                 : 1h 53mnBit rate mode                            : ConstantBit rate                                 : 448 KbpsChannel(s)                               : 6 channelsChannel positions                        : Front: L C R, Side: L R, LFESampling rate                            : 48.0 KHzBit depth                                : 16 bitsCompression mode                         : LossyStream size                              : 363 MiB (8%)Title                                    : Профессиональный многоголосый, R5Language                                 : RussianDefault                                  : YesForced                                   : No

Audio #2ID                                       : 3Format                                   : AC-3Format/Info                              : Audio Coding 3Mode extension                           : CM (complete main)Codec ID                                 : A_AC3Duration                                 : 1h 53mnBit rate mode                            : ConstantBit rate                                 : 640 KbpsChannel(s)                               : 6 channelsChannel positions                        : Front: L C R, Side: L R, LFESampling rate                            : 48.0 KHzBit depth                                : 16 bitsCompression mode                         : LossyStream size                              : 518 MiB (11%)Title                                    : Авторский, Юрий СербинLanguage                                 : RussianDefault                                  : NoForced                                   : No

Audio #3ID                                       : 4Format                                   : AC-3Format/Info                              : Audio Coding 3Mode extension                           : CM (complete main)Codec ID                                 : A_AC3Duration                                 : 1h 53mnBit rate mode                            : ConstantBit rate                                 : 640 KbpsChannel(s)                               : 6 channelsChannel positions                        : Front: L C R, Side: L R, LFESampling rate                            : 48.0 KHzBit depth                                : 16 bitsCompression mode                         : LossyStream size                              : 518 MiB (11%)Title                                    : EnglishLanguage                                 : EnglishDefault                                  : NoForced                                   : No

Text #1ID                                       : 5Format                                   : UTF-8Codec ID                                 : S_TEXT/UTF8Codec ID/Info                            : UTF-8 Plain TextTitle                                    : FullLanguage                                 : RussianDefault                                  : NoForced                                   : No

Text #2ID                                       : 6Format                                   : UTF-8Codec ID                                 : S_TEXT/UTF8Codec ID/Info                            : UTF-8 Plain TextTitle                                    : FullLanguage                                 : EnglishDefault                                  : NoForced                                   : No

Text #3ID                                       : 7Format                                   : UTF-8Codec ID                                 : S_TEXT/UTF8Codec ID/Info                            : UTF-8 Plain TextTitle                                    : SDHLanguage                                 : EnglishDefault                                  : NoForced                                   : No

Menu00:00:00.000                             : en:00:00:00.00000:10:15.240                             : en:00:10:15.24000:21:01.552                             : en:00:21:01.55200:31:06.406                             : en:00:31:06.40600:41:32.532                             : en:00:41:32.53200:51:12.111                             : en:00:51:12.11101:03:01.194                             : en:01:03:01.19401:12:34.016                             : en:01:12:34.01601:24:12.547                             : en:01:24:12.54701:37:16.622                             : en:01:37:16.62201:49:11.044                             : en:01:49:11.044

piratbit.ru

Скачать фильм Большая афера через торрент в хорошем качестве бесплатно 1080p / MVO лицензия

Общее

Полное имя : Bolshaya.afera.2013.P.BDRemux.1080p.mkv

Формат : Matroska

Версия формата : Version 4 / Version 2

Размер файла : 25,6 Гбайт

Продолжительность : 1 ч. 53 м.

Режим общего битрейта : Переменный

Общий поток : 32,3 Мбит/сек

Название фильма : MediaClub

Дата кодирования : UTC 2014-09-23 17:32:18

Программа кодирования : mkvmerge v7.2.0 ('On Every Street') 64bit built on Sep 13 2014 15:52:10

Библиотека кодирования : libebml v1.3.0 + libmatroska v1.4.1

_STATISTICS_WRITING_APP : mkvmerge v7.2.0 ('On Every Street') 64bit built on Sep 13 2014 15:52:10

_STATISTICS_WRITING_DATE_UTC : 2014-09-23 17:32:18

_STATISTICS_TAGS : BPS DURATION NUMBER_OF_FRAMES NUMBER_OF_BYTES

DURATION : 01:53:08.416000000

NUMBER_OF_FRAMES : 636414

NUMBER_OF_BYTES : 1601390204

Видео

Идентификатор : 1

Формат : AVC

Формат/Информация : Advanced Video Codec

Профиль формата : [email protected]

Параметр CABAC формата : Да

Параметр ReFrames формата : 4 кадра

Идентификатор кодека : V_MPEG4/ISO/AVC

Продолжительность : 1 ч. 53 м.

Вид битрейта : Переменный

Максимальный битрейт : 35,0 Мбит/сек

Ширина : 1920 пикселей

Высота : 1080 пикселей

Соотношение сторон : 16:9

Режим частоты кадров : Постоянный

Частота кадров : 23,976 кадра/сек

Стандарт вещания : NTSC

Цветовое пространство : YUV

Субдискретизация насыщенности : 4:2:0

Битовая глубина : 8 бит

Тип развёртки : Прогрессивная

Язык : English

Default : Да

Forced : Нет

Основные цвета : BT.709

Характеристики трансфера : BT.709

Коэффициенты матрицы : BT.709

Аудио #1

Идентификатор : 2

Формат : AC-3

Формат/Информация : Audio Coding 3

Расширение режима : CM (complete main)

Параметр Endianness формата : Big

Идентификатор кодека : A_AC3

Продолжительность : 1 ч. 53 м.

Вид битрейта : Постоянный

Битрейт : 448 Кбит/сек

Каналы : 6 каналов

Расположение каналов : Front: L C R, Side: L R, LFE

Частота : 48,0 КГц

Битовая глубина : 16 бит

Метод сжатия : С потерями

Размер потока : 363 Мбайт (1%)

Язык : Russian

Default : Да

Forced : Нет

Аудио #2

Идентификатор : 3

Формат : DTS

Формат/Информация : Digital Theater Systems

Профиль формата : MA / Core

Режим : 16

Параметр Endianness формата : Big

Идентификатор кодека : A_DTS

Продолжительность : 1 ч. 53 м.

Вид битрейта : Переменный

Битрейт : Неизвестно / 1509 Кбит/сек

Каналы : 6 каналов

Расположение каналов : Front: L C R, Side: L R, LFE

Частота : 48,0 КГц

Битовая глубина : 16 бит

Метод сжатия : Без потерь / Lossy

Язык : English

Default : Нет

Forced : Нет

Текст #1

Идентификатор : 4

Формат : UTF-8

Идентификатор кодека : S_TEXT/UTF8

Идентификатор кодека/Информация : UTF-8 Plain Text

Язык : Russian

Default : Нет

Forced : Нет

Текст #2

Идентификатор : 5

Формат : UTF-8

Идентификатор кодека : S_TEXT/UTF8

Идентификатор кодека/Информация : UTF-8 Plain Text

Язык : English

Default : Нет

Forced : Нет

Текст #3

Идентификатор : 6

Формат : UTF-8

Идентификатор кодека : S_TEXT/UTF8

Идентификатор кодека/Информация : UTF-8 Plain Text

Заголовок : SDH

Язык : English

Default : Нет

Forced : Нет

Текст #4

Идентификатор : 7

Формат : UTF-8

Идентификатор кодека : S_TEXT/UTF8

Идентификатор кодека/Информация : UTF-8 Plain Text

Язык : French

Default : Нет

Forced : Нет

Текст #5

Идентификатор : 8

Формат : UTF-8

Идентификатор кодека : S_TEXT/UTF8

Идентификатор кодека/Информация : UTF-8 Plain Text

Заголовок : SDH

Язык : French

Default : Нет

Forced : Нет

Меню

00:00:00.000 : :Chapter 01

00:08:31.427 : :Chapter 02

00:15:51.033 : :Chapter 03

00:21:00.634 : :Chapter 04

00:29:02.073 : :Chapter 05

00:36:40.865 : :Chapter 06

00:45:05.703 : :Chapter 07

00:51:12.152 : :Chapter 08

00:58:23.750 : :Chapter 09

01:06:46.585 : :Chapter 10

01:12:34.099 : :Chapter 11

01:20:29.241 : :Chapter 12

01:27:37.168 : :Chapter 13

01:32:48.020 : :Chapter 14

01:40:28.939 : :Chapter 15

01:49:11.044 : :Chapter 16

piratbit.ru

Скачать фильм Большая афера через торрент в хорошем качестве бесплатно BDRip-AVC

Общее Уникальный идентификатор : 200708834427924885003646900067912012433 (0x96FF1D8D00AF1DC5A6C6D1E95A5E5291) Полное имя : F:\Комедия\Bol'shaya.Afera.2013.DUAL.BDRip.x264.-HELLYWOOD.mkv Формат : Matroska Версия формата : Version 4 / Version 2 Размер файла : 2,18 Гбайт Продолжительность : 1 ч. 53 м. Общий поток : 2760 Кбит/сек Название фильма : The Grand Seduction (2013) - HELLYWOOD Дата кодирования : UTC 2014-10-09 12:13:01 Программа кодирования : mkvmerge v5.9.0 ('On The Loose') built on Dec 15 2012 16:39:58 Библиотека кодирования : libebml v1.3.0 + libmatroska v1.4.0

Видео Идентификатор : 1 Формат : AVC Формат/Информация : Advanced Video Codec Профиль формата : [email protected] Параметр CABAC формата : Да Параметр ReFrames формата : 11 кадров Идентификатор кодека : V_MPEG4/ISO/AVC Продолжительность : 1 ч. 53 м. Битрейт : 1862 Кбит/сек Ширина : 960 пикселей Высота : 518 пикселей Соотношение сторон : 1,85:1 Режим частоты кадров : Постоянный Частота кадров : 23,976 кадра/сек Цветовое пространство : YUV Субдискретизация насыщенности : 4:2:0 Битовая глубина : 8 бит Тип развёртки : Прогрессивная Бит/(Пиксели*Кадры) : 0.156 Размер потока : 1,43 Гбайт (66%) Заголовок : potroks Библиотека кодирования : x264 core 128 r2216M 198a7ea Настройки программы : cabac=1 / ref=12 / deblock=1:-2:-1 / analyse=0x3:0x133 / me=umh / subme=11 / psy=1 / psy_rd=1.10:0.05 / mixed_ref=1 / me_range=48 / chroma_me=1 / trellis=2 / 8x8dct=1 / cqm=0 / deadzone=21,11 / fast_pskip=0 / chroma_qp_offset=-3 / threads=6 / lookahead_threads=1 / sliced_threads=0 / nr=0 / decimate=0 / interlaced=0 / bluray_compat=0 / constrained_intra=0 / bframes=13 / b_pyramid=1 / b_adapt=2 / b_bias=0 / direct=3 / weightb=1 / open_gop=0 / weightp=2 / keyint=250 / keyint_min=22 / scenecut=40 / intra_refresh=0 / rc_lookahead=120 / rc=2pass / mbtree=0 / bitrate=1862 / ratetol=1.0 / qcomp=0.70 / qpmin=0 / qpmax=69 / qpstep=4 / cplxblur=20.0 / qblur=0.5 / vbv_maxrate=50000 / vbv_bufsize=62500 / nal_hrd=none / ip_ratio=1.35 / pb_ratio=1.25 / aq=1:0.75 Язык : English Default : Да Forced : Нет

Аудио #1 Идентификатор : 2 Формат : AC-3 Формат/Информация : Audio Coding 3 Расширение режима : CM (complete main) Параметр Endianness формата : Big Идентификатор кодека : A_AC3 Продолжительность : 1 ч. 53 м. Вид битрейта : Постоянный Битрейт : 448 Кбит/сек Каналы : 6 каналов Расположение каналов : Front: L C R, Side: L R, LFE Частота : 48,0 КГц Битовая глубина : 16 бит Метод сжатия : С потерями Размер потока : 363 Мбайт (16%) Заголовок : MVO | DD 5.1 @ 448 kbps - R5 Язык : Russian Default : Да Forced : Нет

Аудио #2 Идентификатор : 3 Формат : AC-3 Формат/Информация : Audio Coding 3 Расширение режима : CM (complete main) Параметр Endianness формата : Big Идентификатор кодека : A_AC3 Продолжительность : 1 ч. 53 м. Вид битрейта : Постоянный Битрейт : 448 Кбит/сек Каналы : 6 каналов Расположение каналов : Front: L C R, Side: L R, LFE Частота : 48,0 КГц Битовая глубина : 16 бит Метод сжатия : С потерями Размер потока : 363 Мбайт (16%) Заголовок : Original | DD 5.1 @ 448 kbps Язык : English Default : Нет Forced : Нет

Текст #1 Идентификатор : 4 Формат : UTF-8 Идентификатор кодека : S_TEXT/UTF8 Идентификатор кодека/Информация : UTF-8 Plain Text Язык : Russian Default : Нет Forced : Нет

Текст #2 Идентификатор : 5 Формат : UTF-8 Идентификатор кодека : S_TEXT/UTF8 Идентификатор кодека/Информация : UTF-8 Plain Text Заголовок : Full Язык : English Default : Нет Forced : Нет

Текст #3 Идентификатор : 6 Формат : UTF-8 Идентификатор кодека : S_TEXT/UTF8 Идентификатор кодека/Информация : UTF-8 Plain Text Заголовок : SDH Язык : English Default : Нет Forced : Нет

Меню 00:00:00.000 : :Chapter 01 00:08:31.427 : :Chapter 02 00:15:51.033 : :Chapter 03 00:21:00.634 : :Chapter 04 00:29:02.073 : :Chapter 05 00:36:40.865 : :Chapter 06 00:45:05.703 : :Chapter 07 00:51:12.152 : :Chapter 08 00:58:23.750 : :Chapter 09 01:06:46.585 : :Chapter 10 01:12:34.099 : :Chapter 11 01:20:29.241 : :Chapter 12 01:27:37.168 : :Chapter 13 01:32:48.020 : :Chapter 14 01:40:28.939 : :Chapter 15 01:49:11.044 : :Chapter 16

piratbit.ru


Смотрите также