Скачать фильм целуя девушек через торрент в хорошем качестве бесплатно


Целуя девушек 1997 - скачать бесплатно через торрент в хорошем качестве. Без регистрации

Название: Целуя девушек / Kiss the Girls (1997) BDRip 720p | P, P2, A
Качество видео: BDRip 720p
Перевод: Профессиональный (многоголосый, закадровый), Профессиональный (двухголосый, закадровый), Авторский (одноголосый, закадровый)
Формат видео: MKV
Видео: 1280x546 at 23.976 fps, [email protected], ~4569 kbps
Аудио: Russian: 48 kHz, AC3, 3/2 (L,C,R,l,r) + LFE ch, ~448 kbps |Многоголосый закадровый, R5Russian: 48 kHz, AC3, 2/0 (L,R) ch, ~192 kbps |Многоголосый закадровый, THTRussian: 48 kHz, AC3, 3/2 (L,C,R,l,r) + LFE ch, ~448 kbps |Двухголосый закадровыйRussian: 48 kHz, AC3, 3/2 (L,C,R,l,r) + LFE ch, ~448 kbps |Двухголосый закадровый, HTB+Russian: 48 kHz, AC3, 2/0 (L,R) ch, ~192 kbps |Двухголосый закадровый, Премьер Видео фильмRussian: 48 kHz, AC3, 3/2 (L,C,R,l,r) + LFE ch, ~448 kbps |Авторский, А.ГавриловRussian: 48 kHz, AC3, 2/0 (L,R) ch, ~192 kbps |Авторский, Ю.ЖивовRussian: 48 kHz, AC3, 3/2 (L,C,R,l,r) + LFE ch, ~448 kbps |Авторский, Д.ЕсаревRussian: 48 kHz, AC3, 2/0 (L,R) ch, ~192 kbps |Авторский, А.КашкинRussian: 48 kHz, AC3, 2/0 (L,R) ch, ~192 kbps |Авторский, Н.АнтоновEnglish: 48 kHz, AC3, 3/2 (L,C,R,l,r) + LFE ch, ~448 kbps
Скачать

Загрузка начнется в течение 5 сек.

6.64 GB

Название: Целуя девушек / Kiss the Girls (1997) BDRip 1080p от HDClub | P, P2, A
Качество видео: BDRip (1080p)
Перевод: Профессиональный (многоголосый, закадровый), профессиональный (двухголосый, закадровый), авторский (одноголосый, закадровый)
Формат видео: MKV
Видео: 1920x818 at 23.976 fps, [email protected], crf, ~15932 kbps
Аудио: 48 kHz, AC3, 3/2 (L,C,R,l,r) + LFE ch, ~448 kbps | Многоголосый закадровый, R548 kHz, AC3, 3/2 (L,C,R,l,r) + LFE ch, ~384 kbps | Двухголосый закадровый, НТВ+48 kHz, AC3, 2/0 (L,R) ch, ~192 kbps | Двухголосый закадровый, Премьер Видео фильм48 kHz, DTS, 3/2 (L,C,R,l,r) + LFE ch, ~1509 kbps | Одноголосый закадровый, Д. Есарев48 kHz, DTS, 3/2 (L,C,R,l,r) + LFE ch, ~1509 kbps | Оригинал
Скачать

Загрузка начнется в течение 5 сек.

16.13 GB

Название: Целуя девушек / Kiss the Girls (1997) DVD9 | P, A
Качество видео: BD -> DVD9
Видео: MPEG2 NTSC 16:9 ([email protected]) VBR 7033 Kbps, 23.976 fps
Аудио: Dolby AC3, 6 ch, 48.0 KHz, 448 Кbps (многоголосый R5)Dolby AC3, 6 ch, 48.0 KHz, 448 Кbps (многоголосый НТВ+)Dolby AC3, 6 ch, 48.0 KHz, 448 Кbps (оригинал)Dolby AC3, 6 ch, 48.0 KHz, 448 Кbps (двухголосый)Dolby AC3, 6 ch, 48.0 KHz, 448 Кbps (А.Гаврилов)Dolby AC3, 2 ch, 48.0 KHz, 192 Kbps (А.Кашкин)
Скачать

Загрузка начнется в течение 5 сек.

7.83 GB

Название: Целуя девушек / Kiss the Girls (1997) HDRip от Scarabey | Р
Качество видео: HDRip
Перевод: Профессиональный (многоголосый, закадровый)
Видео: 720x304 (2.37:1), 23.976 fps, XviD build 73 ~1339 kbps avg, 0.26 bit/pixel
Аудио: 48 kHz, AC3 Dolby Digital, 3/2 (L,C,R,l,r) + LFE ch, ~448.00 kbps avg
Скачать

Загрузка начнется в течение 5 сек.

1.45 GB

Название: Целуя девушек / Kiss the Girls (1997) BDRip-AVC | P
Качество видео: BDRip-AVC (Исходник BD-Remux [1080p] 32GB)
Перевод: Профессиональный многоголосый [iTunes]
Видео: h.264 2325 Кбит/с, 1168x496, 23.976 кадр/с
Аудио: AC3, 6 ch, 384 Кбит/с
Скачать

Загрузка начнется в течение 5 сек.

2.19 GB

Название: Целуя девушек / Kiss the Girls (1997) BDRip 720p | P
Качество видео: BDRip 720p
Перевод: Профессиональный многоголосый [iTunes]
Видео: h.264 5021 Кбит/с, 1280x544, 23.976 кадр/с
Аудио: AC3, 6 ch, 384 Кбит/с
Скачать

Загрузка начнется в течение 5 сек.

4.37 GB

Название: Целуя девушек / Kiss the Girls (1997) BDRip от HQCLUB
Качество видео: BDRip (источник: Alan James / BD-Remux / 1080p)
Перевод: Профессиональный (двухголосый, закадровый) НТВ+ + Оригинальная звуковая дорожка + Профессиональный (двухголосый, закадровый) (отдельно, http) + Профессиональный (многоголосый, закадровый) ТНТ (отдельн
Формат видео: AVI
Видео: 720x304 (2.37:1), 23,976 fps, XviD build 65 ~1802 kbps avg, 0.34 bit/pixel
Аудио: 48 kHz, AC3 Dolby Digital, 3/2 (L,C,R,l,r) + LFE ch, ~448.00 kbps avg48 kHz, AC3 Dolby Digital, 3/2 (L,C,R,l,r) + LFE ch, ~448.00 kbps avg48 kHz, AC3 Dolby Digital, 3/2 (L,C,R,l,r) + LFE ch, ~448.00 kbps avg (отдельно, http)48 kHz, AC3 Dolby Digital, 2/0 (L,R), ~192.00 kbps avg (отдельно, http)48 kHz, AC3 Dolby Digital, 2/0 (L,R), ~192.00 kbps avg (отдельно, http)48 kHz, AC3 Dolby Digital, 3/2 (L,C,R,l,r) + LFE ch, ~448.00 kbps avg (отдельно, http)48 kHz, AC3 Dolby Digital, 2/0 (L,R), ~192.00 kbps avg (отдельно, http)
Скачать

Загрузка начнется в течение 5 сек.

2.18 GB

Название: Целуя девушек / Kiss the Girls (1997) BDRip-AVC от 0ptimus | P, P2, A
Качество видео: BDRip-AVC
Перевод: Профессиональный (многоголосый закадровый), профессиональный (двухголосый закадровый), авторский (одноголосый закадровый)
Видео: h.264 2130 Кбит/с, 1024x436, 23.976 кадр/с
Аудио: • №1: Русский (AC3, 6 ch, 384 Кбит/с) Профессиональный многоголосый [iTunes]
Скачать

Загрузка начнется в течение 5 сек.

3.43 GB

Название: Целуя девушек / Kiss the Girls (1997) BDRip 1080p от Freeisland
Качество видео: BDRip 1080р
Перевод: Профессиональный (многоголосый закадровый)
Формат видео: MKV
Видео: AVC 1920x818 (2.35:1), 23.976 fps, AVC, 7 733 Kbps
Аудио: AC3AC3, 384 Kbps, 48.0 KHz, 6 ch (MVO - iTunes)AC3, 448 Kbps, 48.0 KHz, 6 ch (DVO - HTB+)AC3, 448 Kbps, 48.0 KHz, 6 ch (DVO)AC3, 448 Kbps, 48.0 KHz, 6 ch (AVO - А.Гаврилов)AC3, 384 Kbps, 48.0 KHz, 6 ch (English)
Скачать

Загрузка начнется в течение 5 сек.

7.95 GB

Название: Целуя девушек / Kiss the Girls (1997) WEB-DLRip от Leon-masl | P
Качество видео: WEB-DLRip
Перевод: Профессиональный (многоголосый закадровый)
Видео: XviD 720x304, 23.976 fps, ~1420 kbps
Аудио: 48 kHz, AC3 Dolby Digital, 3/2 (L,C,R,l,r) + LFE ch, ~384.00 kbps
Скачать

Загрузка начнется в течение 5 сек.

1.46 GB

Название: Целуя девушек / Kiss the Girls (1997) DVDRip от Scarabey
Качество видео: DVDRip
Перевод: Профессиональный (многоголосый, закадровый)
Формат видео: AVI
Видео: 688x288 (2.39:1), 25 fps, XviD build 50 ~800 kbps avg, 0.16 bit/pixel
Аудио: 48 kHz, MPEG Layer 3, 2 ch, ~128.00 kbps avg
Скачать

Загрузка начнется в течение 5 сек.

743.72 MB

Название: Целуя девушек / Kiss the Girls (1997) DVDRip от Scarabey
Качество видео: DVDRip
Перевод: Профессиональный (многоголосый, закадровый)
Формат видео: AVI
Видео: 720x304 (2.37:1), 25 fps, XviD build 50 ~1419 kbps avg, 0.26 bit/pixel
Аудио: 48 kHz, AC3 Dolby Digital, 3/2 (L,C,R,l,r) + LFE ch, ~448.00 kbps avg
Скачать

Загрузка начнется в течение 5 сек.

1.45 GB

Название: Целуя девушек / Kiss the Girls (1997) HDTVRip-AVC | P
Качество видео: HDTVRip-AVC источник HDTV 1080i
Перевод: Профессиональный (двухголосый закадровый) (НТВ+)
Видео: AVC, 1152x490, 25 fps, 2563 kBit/s
Аудио: AAC, 256 kBit/s, 6 ch, 48 kHz
Скачать

Загрузка начнется в течение 5 сек.

2.18 GB

Название: Целуя девушек / Kiss the Girls (1997) HDTVRip-AVC
Качество видео: HDTVRip-AVC (HDTV 1080i)
Перевод: Профессиональный (двухголосый закадровый) (НТВ+), Авторский одноголосый закадровый (Андрей Гаврилов), Оригинал (английский)
Формат видео: MKV
Видео: H.264/AVC, 864x368, 25,000 fps, 1637 kbps, 0.206 bit/pixel
Аудио: Русский, AAC-HE, 2 chnls, 72 kbps | DVO, НТВ+ | DVOРусский, AAC-HE, 2 chnls, 72 kbps | AVO, ГавриловАнглийский, AAC-HE, 2 chnls, 72 kbps | Original
Скачать

Загрузка начнется в течение 5 сек.

1.45 GB

www.kinovit.net

Скачать фильм Целуя девушек через торрент в хорошем качестве бесплатно HDTVRip-AVC] DVO

Размер: 1.45 GB | Добавлен: 5 лет назад | Торрент скачан:134 раза
Реклама Дарим 3000 рублей за регистрацию, не упусти свой шанс получить шикарный бонус!!!

14-10-2012 16:06 Целуя девушек Скачать торрент  

Целуя девушек / Kiss the Girls«Детектив выслеживает серийного убийцу. Его единственная надежда - женщина, которой удалось спастись.»

Год выпуска: 1997Страна: США / Paramount Pictures, Rysher Entertainment Жанр: триллер, драма, криминал, детективБюджет: $27 000 000 Продолжительность: 01:47:36 (01:50:46) - Фин. титры урезаны! (см. посл. скриншот)Перевод: Профессиональный (двухголосый закадровый) (НТВ+), Авторский одноголосый закадровый (Андрей Гаврилов), Оригинал (английский)Субтитры: Русские, Английские

Режиссёр: Гари Фледер

В ролях: Морган Фриман, Эшли Джадд, Кэри Элвис, Алекс МакАртур, Тони Голдвин, Джей О. Сандерс, Билл Нанн, Брайан Кокс, Ричард Т. Джонс, Рома Маффиа

Описание: Похищено восемь молодых красивых и талантливых женщин. Все они могут погибнуть, если полицейский Алекс Кросс и свидетельница Кейт Мактайернан не смогут обнаружить логово неуловимого маньяка, который называет себя Казанова.От городков Дальнего Юга до побережья Калифорнии разворачивается охота. Энергичной свидетельнице Мактайрнан единственной удалось вырваться из лап Казановы, и теперь ее цель — освободить оставшуюся в секретном логове подругу.

Качество: HDTVRip-AVC (HDTV 1080i) Формат: MKVВидео кодек: H.264/AVCАудио кодек: AAC-HEВидео: 864x368, 25,000 fps, 1637 kbps, 0.206 bit/pixelАудио #1,2: Русский, AAC-HE, 2 chnls, 72 kbps | DVO, НТВ+ | DVO Аудио #3: Русский, AAC-HE, 2 chnls, 72 kbps | AVO, ГавриловАудио #4: Английский, AAC-HE, 2 chnls, 72 kbps | Original

Скачать Целуя девушек через торрент http://3.firepic.org/3/images/2012-10/14/wnxizbmyu1h8.jpg Скачать фильм Целуя девушек через торрент бесплантно в хорошем качестве Описание: Похищено восемь молодых красивых и талантливых женщин. Все они могут погибнуть, если полицейский Алекс Кросс и свидетельница ... 2012-10-14 16:06 5 10 1

Loading...

Loading...

Рекламный пират

Дорогой пользователь! Огромная просьба, поблагодарите релизера, оцените раздачу и оставьте свои комментарий, если Вы скачали Целуя девушек через торрент бесплатно! Внесите свою лепту в развитие PiratBit!

Комментировать посты могут только пользователи прошедшие не сложную регистрацию

Целуя девушек через торрент Скачать бесплатно Целуя девушек Целуя девушек скачать торрент Целуя девушек смотреть онлайн Cкачать фильм Целуя девушек бесплатно Целуя девушек скачать торрент в хорошем качестве Целуя девушек смотреть онлайн бесплатно в хорошем качестве

Вы не можете начинать темыВы не можете отвечать на сообщенияВы не можете редактировать свои сообщенияВы не можете удалять свои сообщенияВы не можете голосовать в опросахВы не можете прикреплять файлы к сообщениямВы можете скачивать файлы

piratbit.ru

Скачать фильм Целуя девушек через торрент в хорошем качестве бесплатно 1080p by msltel] 2 x MVO

ОбщееУникальный идентификатор : 190529321379663334373486435921154095172 (0x8F569CCEF48E96C0BCD92CABA6D53844)Полное имя : D:\Video\Целуя девушек.1997.BDRip.1080p by msltel.mkvФормат : MatroskaВерсия формата : Version 4 / Version 2Размер файла : 14,4 ГбайтПродолжительность : 1 ч. 55 м.Общий поток : 17,9 Мбит/секНазвание фильма : Rip by msltelДата кодирования : UTC 2017-09-15 02:33:38Программа кодирования : mkvmerge v8.2.0 ('World of Adventure') 64bitБиблиотека кодирования : libebml v1.3.1 + libmatroska v1.4.2

ВидеоИдентификатор : 1Формат : AVCФормат/Информация : Advanced Video CodecПрофиль формата : [email protected]Параметр CABAC формата : ДаПараметр RefFrames формата : 4 кадраИдентификатор кодека : V_MPEG4/ISO/AVCПродолжительность : 1 ч. 55 м.Битрейт : 12,1 Мбит/секШирина : 1920 пикселейВысота : 818 пикселейСоотношение сторон : 2,35:1Режим частоты кадров : ПостоянныйЧастота кадров : 23,976 (24000/1001) кадра/секЦветовое пространство : YUVСубдискретизация насыщенности : 4:2:0Битовая глубина : 8 битТип развёртки : ПрогрессивнаяБит/(Пиксели*Кадры) : 0.321Размер потока : 9,76 Гбайт (68%)Библиотека кодирования : x264 core 146 r2538 121396cНастройки программы : cabac=1 / ref=4 / deblock=1:-3:-2 / analyse=0x3:0x113 / me=umh / subme=11 / psy=1 / psy_rd=1.00:0.15 / mixed_ref=1 / me_range=32 / chroma_me=1 / trellis=2 / 8x8dct=1 / cqm=0 / deadzone=21,11 / fast_pskip=0 / chroma_qp_offset=-3 / threads=6 / lookahead_threads=1 / sliced_threads=0 / nr=0 / decimate=1 / interlaced=0 / bluray_compat=0 / constrained_intra=0 / bframes=8 / b_pyramid=2 / b_adapt=2 / b_bias=0 / direct=1 / weightb=1 / open_gop=0 / weightp=2 / keyint=230 / keyint_min=23 / scenecut=40 / intra_refresh=0 / rc_lookahead=40 / rc=crf / mbtree=0 / crf=17.6 / qcomp=0.60 / qpmin=0 / qpmax=69 / qpstep=4 / vbv_maxrate=62500 / vbv_bufsize=78125 / crf_max=0.0 / nal_hrd=none / filler=0 / ip_ratio=1.40 / pb_ratio=1.30 / aq=1:1.00Язык : EnglishDefault : ДаForced : Нет

Аудио #1Идентификатор : 2Формат : AC-3Формат/Информация : Audio Coding 3Параметр Endianness формата : BigИдентификатор кодека : A_AC3Продолжительность : 1 ч. 55 м.Вид битрейта : ПостоянныйБитрейт : 448 Кбит/секКаналы : 6 каналовРасположение каналов : Front: L C R, Side: L R, LFEЧастота : 48,0 КГцЧастота кадров : 31,250 кадров/сек (1536 SPF)Битовая глубина : 16 битМетод сжатия : С потерямиРазмер потока : 370 Мбайт (3%)Заголовок : MVO, R5Язык : RussianServiceKind/String : Complete MainDefault : ДаForced : Нет

Аудио #2Идентификатор : 3Формат : AC-3Формат/Информация : Audio Coding 3Параметр Endianness формата : BigИдентификатор кодека : A_AC3Продолжительность : 1 ч. 55 м.Вид битрейта : ПостоянныйБитрейт : 192 Кбит/секКаналы : 2 каналаРасположение каналов : Front: L RЧастота : 48,0 КГцЧастота кадров : 31,250 кадров/сек (1536 SPF)Битовая глубина : 16 битМетод сжатия : С потерямиРазмер потока : 159 Мбайт (1%)Заголовок : MVO, THTЯзык : RussianServiceKind/String : Complete MainDefault : НетForced : Нет

Аудио #3Идентификатор : 4Формат : AC-3Формат/Информация : Audio Coding 3Параметр Endianness формата : BigИдентификатор кодека : A_AC3Продолжительность : 1 ч. 55 м.Вид битрейта : ПостоянныйБитрейт : 448 Кбит/секКаналы : 6 каналовРасположение каналов : Front: L C R, Side: L R, LFEЧастота : 48,0 КГцЧастота кадров : 31,250 кадров/сек (1536 SPF)Битовая глубина : 16 битМетод сжатия : С потерямиРазмер потока : 370 Мбайт (3%)Заголовок : DVOЯзык : RussianServiceKind/String : Complete MainDefault : НетForced : Нет

Аудио #4Идентификатор : 5Формат : AC-3Формат/Информация : Audio Coding 3Параметр Endianness формата : BigИдентификатор кодека : A_AC3Продолжительность : 1 ч. 55 м.Вид битрейта : ПостоянныйБитрейт : 448 Кбит/секКаналы : 6 каналовРасположение каналов : Front: L C R, Side: L R, LFEЧастота : 48,0 КГцЧастота кадров : 31,250 кадров/сек (1536 SPF)Битовая глубина : 16 битМетод сжатия : С потерямиРазмер потока : 370 Мбайт (3%)Заголовок : DVO, HTB+Язык : RussianServiceKind/String : Complete MainDefault : НетForced : Нет

Аудио #5Идентификатор : 6Формат : AC-3Формат/Информация : Audio Coding 3Параметр Endianness формата : BigИдентификатор кодека : A_AC3Продолжительность : 1 ч. 55 м.Вид битрейта : ПостоянныйБитрейт : 192 Кбит/секКаналы : 2 каналаРасположение каналов : Front: L RЧастота : 48,0 КГцЧастота кадров : 31,250 кадров/сек (1536 SPF)Битовая глубина : 16 битМетод сжатия : С потерямиРазмер потока : 159 Мбайт (1%)Заголовок : DVO, Премьер Видео фильмЯзык : RussianServiceKind/String : Complete MainDefault : НетForced : Нет

Аудио #6Идентификатор : 7Формат : AC-3Формат/Информация : Audio Coding 3Параметр Endianness формата : BigИдентификатор кодека : A_AC3Продолжительность : 1 ч. 55 м.Вид битрейта : ПостоянныйБитрейт : 448 Кбит/секКаналы : 6 каналовРасположение каналов : Front: L C R, Side: L R, LFEЧастота : 48,0 КГцЧастота кадров : 31,250 кадров/сек (1536 SPF)Битовая глубина : 16 битМетод сжатия : С потерямиРазмер потока : 370 Мбайт (3%)Заголовок : Андрей ГавриловЯзык : RussianServiceKind/String : Complete MainDefault : НетForced : Нет

Аудио #7Идентификатор : 8Формат : AC-3Формат/Информация : Audio Coding 3Параметр Endianness формата : BigИдентификатор кодека : A_AC3Продолжительность : 1 ч. 55 м.Вид битрейта : ПостоянныйБитрейт : 192 Кбит/секКаналы : 2 каналаРасположение каналов : Front: L RЧастота : 48,0 КГцЧастота кадров : 31,250 кадров/сек (1536 SPF)Битовая глубина : 16 битМетод сжатия : С потерямиРазмер потока : 159 Мбайт (1%)Заголовок : Юрий ЖивовЯзык : RussianServiceKind/String : Complete MainDefault : НетForced : Нет

Аудио #8Идентификатор : 9Формат : DTSФормат/Информация : Digital Theater SystemsРежим : 16Параметр Endianness формата : BigИдентификатор кодека : A_DTSПродолжительность : 1 ч. 55 м.Вид битрейта : ПостоянныйБитрейт : 1509 Кбит/секКаналы : 6 каналовРасположение каналов : Front: L C R, Side: L R, LFEЧастота : 48,0 КГцЧастота кадров : 93,750 кадра/сек (512 SPF)Битовая глубина : 24 битМетод сжатия : С потерямиРазмер потока : 1,22 Гбайт (8%)Заголовок : Дмитрий ЕсаревЯзык : RussianDefault : НетForced : Нет

Аудио #9Идентификатор : 10Формат : AC-3Формат/Информация : Audio Coding 3Параметр Endianness формата : BigИдентификатор кодека : A_AC3Продолжительность : 1 ч. 55 м.Вид битрейта : ПостоянныйБитрейт : 192 Кбит/секКаналы : 2 каналаРасположение каналов : Front: L RЧастота : 48,0 КГцЧастота кадров : 31,250 кадров/сек (1536 SPF)Битовая глубина : 16 битМетод сжатия : С потерямиРазмер потока : 159 Мбайт (1%)Заголовок : Александр КашкинЯзык : RussianServiceKind/String : Complete MainDefault : НетForced : Нет

Аудио #10Идентификатор : 11Формат : AC-3Формат/Информация : Audio Coding 3Параметр Endianness формата : BigИдентификатор кодека : A_AC3Продолжительность : 1 ч. 55 м.Вид битрейта : ПостоянныйБитрейт : 192 Кбит/секКаналы : 2 каналаРасположение каналов : Front: L RЧастота : 48,0 КГцЧастота кадров : 31,250 кадров/сек (1536 SPF)Битовая глубина : 16 битМетод сжатия : С потерямиРазмер потока : 159 Мбайт (1%)Заголовок : Николай АнтоновЯзык : RussianServiceKind/String : Complete MainDefault : НетForced : Нет

Аудио #11Идентификатор : 12Формат : DTSФормат/Информация : Digital Theater SystemsРежим : 16Параметр Endianness формата : BigИдентификатор кодека : A_DTSПродолжительность : 1 ч. 55 м.Вид битрейта : ПостоянныйБитрейт : 1509 Кбит/секКаналы : 6 каналовРасположение каналов : Front: L C R, Side: L R, LFEЧастота : 48,0 КГцЧастота кадров : 93,750 кадра/сек (512 SPF)Битовая глубина : 24 битМетод сжатия : С потерямиРазмер потока : 1,22 Гбайт (8%)Заголовок : originalЯзык : EnglishDefault : НетForced : Нет

Текст #1Идентификатор : 13Формат : UTF-8Идентификатор кодека : S_TEXT/UTF8Идентификатор кодека/Информация : UTF-8 Plain TextПродолжительность : 1 ч. 51 м.Битрейт : 98 бит/секElementCount : 1459Размер потока : 80,3 Кбайт (0%)Заголовок : русскиеЯзык : RussianDefault : НетForced : Нет

Текст #2Идентификатор : 14Формат : UTF-8Идентификатор кодека : S_TEXT/UTF8Идентификатор кодека/Информация : UTF-8 Plain TextПродолжительность : 1 ч. 51 м.Битрейт : 55 бит/секElementCount : 1265Размер потока : 44,7 Кбайт (0%)Заголовок : английскиеЯзык : EnglishDefault : НетForced : Нет

Меню00:00:00.000 : :Chapter 0100:02:31.151 : :Chapter 0200:07:45.715 : :Chapter 0300:10:00.224 : :Chapter 0400:11:13.756 : :Chapter 0500:19:16.530 : :Chapter 0600:23:37.874 : :Chapter 0700:24:59.873 : :Chapter 0800:29:10.206 : :Chapter 0900:32:42.752 : :Chapter 1000:36:04.328 : :Chapter 1100:38:06.367 : :Chapter 1200:40:59.957 : :Chapter 1300:43:34.320 : :Chapter 1400:48:11.096 : :Chapter 1500:53:24.826 : :Chapter 1600:55:58.438 : :Chapter 1700:59:20.765 : :Chapter 1801:02:31.706 : :Chapter 1901:07:51.650 : :Chapter 2001:11:04.635 : :Chapter 2101:15:28.857 : :Chapter 2201:18:48.890 : :Chapter 2301:25:22.826 : :Chapter 2401:36:29.867 : :Chapter 2501:39:23.791 : :Chapter 2601:55:36.304 : :Chapter 27

piratbit.ru

Скачать фильм Целуя девушек через торрент в хорошем качестве бесплатно 720p by msltel] 2 x MVO

ОбщееУникальный идентификатор : 207399228666936985737572263764570434747 (0x9C07A3744B1E64AA910DFAD659906CBB)Полное имя : D:\Video\Целуя девушек.1997.BDRip.720p by msltel.mkvФормат : MatroskaВерсия формата : Version 4 / Version 2Размер файла : 6,64 ГбайтПродолжительность : 1 ч. 55 м.Общий поток : 8221 Кбит/секНазвание фильма : Rip by msltelДата кодирования : UTC 2017-09-14 02:24:58Программа кодирования : mkvmerge v8.2.0 ('World of Adventure') 64bitБиблиотека кодирования : libebml v1.3.1 + libmatroska v1.4.2

ВидеоИдентификатор : 1Формат : AVCФормат/Информация : Advanced Video CodecПрофиль формата : [email protected]Параметр CABAC формата : ДаПараметр RefFrames формата : 9 кадровИдентификатор кодека : V_MPEG4/ISO/AVCПродолжительность : 1 ч. 55 м.Битрейт : 4569 Кбит/секШирина : 1280 пикселейВысота : 546 пикселейСоотношение сторон : 2,35:1Режим частоты кадров : ПостоянныйЧастота кадров : 23,976 (24000/1001) кадра/секЦветовое пространство : YUVСубдискретизация насыщенности : 4:2:0Битовая глубина : 8 битТип развёртки : ПрогрессивнаяБит/(Пиксели*Кадры) : 0.273Размер потока : 3,69 Гбайт (56%)Библиотека кодирования : x264 core 146 r2538 121396cНастройки программы : cabac=1 / ref=9 / deblock=1:-3:-2 / analyse=0x3:0x113 / me=umh / subme=11 / psy=1 / psy_rd=1.00:0.15 / mixed_ref=1 / me_range=32 / chroma_me=1 / trellis=2 / 8x8dct=1 / cqm=0 / deadzone=21,11 / fast_pskip=0 / chroma_qp_offset=-3 / threads=6 / lookahead_threads=1 / sliced_threads=0 / nr=0 / decimate=1 / interlaced=0 / bluray_compat=0 / constrained_intra=0 / bframes=8 / b_pyramid=2 / b_adapt=2 / b_bias=0 / direct=1 / weightb=1 / open_gop=0 / weightp=2 / keyint=230 / keyint_min=23 / scenecut=40 / intra_refresh=0 / rc_lookahead=40 / rc=crf / mbtree=0 / crf=18.0 / qcomp=0.60 / qpmin=0 / qpmax=69 / qpstep=4 / vbv_maxrate=62500 / vbv_bufsize=78125 / crf_max=0.0 / nal_hrd=none / filler=0 / ip_ratio=1.40 / pb_ratio=1.30 / aq=1:1.00Язык : EnglishDefault : ДаForced : Нет

Аудио #1Идентификатор : 2Формат : AC-3Формат/Информация : Audio Coding 3Параметр Endianness формата : BigИдентификатор кодека : A_AC3Продолжительность : 1 ч. 55 м.Вид битрейта : ПостоянныйБитрейт : 448 Кбит/секКаналы : 6 каналовРасположение каналов : Front: L C R, Side: L R, LFEЧастота : 48,0 КГцЧастота кадров : 31,250 кадров/сек (1536 SPF)Битовая глубина : 16 битМетод сжатия : С потерямиРазмер потока : 370 Мбайт (5%)Заголовок : MVO, R5Язык : RussianServiceKind/String : Complete MainDefault : ДаForced : Нет

Аудио #2Идентификатор : 3Формат : AC-3Формат/Информация : Audio Coding 3Параметр Endianness формата : BigИдентификатор кодека : A_AC3Продолжительность : 1 ч. 55 м.Вид битрейта : ПостоянныйБитрейт : 192 Кбит/секКаналы : 2 каналаРасположение каналов : Front: L RЧастота : 48,0 КГцЧастота кадров : 31,250 кадров/сек (1536 SPF)Битовая глубина : 16 битМетод сжатия : С потерямиРазмер потока : 159 Мбайт (2%)Заголовок : MVO, THTЯзык : RussianServiceKind/String : Complete MainDefault : НетForced : Нет

Аудио #3Идентификатор : 4Формат : AC-3Формат/Информация : Audio Coding 3Параметр Endianness формата : BigИдентификатор кодека : A_AC3Продолжительность : 1 ч. 55 м.Вид битрейта : ПостоянныйБитрейт : 448 Кбит/секКаналы : 6 каналовРасположение каналов : Front: L C R, Side: L R, LFEЧастота : 48,0 КГцЧастота кадров : 31,250 кадров/сек (1536 SPF)Битовая глубина : 16 битМетод сжатия : С потерямиРазмер потока : 370 Мбайт (5%)Заголовок : DVOЯзык : RussianServiceKind/String : Complete MainDefault : НетForced : Нет

Аудио #4Идентификатор : 5Формат : AC-3Формат/Информация : Audio Coding 3Параметр Endianness формата : BigИдентификатор кодека : A_AC3Продолжительность : 1 ч. 55 м.Вид битрейта : ПостоянныйБитрейт : 448 Кбит/секКаналы : 6 каналовРасположение каналов : Front: L C R, Side: L R, LFEЧастота : 48,0 КГцЧастота кадров : 31,250 кадров/сек (1536 SPF)Битовая глубина : 16 битМетод сжатия : С потерямиРазмер потока : 370 Мбайт (5%)Заголовок : DVO, HTB+Язык : RussianServiceKind/String : Complete MainDefault : НетForced : Нет

Аудио #5Идентификатор : 6Формат : AC-3Формат/Информация : Audio Coding 3Параметр Endianness формата : BigИдентификатор кодека : A_AC3Продолжительность : 1 ч. 55 м.Вид битрейта : ПостоянныйБитрейт : 192 Кбит/секКаналы : 2 каналаРасположение каналов : Front: L RЧастота : 48,0 КГцЧастота кадров : 31,250 кадров/сек (1536 SPF)Битовая глубина : 16 битМетод сжатия : С потерямиРазмер потока : 159 Мбайт (2%)Заголовок : DVO, Премьер Видео фильмЯзык : RussianServiceKind/String : Complete MainDefault : НетForced : Нет

Аудио #6Идентификатор : 7Формат : AC-3Формат/Информация : Audio Coding 3Параметр Endianness формата : BigИдентификатор кодека : A_AC3Продолжительность : 1 ч. 55 м.Вид битрейта : ПостоянныйБитрейт : 448 Кбит/секКаналы : 6 каналовРасположение каналов : Front: L C R, Side: L R, LFEЧастота : 48,0 КГцЧастота кадров : 31,250 кадров/сек (1536 SPF)Битовая глубина : 16 битМетод сжатия : С потерямиРазмер потока : 370 Мбайт (5%)Заголовок : Андрей ГавриловЯзык : RussianServiceKind/String : Complete MainDefault : НетForced : Нет

Аудио #7Идентификатор : 8Формат : AC-3Формат/Информация : Audio Coding 3Параметр Endianness формата : BigИдентификатор кодека : A_AC3Продолжительность : 1 ч. 55 м.Вид битрейта : ПостоянныйБитрейт : 192 Кбит/секКаналы : 2 каналаРасположение каналов : Front: L RЧастота : 48,0 КГцЧастота кадров : 31,250 кадров/сек (1536 SPF)Битовая глубина : 16 битМетод сжатия : С потерямиРазмер потока : 159 Мбайт (2%)Заголовок : Юрий ЖивовЯзык : RussianServiceKind/String : Complete MainDefault : НетForced : Нет

Аудио #8Идентификатор : 9Формат : AC-3Формат/Информация : Audio Coding 3Параметр Endianness формата : BigИдентификатор кодека : A_AC3Продолжительность : 1 ч. 55 м.Вид битрейта : ПостоянныйБитрейт : 448 Кбит/секКаналы : 6 каналовРасположение каналов : Front: L C R, Side: L R, LFEЧастота : 48,0 КГцЧастота кадров : 31,250 кадров/сек (1536 SPF)Битовая глубина : 16 битМетод сжатия : С потерямиРазмер потока : 370 Мбайт (5%)Заголовок : Дмитрий ЕсаревЯзык : RussianServiceKind/String : Complete MainDefault : НетForced : Нет

Аудио #9Идентификатор : 10Формат : AC-3Формат/Информация : Audio Coding 3Параметр Endianness формата : BigИдентификатор кодека : A_AC3Продолжительность : 1 ч. 55 м.Вид битрейта : ПостоянныйБитрейт : 192 Кбит/секКаналы : 2 каналаРасположение каналов : Front: L RЧастота : 48,0 КГцЧастота кадров : 31,250 кадров/сек (1536 SPF)Битовая глубина : 16 битМетод сжатия : С потерямиРазмер потока : 159 Мбайт (2%)Заголовок : Александр КашкинЯзык : RussianServiceKind/String : Complete MainDefault : НетForced : Нет

Аудио #10Идентификатор : 11Формат : AC-3Формат/Информация : Audio Coding 3Параметр Endianness формата : BigИдентификатор кодека : A_AC3Продолжительность : 1 ч. 55 м.Вид битрейта : ПостоянныйБитрейт : 192 Кбит/секКаналы : 2 каналаРасположение каналов : Front: L RЧастота : 48,0 КГцЧастота кадров : 31,250 кадров/сек (1536 SPF)Битовая глубина : 16 битМетод сжатия : С потерямиРазмер потока : 159 Мбайт (2%)Заголовок : Николай АнтоновЯзык : RussianServiceKind/String : Complete MainDefault : НетForced : Нет

Аудио #11Идентификатор : 12Формат : AC-3Формат/Информация : Audio Coding 3Параметр Endianness формата : BigИдентификатор кодека : A_AC3Продолжительность : 1 ч. 55 м.Вид битрейта : ПостоянныйБитрейт : 448 Кбит/секКаналы : 6 каналовРасположение каналов : Front: L C R, Side: L R, LFEЧастота : 48,0 КГцЧастота кадров : 31,250 кадров/сек (1536 SPF)Битовая глубина : 16 битМетод сжатия : С потерямиРазмер потока : 370 Мбайт (5%)Заголовок : originalЯзык : EnglishServiceKind/String : Complete MainDefault : НетForced : Нет

Текст #1Идентификатор : 13Формат : UTF-8Идентификатор кодека : S_TEXT/UTF8Идентификатор кодека/Информация : UTF-8 Plain TextПродолжительность : 1 ч. 51 м.Битрейт : 98 бит/секElementCount : 1459Размер потока : 80,3 Кбайт (0%)Заголовок : русскиеЯзык : RussianDefault : НетForced : Нет

Текст #2Идентификатор : 14Формат : UTF-8Идентификатор кодека : S_TEXT/UTF8Идентификатор кодека/Информация : UTF-8 Plain TextПродолжительность : 1 ч. 51 м.Битрейт : 55 бит/секElementCount : 1265Размер потока : 44,7 Кбайт (0%)Заголовок : английскиеЯзык : EnglishDefault : НетForced : Нет

Меню00:00:00.000 : :Chapter 0100:02:31.151 : :Chapter 0200:07:45.715 : :Chapter 0300:10:00.224 : :Chapter 0400:11:13.756 : :Chapter 0500:19:16.530 : :Chapter 0600:23:37.874 : :Chapter 0700:24:59.873 : :Chapter 0800:29:10.206 : :Chapter 0900:32:42.752 : :Chapter 1000:36:04.328 : :Chapter 1100:38:06.367 : :Chapter 1200:40:59.957 : :Chapter 1300:43:34.320 : :Chapter 1400:48:11.096 : :Chapter 1500:53:24.826 : :Chapter 1600:55:58.438 : :Chapter 1700:59:20.765 : :Chapter 1801:02:31.706 : :Chapter 1901:07:51.650 : :Chapter 2001:11:04.635 : :Chapter 2101:15:28.857 : :Chapter 2201:18:48.890 : :Chapter 2301:25:22.826 : :Chapter 2401:36:29.867 : :Chapter 2501:39:23.791 : :Chapter 2601:55:36.304 : :Chapter 27

piratbit.ru


Смотрите также