Скачать фильм человек ноября через торрент в хорошем качестве 2014


Скачать фильм Человек ноября (2014) через торрент

20 февраля 2016 06:46 Человек ноября / The November Man (2014) Blu-ray 1080p от BLUEBIRD | D .torrent   [Информация о файле (нажмите для просмотра)] Перевод: Профессиональный (полное дублирование) + Оригинал (английский) + КомментарииСубтитры: Английские, Русские [PGS]Качество: Blu-ray 1080pФормат: BDMVВидео: 1920x1080 (16:9), 23.976 fps, MPEG-4 AVC Video, ~29056 kbps, High Profile 4.1Аудио#1: DTS-HD Master Audio Russian 1996 kbps 5.1 / 48 kHz / 1996 kbps / 16-bit (DTS Core: 5.1 / 48 kHz / 1509 kbps / 16-bit)|Дубляж|Аудио#2: Dolby Digital Audio English 224 kbps 2.0 / 48 kHz / 224 kbps|Commentary|Аудио#3: DTS-HD Master Audio English 3770 kbps 5.1 / 48 kHz / 3770 kbps / 24-bit (DTS Core: 5.1 / 48 kHz / 1509 kbps / 24-bit) 36,09 Gb 9 5 20 февраля 2016 06:46 Человек ноября / The November Man (2014) BDRip | Гаврилов .torrent   [Информация о файле (нажмите для просмотра)] Перевод: Авторский (одноголосый, закадровый) А.ГавриловСубтитры: отсутствуютКачество: BDRipВидео: XviD, 1473 Кбит/с, 720x304Аудио: Русский (AC3, 6 ch, 448 Кбит/с) 1,46 Gb 14 2 20 февраля 2016 06:46 Человек ноября / The November Man (2014) DVD5 от New-Team | D | Лицензия .torrent   [Информация о файле (нажмите для просмотра)] Перевод: Профессиональный (полное дублирование)Кодек: MPEG2Качество: DVD5Видео: PAL 16:9 (720x576) VBR ~ 5620.24 kbps avgЗвук: Русский DD 5.1 (384Kbps) 4,23 Gb 9 4 20 февраля 2016 06:46 Человек ноября / The November Man (2014) BDRip-AVC от HQCLUB | US Transfer | Лицензия .torrent   [Информация о файле (нажмите для просмотра)] Перевод: Профессиональный (полное дублирование),BD RUSСубтитры: Русские (полные), Английские (полные, полные SDH, полные SDH цветные)Формат: MKVКачество: BDRip-AVC (источник / Blu-ray [US] Disc / 1080p)Видео: 1152x480 (2.40:1), 23.976 fps, MPEG-4 AVC, ~3251 kbps avg, 0.245 bit/pixelАудио #1: 48 kHz, AC3 Dolby Digital, 3/2 (L,C,R,l,r) + LFE ch, ~448 kbps avg (DUB)Аудио #2: 48 kHz, AC3 Dolby Digital, 3/2 (L,C,R,l,r) + LFE ch, ~448 kbps avg (ENG)Видео: Идентификатор : 1 Формат : AVC Формат/Информация : Advanced Video Codec Профиль формата : [email protected] Параметр CABAC формата : Да Параметр ReFrames формата : 11 кадров Идентификатор кодека : V_MPEG4/ISO/AVC Продолжительность : 1 ч. 48 м. Битрейт : 3251 Кбит/сек Ширина : 1152 пикселя Высота : 480 пикселей Соотношение сторон : 2,40:1 Режим частоты кадров : Постоянный Частота кадров : 23,976 кадра/сек Цветовое пространство : YUV Субдискретизация насыщенности : 4:2:0 Битовая глубина : 8 бит Тип развёртки : Прогрессивная Бит/(Пиксели*Кадры) : 0.245 Размер потока : 2,46 Гбайт (77%) Заголовок : Человек ноября / The November Man (2014) [US] BDRip-AVC by HQCLUB [Elheym] Библиотека кодирования : x264 core 142 r2491kMod 24e4fed Настройки программы : cabac=1 / ref=11 / deblock=1:-3:-2 / analyse=0x3:0x133 / me=umh / subme=11 / psy=1 / fade_compensate=0.00 / psy_rd=1.06:0.00 / mixed_ref=1 / me_range=32 / chroma_me=1 / trellis=2 / 8x8dct=1 / cqm=0 / deadzone=21,11 / fast_pskip=0 / chroma_qp_offset=-4 / threads=6 / lookahead_threads=1 / sliced_threads=0 / nr=0 / decimate=0 / interlaced=0 / bluray_compat=0 / constrained_intra=0 / fgo=0 / bframes=14 / b_pyramid=2 / b_adapt=2 / b_bias=0 / direct=3 / weightb=1 / open_gop=0 / weightp=2 / keyint=230 / keyint_min=23 / scenecut=40 / intra_refresh=0 / rc_lookahead=40 / rc=crf / mbtree=0 / crf=17.6000 / qcomp=0.70 / qpmin=0 / qpmax=69 / qpstep=4 / vbv_maxrate=50000 / vbv_bufsize=62500 / crf_max=0.0 / nal_hrd=none / filler=0 / ip_ratio=1.40 / pb_ratio=1.30 / aq=2:0.90 / zones=150407,155879,q=40 Язык : English Default : Да Forced : НетАудио #1: Идентификатор : 2 Формат : AC-3 Формат/Информация : Audio Coding 3 Расширение режима : CM (complete main) Параметр Endianness формата : Big Идентификатор кодека : A_AC3 Продолжительность : 1 ч. 48 м. Вид битрейта : Постоянный Битрейт : 448 Кбит/сек Каналы : 6 каналов Расположение каналов : Front: L C R, Side: L R, LFE Частота : 48,0 КГц Битовая глубина : 16 бит Метод сжатия : С потерями Размер потока : 347 Мбайт (11%) Заголовок : АС3 5.1 @ 448 kbps - Dub, BD RUS Язык : Russian Default : Нет Forced : НетАудио #2: Идентификатор : 3 Формат : AC-3 Формат/Информация : Audio Coding 3 Расширение режима : CM (complete main) Параметр Endianness формата : Big Идентификатор кодека : A_AC3 Продолжительность : 1 ч. 48 м. Вид битрейта : Постоянный Битрейт : 448 Кбит/сек Каналы : 6 каналов Расположение каналов : Front: L C R, Side: L R, LFE Частота : 48,0 КГц Битовая глубина : 16 бит Метод сжатия : С потерями Размер потока : 347 Мбайт (11%) Заголовок : АС3 5.1 @ 448 kbps - Original Язык : English Default : Нет Forced : Нет 3,2 Gb 24 1 20 февраля 2016 06:46 Человек ноября / The November Man (2014) BDRip-AVC от HELLYWOOD | Лицензия .torrent   [Информация о файле (нажмите для просмотра)] Перевод: Профессиональный (полное дублирование) [лицензия BD RUS]Субтитры: Русские, английские (Full + SDH + SDH-Colored)Качество: BDRip-AVCФормат: MKVВидео: х.264, 960x400 (2,40:1), 23,976 fps, 1481 kbps, 0.161 bit/pixelАудио: 48 kHz, AC3 Dolby Digital, 3/2 (L,C,R,l,r) + LFE ch, 448.00 kbps 1,46 Gb 47 1 20 февраля 2016 06:46 Человек ноября / The November Man (2014) BDRip-AVC от HELLYWOOD | Лицензия .torrent   [Информация о файле (нажмите для просмотра)] Перевод: Профессиональный (полное дублирование) [лицензия BD RUS]Субтитры: Русские, английские (Full + SDH + SDH-Colored)Качество: BDRip-AVCФормат: MKVВидео: х.264, 1056x440 (2,40:1), 23,976 fps, 1982 kbps, 0.178 bit/pixelАудио#1: 48 kHz, AC3 Dolby Digital, 3/2 (L,C,R,l,r) + LFE ch, 448.00 kbps |RUSАудио#2: 48 kHz, AC3 Dolby Digital, 3/2 (L,C,R,l,r) + LFE ch, 448.00 kbps |ENG 2,18 Gb 23 3 20 февраля 2016 06:46 Человек ноября / The November Man (2014) BDRip 1080p | US | Лицензия .torrent   [Информация о файле (нажмите для просмотра)] Перевод: Профессиональный дублированныйКодек: x264Формат: MKVКачество: BDRip 1080pВидео: MPEG-4 AVCСубтитры: SRT 7,76 Gb 18 3 20 февраля 2016 06:46 Человек ноября / The November Man (2014) BDRip-AVC от New-Team | D | Лицензия .torrent   [Информация о файле (нажмите для просмотра)] Перевод: Профессиональный (полное дублирование) [Лицензия]Видео: 899 Кбит/сек, 768*320 (2,40:1), в 23,976 кадр/сек, AVCАудио: Russian, 64,0 Кбит/сек, 48,0 КГц / 24,0 КГц, 2 канала(ов), AAC (HE-AAC / LC)Видео: Идентификатор : 1 Формат : AVC Формат/Информация : Advanced Video Codec Профиль формата : [email protected] Параметр CABAC формата : Да Параметр ReFrames формата : 12 кадры Идентификатор кодека : V_MPEG4/ISO/AVC Продолжительность : 1 ч. 48 м. Номинальный битрейт : 899 Кбит/сек Ширина : 768 пикс. Высота : 320 пикс. Соотношение сторон : 2,40:1 Частота кадров : 23,976 кадр/сек Цветовое пространство : YUV Подвыборка цветности : 4:2:0 Битовая глубина : 8 бит Тип развёртки : Прогрессивная Бит/(Пиксели*Кадры) : 0.153 Библиотека кодирования : x264 core 142 r2491kMod 24e4fed Настройки программы : cabac=1 / ref=12 / deblock=1:-2:-2 / analyse=0x3:0x133 / me=umh / subme=11 / psy=1 / fade_compensate=0.00 / psy_rd=1.00:0.05 / mixed_ref=1 / me_range=32 / chroma_me=1 / trellis=2 / 8x8dct=1 / cqm=0 / deadzone=21,11 / fast_pskip=0 / chroma_qp_offset=-3 / threads=12 / lookahead_threads=2 / sliced_threads=0 / nr=0 / decimate=0 / interlaced=0 / bluray_compat=0 / constrained_intra=0 / fgo=0 / bframes=15 / b_pyramid=2 / b_adapt=2 / b_bias=0 / direct=3 / weightb=1 / open_gop=0 / weightp=2 / keyint=240 / keyint_min=23 / scenecut=40 / intra_refresh=0 / rc_lookahead=60 / rc=2pass / mbtree=0 / bitrate=899 / ratetol=1.0 / qcomp=0.70 / qpmin=0 / qpmax=69 / qpstep=4 / cplxblur=20.0 / qblur=0.5 / vbv_maxrate=50000 / vbv_bufsize=62500 / nal_hrd=none / filler=0 / ip_ratio=1.30 / pb_ratio=1.20 / aq=3:0.90Аудио: Идентификатор : 2 Формат : AAC Формат/Информация : Advanced Audio Codec Профиль формата : HE-AAC / LC Идентификатор кодека : A_AAC Продолжительность : 1 ч. 48 м. Канал(ы) : 2 канала(ов) Расположение каналов : Front: L R Частота : 48,0 КГц / 24,0 КГц Метод сжатия : С потерями Задержка видео : 31 мс. Язык : Russian 747,85 Mb 22 5 20 февраля 2016 06:46 Человек ноября / The November Man (2014) BDRip от HQCLUB | US | Лицензия .torrent   [Информация о файле (нажмите для просмотра)] Перевод: Профессиональный (полное дублирование) BD RUS + Оригинальная звуковая дорожкаСубтитры: Английские (полные, SDH, SDH Colored) (внешние srt*) +Русские (внешние srt*)Формат: AVIКачество: BDRip (источник: ExKinoray /BD-Remux US / 1080p)Видео: 720x304 (2.37:1), 23.976 fps, XviD build 65 ~1983 kbps avg, 0.38 bit/pixelАудио #1: 48 kHz, AC3 Dolby Digital, 3/2 (L,C,R,l,r) + LFE ch, ~448.00 kbps avgАудио #2: 48 kHz, AC3 Dolby Digital, 3/2 (L,C,R,l,r) + LFE ch, ~448.00 kbps avg 2,18 Gb 34 2 20 февраля 2016 06:46 Человек ноября / The November Man (2014) BDRip-AVC от New-Team | D | Лицензия .torrent   [Информация о файле (нажмите для просмотра)] Перевод: Профессиональный (полное дублирование) [Лицензия]Видео: 1547 Кбит/сек, 1008*420 (2,40:1), в 23,976 кадр/сек, AVCАудио: Russian, 384 Кбит/сек, 48,0 КГц, 16 бит, 6 канала(ов), AC-3Видео: Идентификатор : 1 Формат : AVC Формат/Информация : Advanced Video Codec Профиль формата : [email protected] Параметр CABAC формата : Да Параметр ReFrames формата : 12 кадры Идентификатор кодека : V_MPEG4/ISO/AVC Продолжительность : 1 ч. 48 м. Битрейт : 1547 Кбит/сек Ширина : 1008 пикс. Высота : 420 пикс. Соотношение сторон : 2,40:1 Частота кадров : 23,976 кадр/сек Цветовое пространство : YUV Подвыборка цветности : 4:2:0 Битовая глубина : 8 бит Тип развёртки : Прогрессивная Бит/(Пиксели*Кадры) : 0.152 Размер потока : 1,14 Гбайт (78%) Библиотека кодирования : x264 core 142 r2491kMod 24e4fed Настройки программы : cabac=1 / ref=12 / deblock=1:-3:-3 / analyse=0x3:0x133 / me=umh / subme=11 / psy=1 / fade_compensate=0.00 / psy_rd=1.00:0.10 / mixed_ref=1 / me_range=32 / chroma_me=1 / trellis=2 / 8x8dct=1 / cqm=0 / deadzone=21,11 / fast_pskip=0 / chroma_qp_offset=-3 / threads=12 / lookahead_threads=3 / sliced_threads=0 / nr=0 / decimate=0 / interlaced=0 / bluray_compat=0 / constrained_intra=0 / fgo=0 / bframes=13 / b_pyramid=2 / b_adapt=2 / b_bias=0 / direct=3 / weightb=1 / open_gop=0 / weightp=2 / keyint=240 / keyint_min=23 / scenecut=40 / intra_refresh=0 / rc_lookahead=60 / rc=2pass / mbtree=0 / bitrate=1547 / ratetol=1.0 / qcomp=0.70 / qpmin=0 / qpmax=69 / qpstep=4 / cplxblur=20.0 / qblur=0.5 / vbv_maxrate=50000 / vbv_bufsize=62500 / nal_hrd=none / filler=0 / ip_ratio=1.40 / pb_ratio=1.30 / aq=3:0.90Аудио: Идентификатор : 2 Формат : AC-3 Формат/Информация : Audio Coding 3 Расширение режима : CM (complete main) Идентификатор кодека : A_AC3 Продолжительность : 1 ч. 48 м. Вид битрейта : Постоянный Битрейт : 384 Кбит/сек Канал(ы) : 6 канала(ов) Расположение каналов : Front: L C R, Side: L R, LFE Частота : 48,0 КГц Битовая глубина : 16 бит Метод сжатия : С потерями Размер потока : 298 Мбайт (20%) Язык : Russian 1,46 Gb 26 1 20 февраля 2016 06:45 Человек ноября / The November Man (2014) BDRip 1080p от Leonardo and Scarabey | Лицензия .torrent   [Информация о файле (нажмите для просмотра)] Перевод: Профессиональный (полное дублирование) ЛицензияФормат: MKVВидео кодек: MPEG-4 AVC Аудио кодек: AC3Видео: AVC, 1920x800 (2.40:1) at 23.976 fps, AVC at 11.6 Mbps avg, 0.314 bit/pixelАудио: Russian; AC3; 640 Kbps; CBR; 6 ch; 16 bitСубтитры: Русские, английские 9,42 Gb 18 2 20 февраля 2016 06:45 Человек ноября / The November Man (2014) BDRip 720p от Leonardo and Scarabey | Лицензия .torrent   [Информация о файле (нажмите для просмотра)] Перевод: Профессиональный (полное дублирование) ЛицензияФормат: MKVВидео кодек: MPEG-4 AVC Аудио кодек: AC3Видео: AVC, 1280x534 (2.40:1) at 23.976 fps, AVC at 3854 kbps avg, 0.235 bit/pixelАудио: Russian; AC3; 640 Kbps; CBR; 6 ch; 16 bitСубтитры: Русские, английские 3,47 Gb 51 6 20 февраля 2016 06:45 Человек ноября / The November Man (2014) HDRip от Scarabey | D | Лицензия .torrent   [Информация о файле (нажмите для просмотра)] Перевод: Профессиональный (дублированный) - ЛицензияВидео: 720x304 (2.37:1), 23.976 fps, XviD build 73 ~1521 kbps avg, 0.29 bit/pixelАудио: 48 kHz, AC3 Dolby Digital, 3/2 (L,C,R,l,r) + LFE ch, ~448.00 kbps avg 1,5 Gb 77 5 20 февраля 2016 06:45 Человек ноября / The November Man (2014) HDRip от Scarabey | D | Лицензия .torrent   [Информация о файле (нажмите для просмотра)] Перевод: Профессиональный (дублированный) - ЛицензияВидео: 688x288 (2.39:1), 23.976 fps, XviD build 73 ~828 kbps avg, 0.17 bit/pixelАудио: 48 kHz, MPEG Layer 3, 2 ch, ~128.00 kbps avg 748,54 Mb 11 1 20 февраля 2016 06:45 Человек ноября / The November Man (2014) BDRip-AVC от ExKinoRay | Лицензия .torrent   [Информация о файле (нажмите для просмотра)] Перевод: Профессиональный (дублированный) ЛицензияКачество: BDRip (AVC)Видео: MPEG-4 AVC, 1824 Кбит/с, 1024x426, 23.976 Кадр/сАудио: Русский (AC3, 6 ch, 448 Кбит/с), английский (AC3, 6 ch, 448 Кбит/с), (AC3, 2 ch, 224 Кбит/с)Субтитры: АнглийскиеВидео: Идентификатор : 1 Формат : AVC Формат/Информация : Advanced Video Codec Профиль формата : [email protected] Параметр CABAC формата : Да Параметр ReFrames формата : 10 кадров Идентификатор кодека : V_MPEG4/ISO/AVC Продолжительность : 1 ч. 48 м. Битрейт : 1824 Кбит/сек Ширина : 1024 пикселя Высота : 426 пикселей Соотношение сторон : 2,40:1 Режим частоты кадров : Постоянный Частота кадров : 23,976 кадра/сек Цветовое пространство : YUV Субдискретизация насыщенности : 4:2:0 Битовая глубина : 8 бит Тип развёртки : Прогрессивная Бит/(Пиксели*Кадры) : 0.174 Размер потока : 1,34 Гбайт (60%) Заголовок : Chelovek.noyabrya.2014.x264.BDRip.AVC.gogamel74.ExKinoRay Библиотека кодирования : x264 core 142 r2431 ac76440 Настройки программы : cabac=1 / ref=10 / deblock=1:-3:-3 / analyse=0x3:0x133 / me=umh / subme=11 / psy=1 / psy_rd=1.00:0.15 / mixed_ref=1 / me_range=32 / chroma_me=1 / trellis=2 / 8x8dct=1 / cqm=0 / deadzone=21,11 / fast_pskip=0 / chroma_qp_offset=-3 / threads=8 / lookahead_threads=2 / sliced_threads=0 / nr=0 / decimate=0 / interlaced=0 / bluray_compat=0 / constrained_intra=0 / bframes=10 / b_pyramid=2 / b_adapt=2 / b_bias=0 / direct=3 / weightb=1 / open_gop=0 / weightp=2 / keyint=240 / keyint_min=23 / scenecut=40 / intra_refresh=0 / rc_lookahead=60 / rc=2pass / mbtree=1 / bitrate=1824 / ratetol=1.0 / qcomp=0.70 / qpmin=0 / qpmax=69 / qpstep=4 / cplxblur=20.0 / qblur=0.5 / vbv_maxrate=50000 / vbv_bufsize=62500 / nal_hrd=none / filler=0 / ip_ratio=1.40 / aq=1:1.00 Язык : English Default : Да Forced : ДаАудио #1: Идентификатор : 2 Формат : AC-3 Формат/Информация : Audio Coding 3 Расширение режима : CM (complete main) Параметр Endianness формата : Big Идентификатор кодека : A_AC3 Продолжительность : 1 ч. 48 м. Вид битрейта : Постоянный Битрейт : 448 Кбит/сек Каналы : 6 каналов Расположение каналов : Front: L C R, Side: L R, LFE Частота : 48,0 КГц Битовая глубина : 16 бит Метод сжатия : С потерями Размер потока : 347 Мбайт (15%) Заголовок : DUB - RUS - BD RUS - AC3, 48 KHz, 6 ch, 448 kbps, 16 bit Язык : Russian Default : Да Forced : ДаАудио #2: Идентификатор : 3 Формат : AC-3 Формат/Информация : Audio Coding 3 Расширение режима : CM (complete main) Параметр Endianness формата : Big Идентификатор кодека : A_AC3 Продолжительность : 1 ч. 48 м. Вид битрейта : Постоянный Битрейт : 448 Кбит/сек Каналы : 6 каналов Расположение каналов : Front: L C R, Side: L R, LFE Частота : 48,0 КГц Битовая глубина : 16 бит Метод сжатия : С потерями Размер потока : 347 Мбайт (15%) Заголовок : Original - ENG - BD - AC3, 48 KHz, 6 ch, 448 kbps, 16 bit Язык : English Default : Нет Forced : НетАудио #3: Идентификатор : 4 Формат : AC-3 Формат/Информация : Audio Coding 3 Расширение режима : CM (complete main) Параметр Endianness формата : Big Идентификатор кодека : A_AC3 Продолжительность : 1 ч. 48 м. Вид битрейта : Постоянный Битрейт : 224 Кбит/сек Каналы : 2 канала Расположение каналов : Front: L R Частота : 48,0 КГц Битовая глубина : 16 бит Метод сжатия : С потерями Размер потока : 174 Мбайт (8%) Заголовок : Commentary - ENG - BD - AC3, 48 KHz, 2 ch, 224 kbps, 16 bit Язык : English Default : Нет Forced : Нет 2,23 Gb 45 5 20 февраля 2016 06:45 Человек ноября / The November Man (2014) BDRip 1080p от HQ-ViDEO | Лицензия .torrent   [Информация о файле (нажмите для просмотра)] Перевод: Профессиональный дублированный /Лицензия/Субтитры: Русские, Английские (+SDH)|отключаемые *.srt|Видео: x.264, 1920x800 (2.40:1), ~15 067 kbps avg, 23,976 fpsАудио #1: AC3 Dolby Digital, 48 KHz, ~640 kbps, 3/2 (L,C,R,l,r) + LFE ch/RUS/Аудио #2: AC3 Dolby Digital, 48 KHz, ~640 kbps, 3/2 (L,C,R,l,r) + LFE ch/ENG/ 12,37 Gb 10 1 20 февраля 2016 06:45 Человек ноября / The November Man (2014) BDRip 1080p .torrent   [Информация о файле (нажмите для просмотра)] Перевод: Профессиональный (дублированный)Кодек: MKVКачество: BDRip 1080pВидео: MPEG-4 AVC, 11,5 Мбит/с, 1920x800, 23,976 fpsЗвук: Аудио: Rus, DTS, 1510 kb/s (6 ch), 48 kHz Аудио 2: Eng, DTS, 1510 kb/s (6 ch), 48 kHzСубтитры: английские 11,23 Gb 14 2 20 февраля 2016 06:45 Человек ноября / The November Man (2014) BDRemux 1080p от ExKinoRay | Лицензия .torrent   [Информация о файле (нажмите для просмотра)] Перевод: Профессиональный (дублированный) ЛицензияКачество: Blu-Ray Remux (1080p)Видео: MPEG-4 AVC, 29056 Кбит/с, 1920x1080, 23.976 Кадр/сАудио: Русский (DTS-HD MA, 6 ch, 2000 Кбит/с), английский (DTS-HD MA, 6 ch, 3770 Кбит/с), (AC3, 2 ch, 224 Кбит/с)Субтитры: АнглийскиеВидео: Идентификатор : 1 Формат : AVC Формат/Информация : Advanced Video Codec Профиль формата : [email protected] Параметр CABAC формата : Да Параметр ReFrames формата : 2 кадра Идентификатор кодека : V_MPEG4/ISO/AVC Продолжительность : 1 ч. 48 м. Вид битрейта : Переменный Ширина : 1920 пикселей Высота : 1080 пикселей Соотношение сторон : 16:9 Режим частоты кадров : Постоянный Частота кадров : 23,976 кадра/сек Цветовое пространство : YUV Субдискретизация насыщенности : 4:2:0 Битовая глубина : 8 бит Тип развёртки : Прогрессивная Заголовок : Chelovek.noyabrya.2014.x264.Blu-Ray.Remux.1080p.gogamel74.ExKinoRay Язык : English Default : Да Forced : ДаАудио #1: Идентификатор : 2 Формат : DTS Формат/Информация : Digital Theater Systems Профиль формата : MA / Core Режим : 16 Параметр Endianness формата : Big Идентификатор кодека : A_DTS Продолжительность : 1 ч. 48 м. Вид битрейта : Переменный Битрейт : Неизвестно / 1509 Кбит/сек Каналы : 6 каналов Расположение каналов : Front: L C R, Side: L R, LFE Частота : 48,0 КГц Битовая глубина : 16 бит Метод сжатия : Без потерь / Lossy Задержка видео : 21 мс. Заголовок : DUB - RUS - BD RUS - DTS-HD MA, 48 KHz, 6 ch, 2000 kbps, 16 bit Язык : Russian Default : Да Forced : ДаАудио #2: Идентификатор : 3 Формат : DTS Формат/Информация : Digital Theater Systems Профиль формата : MA / Core Режим : 16 Параметр Endianness формата : Big Идентификатор кодека : A_DTS Продолжительность : 1 ч. 48 м. Вид битрейта : Переменный Битрейт : Неизвестно / 1509 Кбит/сек Каналы : 6 каналов Расположение каналов : Front: L C R, Side: L R, LFE Частота : 48,0 КГц Битовая глубина : 24 бит Метод сжатия : Без потерь / Lossy Заголовок : Original - ENG - BD - DTS-HD MA, 48 KHz, 6 ch, 3770 kbps, 24 bit Язык : English Default : Нет Forced : НетАудио #3: Идентификатор : 4 Формат : AC-3 Формат/Информация : Audio Coding 3 Расширение режима : CM (complete main) Параметр Endianness формата : Big Идентификатор кодека : A_AC3 Продолжительность : 1 ч. 48 м. Вид битрейта : Постоянный Битрейт : 224 Кбит/сек Каналы : 2 канала Расположение каналов : Front: L R Частота : 48,0 КГц Битовая глубина : 16 бит Метод сжатия : С потерями Размер потока : 174 Мбайт (1%) Заголовок : Commentary - ENG - BD - AC3, 48 KHz, 2 ch, 224 kbps, 16 bit Язык : English Default : Нет Forced : Нет 26,53 Gb 3 3 20 февраля 2016 06:45 Человек ноября / The November Man (2014) BDRip 720p от Hot-Film | Лицензия .torrent   [Информация о файле (нажмите для просмотра)] Перевод: Дублированный (профессиональный) [Лицензия]Качество: BDRip 720pВидео: MPEG-4 AVC, 2027 Кбит/с, 1280х534Аудио: Русский (AC3, 6 ch, 640 Кбит/с), (DTS, 6 ch, 1509 Кбит/с), английский (AC3, 6 ch, 640 Кбит/с)Субтитры: Английские 4,15 Gb 34 2 20 февраля 2016 06:45 Человек ноября / The November Man (2014) BDRip 1080p .torrent   [Информация о файле (нажмите для просмотра)] Перевод: Профессиональный (дублированный) iTunesКодек: MKVКачество: BDRip 1080pВидео: MPEG-4 AVC, 14,7 Мбит/с, 1920x804, 23,976 fpsЗвук: Аудио: Rus, AC3, 384 kb/s (6 ch), 48 kHz Аудио 2: Eng, DTS, 1510 kb/s (6 ch), 48 kHzСубтитры: английские 12,8 Gb 8 5

gig-torrent.net

Скачать фильм Человек ноября через торрент в хорошем качестве бесплатно 2014

Размер: 1.83 GB | Добавлен: 3 года 1 мес. назад | Торрент скачан:226 раз
Реклама Дарим 3000 рублей за регистрацию, не упусти свой шанс получить шикарный бонус!!!

18-09-2014 12:47 Человек ноября Скачать торрент  

Человек ноября / The November Man

Год выпуска: 2014Выпущено: СШАЖанр: боевик, триллер, криминалПродолжительность: 01:41:41Перевод: Профессиональный [дублированный]Оригинальная дорожка английскийСубтитры: нет

Режиссер: Роджер Дональдсон

В ролях: Пирс Броснан, Люк Брейси, Ольга Куриленко, Билл Смитрович, Амила Терзимехик, Лазар Ристовски, Mediha Musliovic, Элайза Тейлор, Катерина Скорсоне, Аки Котабе

Описание: История о бывшем агенте ЦРУ, которого возвращают на службу для очень личной миссии. В ходе нее он обнаруживает, что его врагом является его бывший ученик, а все происходящее представляет собой смертельно опасную игру с участием сотрудников ЦРУ высокого уровня и избранным, но еще не вступившим в должность президентом России.

Дополнительно: исходник видео оригинальный,не пережатый в отличии от релиза на 1.37Gb

Качество: CAMRipФормат: AVIВидео кодек: XvIDАудио кодек: MP3Видео: 720x280 (2.57:1), 30 fps, XviD MPEG-4 ~2405 kbps avg, 0.38 bit/pixelАудио #1: 48 kHz, MPEG Layer 3, 2 ch, ~128.00 kbps avg [DUB]Аудио #2: 48 kHz, MPEG Layer 3, 2 ch, ~128.00 kbps avg [ENG]

GeneralComplete name : E:\INTERNET\The November Man.2014.[DUB]+Eng.Km.aviFormat : AVIFormat/Info : Audio Video InterleaveFile size : 1.83 GiBDuration : 1h 41mnOverall bit rate : 2 681 Kbps

Writing application : VirtualDubMod 1.5.10.3 (build 2550/release)Writing library : VirtualDubMod build 2550/release

VideoID : 0Format : MPEG-4 VisualFormat profile : [email protected] settings, BVOP : NoFormat settings, QPel : NoFormat settings, GMC : No warppointsFormat settings, Matrix : Default (H.263)Codec ID : XVIDCodec ID/Hint : XviDDuration : 1h 41mnBit rate : 2 405 KbpsWidth : 720 pixelsHeight : 280 pixelsDisplay aspect ratio : 2.571Frame rate : 30.000 fpsColor space : YUVChroma subsampling : 4:2:0Bit depth : 8 bitsScan type : ProgressiveCompression mode : LossyBits/(Pixel*Frame) : 0.381Stream size : 1.64 GiB (89%)Writing library : Lavc56.1.100

Audio #1ID : 1Format : MPEG AudioFormat version : Version 1Format profile : Layer 3Mode : Joint stereoMode extension : MS StereoCodec ID : 55Codec ID/Hint : MP3Duration : 1h 41mnBit rate mode : ConstantBit rate : 128 KbpsChannel(s) : 2 channelsSampling rate : 48.0 KHzCompression mode : LossyStream size : 93.1 MiB (5%)Alignment : Aligned on interleavesInterleave, duration : 33 ms (1.00 video frame)Interleave, preload duration : 504 ms

Audio #2ID : 2Format : MPEG AudioFormat version : Version 1Format profile : Layer 3Mode : Joint stereoCodec ID : 55Codec ID/Hint : MP3Duration : 1h 41mnBit rate mode : ConstantBit rate : 128 KbpsChannel(s) : 2 channelsSampling rate : 48.0 KHzCompression mode : LossyStream size : 93.1 MiB (5%)Alignment : Aligned on interleavesInterleave, duration : 24 ms (0.72 video frame)Interleave, preload duration : 504 ms

[/code]

Скачать Человек ноября через торрент http://i66.fastpic.ru/big/2014/0907/d4/62a1a855431f72ecfff4337913dcb7d4.jpg Скачать фильм Человек ноября через торрент бесплантно в хорошем качестве Описание: История о бывшем агенте ЦРУ, которого возвращают на службу для очень личной миссии. В ходе нее он обнаруживает, что его врагом ... 2014-09-18 12:47 8.9 10 8

Loading...

Loading...

Последний раз редактировалось: killermax2013 (2014-09-19 11:07), всего редактировалось 2 раз(а)

Рекламный пират

18-09-2014 13:10 Человек ноября Скачать торрент  

Веб рип хотябы подождать надо)

18-09-2014 13:14 Человек ноября Скачать торрент  

Marcenaries писал(а):

Веб рип хотябы подождать надо)

ждите,к ноябрю может будет

18-09-2014 13:51 Человек ноября Скачать торрент  

Ну конееечно-ну как тут без"империи вселенского Зла",без России? :rofle: :zay:

19-09-2014 10:12 Человек ноября Скачать торрент  

Дешевка!!! Не советую тратить время!!! Открытое письмо сценаристам и режиссеру! За самый худший и ужасный художественный вымысел!!! Надо же по фильму в России кандидат в президенты: насильник, преступник, главарь опг и просто ну очень очень плохой дедушка!!!

19-09-2014 11:07 Человек ноября Скачать торрент  

gtrich, а мне понравился фильм не стоит в нем искать глубокий смысл, это просто очередной блакобастер

19-09-2014 11:18 Человек ноября Скачать торрент  

При всем Уважении Killermax! Кстати мой теска))))) Это не блокбастер!!! За раздачу спасибо!) ЭТО ШЛАКОБАСТЕР!)))))))

19-09-2014 11:48 Человек ноября Скачать торрент  

gtrich писал(а):

Это не блокбастер!!! За раздачу спасибо!) ЭТО ШЛАКОБАСТЕР!)))))))

сейчас вообще каждый голливудский фильм практически шлакобастер P.S. Мы точно не тезки, это просто у меня такой ник, а зовут меня Александр :hmmm

19-09-2014 12:36 Человек ноября Скачать торрент  

У меня так и написано в паспорте имя Killermax Геннадьевич)

Pекламный агент PB

Дорогой пользователь! Огромная просьба, поблагодарите релизера, оцените раздачу и оставьте свои комментарий, если Вы скачали Человек ноября через торрент бесплатно! Внесите свою лепту в развитие PiratBit!

Комментировать посты могут только пользователи прошедшие не сложную регистрацию

Человек ноября через торрент Скачать бесплатно Человек ноября Человек ноября скачать торрент Человек ноября смотреть онлайн Cкачать фильм Человек ноября бесплатно Человек ноября скачать торрент в хорошем качестве Человек ноября смотреть онлайн бесплатно в хорошем качестве

Вы можете начинать темыВы можете отвечать на сообщенияВы не можете редактировать свои сообщенияВы не можете удалять свои сообщенияВы не можете голосовать в опросахВы не можете прикреплять файлы к сообщениямВы можете скачивать файлы

piratbit.ru

Скачать фильм Человек ноября через торрент в хорошем качестве бесплатно 2014

Размер: 1.38 GB | Добавлен: 3 года 1 мес. назад | Торрент скачан:192 раза
Реклама Дарим 3000 рублей за регистрацию, не упусти свой шанс получить шикарный бонус!!!

15-09-2014 19:31 Человек ноября Скачать торрент  

Человек ноября / The November Man «Бывших агентов не бывает» ✦ Год выпуска: 2014✦ Страна: США✦ Жанр:боевик, триллер, криминал✦ Продолжительность:01:41:41✦ Перевод:Дубляж ✦ Режиссер:Роджер Дональдсон
  • В ролях:Пирс Броснан, Люк Брейси, Ольга Куриленко, Билл Смитрович, Амила Терзимехик, Лазар Ристовски, Медиха Муслиович, Элайза Тейлор, Катерина Скорсоне, Аки Котабе
  • Описание:Экс-агент ЦРУ, невольно вернувшись в дело, оказывается в эпицентре международной интриги, затеянной главами разведывательного управления. В их планах — внедрение во внутреннюю политику стран Восточной Европы через кандидата в президенты РФ с помощью шантажа грязным прошлым. На его совести — вторая вспышка войны на Северном Кавказе, жертвы, насилие. Но Питер Дэверо разгадывает тайны нечестной игры …
  • Мировая премьера:27 августа 2014 ✦ Качество:CamRip✦ Формат:AVI✦ Видео кодек: XviD✦ Аудио кодек:MP3, AC3✦ Видео: 720x288 (2.50:1), 30 fps, XviD build 50 ~1597 kbps avg, 0.26 bit/pixel✦ Аудио 1: 48 kHz, MPEG Layer 3, 2 ch, ~128.00 kbps avg [Russian]✦ Аудио 2: 48 kHz, AC3 Dolby Digital, 2/0 (L,R) ch, ~192 kbps [English] Скриншоты:           
  • Скачать Человек ноября через торрент http://pic.pb.wtf/images/6/stazu.jpg Скачать фильм Человек ноября через торрент бесплантно в хорошем качестве Описание:Экс-агент ЦРУ, невольно вернувшись в дело, оказывается в эпицентре международной интриги, затеянной главами разведывательного ... 2014-09-17 21:59 10 10 9

    Loading...

    Loading...

    % Раздел Тема Автор DL S | L
    Фильмы 2014 [DVDrip, WEB-DLRip, HDrip] [ 2.05 GB ] Человек ноября / The November Man [2014 HDRip - / ] _KaisiK_ Скачать
    Фильмы 2014 [DVDrip, WEB-DLRip, HDrip] [ 748 MB ] Человек ноября / The November Man [2014 BDRip-AVC] Dub + Sub sokol_ok Скачать
    Фильмы [HD 720p, 1080p] (Хороший звук DUB, MVO) [ 13.69 GB ] Человек ноября / The November Man [2014 BDRip 1080p Dub ] Seedtank Скачать
    Фильмы 2014 [DVDrip, WEB-DLRip, HDrip] [ 1.46 GB ] Человек ноября / The November Man [2014 BDRip-AVC] Dub + Sub sokol_ok Скачать
    Фильмы (Blu-ray, BD-Remux, HDDVD) [ 26.53 GB ] Человек ноября / The November Man [2014 Blu-ray Бумер Скачать
    Фильмы 2014 [DVDrip, WEB-DLRip, HDrip] [ 1.46 GB ] Человек ноября / The November Man [2014 WEB-DLRip ] Ворон Скачать

    Рекламный пират

    Дорогой пользователь! Огромная просьба, поблагодарите релизера, оцените раздачу и оставьте свои комментарий, если Вы скачали Человек ноября через торрент бесплатно! Внесите свою лепту в развитие PiratBit!

    Комментировать посты могут только пользователи прошедшие не сложную регистрацию

    Человек ноября через торрент Скачать бесплатно Человек ноября Человек ноября скачать торрент Человек ноября смотреть онлайн Cкачать фильм Человек ноября бесплатно Человек ноября скачать торрент в хорошем качестве Человек ноября смотреть онлайн бесплатно в хорошем качестве

    Вы можете начинать темыВы можете отвечать на сообщенияВы не можете редактировать свои сообщенияВы не можете удалять свои сообщенияВы не можете голосовать в опросахВы не можете прикреплять файлы к сообщениямВы можете скачивать файлы

    piratbit.ru

    Скачать фильм Человек ноября через торрент в хорошем качестве бесплатно HDRip

    Размер: 1.3 GB | Добавлен: 3 года 1 мес. назад | Торрент скачан:82 раза
    Реклама Дарим 3000 рублей за регистрацию, не упусти свой шанс получить шикарный бонус!!!

    24-09-2014 14:36 Человек ноября Скачать торрент  

    Человек ноября / The November Man

    Год выпуска: 2014Страна: СШАЖанр: боевик, триллер, криминалПродолжительность: 01:43:11Перевод: Отсутствует ! [английская дорожка]Субтитры: --Английские [скачать отдельно]--

    Режиссер: Роджер Дональдсон

    В ролях: Пирс Броснан, Люк Брейси, Ольга Куриленко, Билл Смитрович, Амила Терзимехик, Лазар Ристовски, Mediha Musliovic, Элайза Тейлор, Катерина Скорсоне, Аки Котабе

    Описание: История о бывшем агенте ЦРУ, которого возвращают на службу для очень личной миссии. В ходе нее он обнаруживает, что его врагом является его бывший ученик, а все происходящее представляет собой смертельно опасную игру с участием сотрудников ЦРУ высокого уровня и избранным, но еще не вступившим в должность президентом России.

    Качество: HDRip Формат: AVIВидео кодек: XvIDАудио кодек: MP3Видео: 720x304 (2.37:1), 25 fps, XviD MPEG-4 ~1599 kbps avg, 0.29 bit/pixelАудио: 48 kHz, MPEG Layer 3, 2 ch, ~192.00 kbps avg [ENG / LINE]

    Скачать Человек ноября через торрент http://i66.fastpic.ru/big/2014/0907/d4/62a1a855431f72ecfff4337913dcb7d4.jpg Скачать фильм Человек ноября через торрент бесплантно в хорошем качестве Описание: История о бывшем агенте ЦРУ, которого возвращают на службу для очень личной миссии. В ходе нее он обнаруживает, что его врагом ... 2014-09-24 14:36 10 10 4

    Loading...

    Loading...

    % Раздел Тема Автор DL S | L
    Фильмы 2014 [DVDrip, WEB-DLRip, HDrip] [ 2.05 GB ] Человек ноября / The November Man [2014 HDRip - / ] _KaisiK_ Скачать
    Фильмы 2014 [DVDrip, WEB-DLRip, HDrip] [ 748 MB ] Человек ноября / The November Man [2014 BDRip-AVC] Dub + Sub sokol_ok Скачать
    Фильмы [HD 720p, 1080p] (Хороший звук DUB, MVO) [ 13.69 GB ] Человек ноября / The November Man [2014 BDRip 1080p Dub ] Seedtank Скачать
    Фильмы 2014 [DVDrip, WEB-DLRip, HDrip] [ 1.46 GB ] Человек ноября / The November Man [2014 BDRip-AVC] Dub + Sub sokol_ok Скачать
    Фильмы (Blu-ray, BD-Remux, HDDVD) [ 26.53 GB ] Человек ноября / The November Man [2014 Blu-ray Бумер Скачать
    Фильмы 2014 [DVDrip, WEB-DLRip, HDrip] [ 1.46 GB ] Человек ноября / The November Man [2014 WEB-DLRip ] Ворон Скачать

    Последний раз редактировалось: killermax2013 (2014-09-24 14:56), всего редактировалось 1 раз

    Рекламный пират

    24-09-2014 14:38 Человек ноября Скачать торрент  

    качество картинки отличное,вшитых сабов нет.Кто умеет может прикрутить дорожку русскую с камрипа, у меня не получилось синхронизировать

    24-09-2014 14:45 Человек ноября Скачать торрент  

    killermax2013 писал(а):

    качество картинки отличное,вшитых сабов нет.Кто умеет может прикрутить дорожку русскую с камрипа, у меня не получилось синхронизировать

    если желание будет, прикручу дорогу с Камрипа ) но думаю и без меня умельцев найдёться, и быстрее сделают

    24-09-2014 14:49 Человек ноября Скачать торрент  

    БАНДИТ, как знать, у меня не получилось. Рассинхрон идет либо в начале фильма или же в конце

    24-09-2014 14:54 Человек ноября Скачать торрент  

    killermax2013, я раньше занимался рипами фильмов, но щас нет такого особого рвения, так что на меня особо не надейтесь щас хочу обратно в репаки игр уйти )))

    Последний раз редактировалось: Russian Mafia (2014-09-24 14:55), всего редактировалось 1 раз

    24-09-2014 14:55 Человек ноября Скачать торрент  

    24-09-2014 15:47 Человек ноября Скачать торрент  

    Бред, а не фильм! :cansored: :cansored: :cansored:

    Дорогой пользователь! Огромная просьба, поблагодарите релизера, оцените раздачу и оставьте свои комментарий, если Вы скачали Человек ноября через торрент бесплатно! Внесите свою лепту в развитие PiratBit!

    Комментировать посты могут только пользователи прошедшие не сложную регистрацию

    Человек ноября через торрент Скачать бесплатно Человек ноября Человек ноября скачать торрент Человек ноября смотреть онлайн Cкачать фильм Человек ноября бесплатно Человек ноября скачать торрент в хорошем качестве Человек ноября смотреть онлайн бесплатно в хорошем качестве

    Вы можете начинать темыВы можете отвечать на сообщенияВы не можете редактировать свои сообщенияВы не можете удалять свои сообщенияВы не можете голосовать в опросахВы не можете прикреплять файлы к сообщениямВы можете скачивать файлы

    piratbit.ru

    Скачать фильм Человек ноября через торрент в хорошем качестве бесплатно WEB-DLRip 720p]DUB

    Год выпуска: 2014Страна: СШАЖанр: боевик, триллер, криминалПродолжительность: 01:43:28Перевод:Дубляж - [iTunes Russia]Режиссер: Роджер Дональдсон

    В ролях: Пирс Броснан, Люк Брейси, Ольга Куриленко, Билл Смитрович, Амила Терзимехик, Лазар Ристовски, Медиха Муслиович, Элайза Тейлор, Катерина Скорсоне, Аки Котабе

    Описание: Экс-агент ЦРУ, невольно вернувшись в дело, оказывается в эпицентре международной интриги, затеянной главами разведывательного управления. В их планах - внедрение во внутреннюю политику стран Восточной Европы через кандидата в президенты РФ с помощью шантажа грязным прошлым . На его совести - вторая вспышка войны на Северном Кавказе, жертвы, насилие. Но Питер Дэверо разгадывает тайны нечестной игры …

    Доп. информация: Сохранены оригинальные чаптеры.

    Качество: WEB-DLRip 720pФормат: MKVВидео кодек: AVCАудио кодек: AC3Видео: [email protected] at 25.000 fps, ~4000 kbps avgАудио#1: Russian: 48 kHz, AC3, 3/2 (L,C,R,l,r) + LFE ch, ~384.00 kbps avg |Дубляж, iTunes Russia|Релиз

    • В основу картины положена седьмая книга из серии романов «Человек ноября» американского писателя Билла Грейнджера «Никаких шпионов».• Пирс Броснан вместе со своей приятельницей продюсером Бо Ст. Клэр приобрели права на экранизацию серии книг «Человек ноября» еще в 2005 году. Не дожидаясь мировой премьеры фильма, Броснан заявил, что начинает работу над второй лентой новой франшизы.• Дата рождения, которая указана в файле Дэверо (16 мая 1953), совпадает с настоящим днем рождения Пирса Броснана.

    • Вместо здания Госдумы в Москве показан Дом правительства РФ.

    GeneralUnique ID : 250912654128465850782481273592741297350 (0xBCC404F7799A59CCB506B753D2D6FCC6)Complete name : F:The.November.Man.2014.720p.WEB-DL.Rus.HDCLUB.mkvFormat : MatroskaFormat version : Version 2File size : 3.27 GiBDuration : 1h 43mnOverall bit rate : 4 526 KbpsMovie name : The November Man (2014) - Release for HDCLUBEncoded date : UTC 2014-11-03 21:23:25Writing application : mkvmerge v3.4.0 ('Rapunzel') built on May 15 2010 09:38:20Writing library : libebml v0.8.0 + libmatroska v0.9.0

    VideoID : 1Format : AVCFormat/Info : Advanced Video CodecFormat profile : [email protected] settings, CABAC : NoFormat settings, ReFrames : 2 framesCodec ID : V_MPEG4/ISO/AVCDuration : 1h 43mnBit rate : 4 052 KbpsWidth : 960 pixelsHeight : 538 pixelsDisplay aspect ratio : 2.40:1Frame rate mode : ConstantFrame rate : 25.000 fpsColor space : YUVChroma subsampling : 4:2:0Bit depth : 8 bitsScan type : ProgressiveBits/(Pixel*Frame) : 0.314Stream size : 2.93 GiB (90%)Title : The November Man (2014) - Release for HDCLUBLanguage : EnglishDefault : YesForced : NoColor primaries : BT.709Transfer characteristics : BT.709Matrix coefficients : BT.709

    AudioID : 2Format : AC-3Format/Info : Audio Coding 3Mode extension : CM (complete main)Format settings, Endianness : BigCodec ID : A_AC3Duration : 1h 43mnBit rate mode : ConstantBit rate : 384 KbpsChannel(s) : 6 channelsChannel positions : Front: L C R, Side: L R, LFESampling rate : 48.0 KHzBit depth : 16 bitsCompression mode : LossyStream size : 284 MiB (8%)Title : AC3 5.1 @ 384 kbps - DUB, iTunesLanguage : RussianDefault : YesForced : No

    Menu00:00:00.000 : en:Глава 100:04:53.000 : en:Глава 200:10:24.000 : en:Глава 300:15:26.000 : en:Глава 400:22:03.000 : en:Глава 500:26:27.000 : en:Глава 600:31:22.000 : en:Глава 700:35:40.000 : en:Глава 800:40:26.000 : en:Глава 900:45:09.000 : en:Глава 1000:50:28.000 : en:Глава 1100:55:29.000 : en:Глава 1200:59:35.000 : en:Глава 1301:03:17.000 : en:Глава 1401:07:08.000 : en:Глава 1501:12:05.000 : en:Глава 1601:16:47.000 : en:Глава 1701:21:36.000 : en:Глава 1801:26:06.000 : en:Глава 1901:30:52.000 : en:Глава 2001:35:09.000 : en:Глава 21

    piratbit.ru


    Смотрите также