Скачать фильм человек паук 2017 через торрент в hd качестве 1080p


Возвращение домой через торрент в хорошем качестве бесплатно 1080p

ОбщееУникальный идентификатор : 253556937368383478325013979624055331961 (0xBEC14A3233291E5ABAD1BDEBAD9D5C79)Полное имя : D:\Spider.Man.Homecoming.2017.BDRip.1080p.mkvФормат : MatroskaВерсия формата : Version 4 / Version 2Размер файла : 10,2 ГбайтПродолжительность : 2 ч. 13 м.Общий поток : 10,9 Мбит/секНазвание фильма : Spider-Man.Homecoming.2017 - TorpedoUKДата кодирования : UTC 2017-10-03 01:27:59Программа кодирования : mkvmerge v16.0.0 ('Protest') 64-bitБиблиотека кодирования : libebml v1.3.5 + libmatroska v1.4.8

ВидеоИдентификатор : 1Формат : AVCФормат/Информация : Advanced Video CodecПрофиль формата : [email protected]Параметр CABAC формата : ДаПараметр ReFrames формата : 5 кадровИдентификатор кодека : V_MPEG4/ISO/AVCПродолжительность : 2 ч. 13 м.Битрейт : 9045 Кбит/секШирина : 1920 пикселейВысота : 808 пикселейСоотношение сторон : 2,40:1Режим частоты кадров : ПостоянныйЧастота кадров : 23,976 (24000/1001) кадра/секЦветовое пространство : YUVСубдискретизация насыщенности : 4:2:0Битовая глубина : 8 битТип развёртки : ПрогрессивнаяБит/(Пиксели*Кадры) : 0.243Размер потока : 8,43 Гбайт (83%)Библиотека кодирования : x264 core 152 r2851 ba24899Настройки программы : cabac=1 / ref=5 / deblock=1:0:0 / analyse=0x3:0x133 / me=umh / subme=7 / psy=1 / psy_rd=1.00:0.00 / mixed_ref=1 / me_range=16 / chroma_me=1 / trellis=1 / 8x8dct=1 / cqm=0 / deadzone=21,11 / fast_pskip=0 / chroma_qp_offset=-2 / threads=24 / lookahead_threads=4 / sliced_threads=0 / nr=0 / decimate=1 / interlaced=0 / bluray_compat=0 / constrained_intra=0 / bframes=3 / b_pyramid=2 / b_adapt=1 / b_bias=0 / direct=1 / weightb=1 / open_gop=0 / weightp=2 / keyint=250 / keyint_min=23 / scenecut=40 / intra_refresh=0 / rc_lookahead=40 / rc=2pass / mbtree=1 / bitrate=9045 / ratetol=1.0 / qcomp=0.60 / qpmin=0 / qpmax=69 / qpstep=4 / cplxblur=20.0 / qblur=0.5 / ip_ratio=1.40 / aq=1:1.00Язык : EnglishDefault : ДаForced : Нет

Аудио #1Идентификатор : 2Формат : AC-3Формат/Информация : Audio Coding 3Расширение режима : CM (complete main)Параметр Endianness формата : BigИдентификатор кодека : A_AC3Продолжительность : 2 ч. 13 м.Вид битрейта : ПостоянныйБитрейт : 384 Кбит/секКаналы : 6 каналовРасположение каналов : Front: L C R, Side: L R, LFEЧастота : 48,0 КГцЧастота кадров : 31,250 кадров/сек (1536 spf)Метод сжатия : С потерямиРазмер потока : 367 Мбайт (4%)Язык : RussianDefault : ДаForced : Нет

Аудио #2Идентификатор : 3Формат : DTSФормат/Информация : Digital Theater SystemsРежим : 16Параметр Endianness формата : BigИдентификатор кодека : A_DTSПродолжительность : 2 ч. 13 м.Вид битрейта : ПостоянныйБитрейт : 1509 Кбит/секКаналы : 6 каналовРасположение каналов : Front: L C R, Side: L R, LFEЧастота : 48,0 КГцЧастота кадров : 93,750 кадра/сек (512 spf)Битовая глубина : 24 битМетод сжатия : С потерямиРазмер потока : 1,41 Гбайт (14%)Язык : EnglishDefault : НетForced : Нет

Текст #1Идентификатор : 4Формат : UTF-8Идентификатор кодека : S_TEXT/UTF8Идентификатор кодека/Информация : UTF-8 Plain TextПродолжительность : 2 ч. 9 м.Битрейт : 0 бит/секCount of elements : 17Размер потока : 825 байт (0%)Заголовок : Forced, iTunesЯзык : RussianDefault : ДаForced : Нет

Текст #2Идентификатор : 5Формат : UTF-8Идентификатор кодека : S_TEXT/UTF8Идентификатор кодека/Информация : UTF-8 Plain TextПродолжительность : 2 ч. 12 м.Битрейт : 104 бит/секCount of elements : 1825Размер потока : 102 Кбайт (0%)Заголовок : iTunesЯзык : RussianDefault : НетForced : Нет

Текст #3Идентификатор : 6Формат : UTF-8Идентификатор кодека : S_TEXT/UTF8Идентификатор кодека/Информация : UTF-8 Plain TextПродолжительность : 5 с. 130 мс.Битрейт : 79 бит/секCount of elements : 2Размер потока : 51,0 байт (0%)Заголовок : Forced, iTunesЯзык : EnglishDefault : НетForced : Нет

Текст #4Идентификатор : 7Формат : UTF-8Идентификатор кодека : S_TEXT/UTF8Идентификатор кодека/Информация : UTF-8 Plain TextПродолжительность : 2 ч. 12 м.Битрейт : 64 бит/секCount of elements : 1790Размер потока : 62,3 Кбайт (0%)Заголовок : iTunesЯзык : EnglishDefault : НетForced : Нет

Меню00:00:00.000 : en:100:05:33.083 : en:200:14:23.279 : en:300:20:49.999 : en:400:26:18.243 : en:500:36:26.976 : en:600:46:02.926 : en:700:54:39.192 : en:801:05:09.280 : en:901:12:02.276 : en:1001:20:19.189 : en:1101:29:40.542 : en:1201:36:55.894 : en:1301:44:43.152 : en:1401:50:30.249 : en:1501:57:52.566 : en:16

piratbit.ru

Скачать торрент Человек-паук: Возвращение домой / Spider-Man: Homecoming (2017) WEB-DL 1080p

John Carter 04-Окт-2017 22:10 (21 день назад) Оценил на: 2 Честно сказать этот персонаж меня давно выбесивал, а сейчас вообще, комикс-герой, явно созданный для подросков, в топку это всё, минус Марвеллу! nightrider 03-Окт-2017 23:50 (21 день назад) Оценил на: 1 неимоверный бред Yasralnavashibany 02-Окт-2017 20:35 (23 дня назад) ЦитатаКто-то писал:немного напрягает что школьники вырастают, герои с каждой частью меняются и все начинается по новому. в целом ничего свежего и удивительного в очередном творении франшизыНе поверишь, но это касается АБСОЛЮТНО всего на свете. Поколение проходит, приходит следующее - и делает и переживает то же самое, что поколение до него. Потом и оно проходит, приходит еще одно ему на смену - и все по новой. И так бесконечно.  Пушистый 02-Окт-2017 08:00 (23 дня назад) по мне муть конечно, как и почти все эти марловские шедевры, хотя чет его усиленно хвалили. и эта нарисованная графика давно никаких эмоций не вызывает. OAOOpezdol 01-Окт-2017 12:00 (24 дня назад) Оценил на: 6 На мой взгляд фильм откровенно рассчитан на детей и подростков, более старшим поколениям он будет куда как менее интересен, если интересен вообще. А так типичный подростковый кинчик: незамысловатый сюжетец, стандартизированный ГГ - ни такой как все, гиканутый друг ГГ, любовные переживания к девушке, которая, ВНЕЗАПНО, знает, что она ему нравится, выбор между долгом и отношениями и куча прочего. Ничего особенного и выдающегося. Как обычно куча вопросов к сюжету,ну, судя по последним выходящим фильмам, это уже норма. Больше всего мне не понравились две вещи. Первая это графонистый Человек-паук, особенно это бросается в начале фильма, когда тот бежит по дворам и крышам. Быть может когда-то и настанет момент, что будет невозможно отличить графику от реальной съемки, но пока этого нет. И вторая претензия к нашему дубляжу. Эту кому пришло в голову подобрать под костюм Паучка голос с акцентом? Серьезно? Не знаю кому как, а лично мне слух просто резало. Devijack 30-Сен-2017 01:45 (25 дней назад) немного напрягает что школьники вырастают, герои с каждой частью меняются и все начинается по новому. в целом ничего свежего и удивительного в очередном творении франшизы но убить вечер смело можно. M_a_k_s_i_m 29-Сен-2017 23:30 (26 дней назад) Оценил на: 10 Самый нелепый фильм во всей марвеловселенной. Оценка релизеру) Оператор тела 29-Сен-2017 20:20 (26 дней назад) Оценил на: 5 уныленькое балабольство...девочка мечты - афро, вокруг азиаты с латиносами...как страшно жить в таком комиксе :) Oleg D 29-Сен-2017 20:00 (26 дней назад) Оценил на: 2 Вспоминая древние фильмы с Магвайером, понимаю какой же он хороший драматический актер по сравнению с современными Спидерманами. Что касается мулатки и прочих инородцев - надо быть гуманнее - не всем же повезло родится великороссами. xxTyleRxx 29-Сен-2017 12:01 (26 дней назад) Что вы девку Питера так напали. Во первых она мулатка а не черная. Во вторых, по мне так она даже слишком хороша для него, выглядит не очень правдоподобно что она с ним постоянно общается, явно не хватает парней по-интереснее Питера которые общаются с ней. А вот новая девка которую видимо многие упустили из виду, как раз под стать Питеру, которая назвалась в конце ЭмДжей, тоесть Мэри Джейн, и она латино ))) Johnny15555 29-Сен-2017 08:25 (26 дней назад) Прочитал все комменты, увидел пишут, что фильм для детей......я не поверил как всегда.......сам посмотрел, действительно - диалоги детские, что-то напомнило мультсериал "Совершенный( Великий ) Человек-паук" - но мультсериал гораздо интереснее вышел, хоть и он для детишек. Фильм на 1 раз. Пойдёт для ознакомления, и для того, чтобы уже в следующих Мстителях знать что было до них. Ну а за раздачу конечно 10. Вот только после титров 40 минутные доп. материалы без звука, да и не так уж и охота было их смотреть. Anonymou5 29-Сен-2017 01:20 (26 дней назад) Kampbell и saya, почистил ваши комментарии, адресованы друг ко другу. Продолжать, надеюсь, не будете  saya 29-Сен-2017 00:35 (26 дней назад) Тебе хоть на пиво хватает то что тебе платят за твои тупые коменты? Кремлебот goodwin_78 28-Сен-2017 23:30 (27 дней назад) Оценил на: 10 После Мумии и Трансформеров... эта часть человека паука кажется шедевром кинематографа Shevanton 28-Сен-2017 23:05 (27 дней назад) Оценил на: 10 Интересный фильм, но возлюбленная П.Паркера - это просто жесть... МадиМал 28-Сен-2017 23:05 (27 дней назад) Как мне это развидеть ??????? По сравнению с этим фильмом "ЧП.Высокое напряжение" просто шедевр! ZVM89 28-Сен-2017 22:45 (27 дней назад) Странно что он влюбляется в чернокожую девочку. Вот если бы в чернокожего мальчика это было бы современно! stranger8 28-Сен-2017 22:35 (27 дней назад) То что ЧП сделали раздражающим школьником понятно. Решили сделать фильм в духе глуповатых сериалов для подростков, с школьниками в главной роли. Но почему они сделали его таким слабаком? Он реально без умного костюма Старка просто жалок. Да даже с ним не намного лучше. Dj_Men 28-Сен-2017 20:11 (27 дней назад) Mrak2, вообще-то сборы нового паучка больше чем 1 и 2 части Сэма Рэйми, только 3 часть собрала 890 млн (хоть её почему-то считают провальной), для своего времени та трилогия была хороша. Мне вообще все фильмы про паучка нравится. deacon104 28-Сен-2017 19:35 (27 дней назад) Оценил на: 5 Бонусы не воспроизвелись, после титров завис комп. Первый раз такое, что то не то с рипом! Суслик Маклауд 28-Сен-2017 19:10 (27 дней назад) Не слушайте *редисок*. Отличный фильм, на порядок лучше прошлых частей, хотя и они были весьма хороши. Рейтинги и сборы вам подскажут, смотреть, или нет, хотя всё равно бесплатно же. pattern 28-Сен-2017 17:40 (27 дней назад) Пресный фильм.  dan-ser1994 28-Сен-2017 15:25 (27 дней назад) Жаль что у бонусов нет русской озвучки( AeeooN 28-Сен-2017 14:51 (27 дней назад) Оценил на: 1 убого, тупо, дешево... obb.07 28-Сен-2017 13:55 (27 дней назад) Оценил на: 3 С каждой серией человек-паук всё моложе. Скоро станет грудничком,а потом будет фильм "человек-паук Начало", где он будет нигером... sergey007008 28-Сен-2017 13:35 (27 дней назад) Оценил на: 10  venskayoker 28-Сен-2017 13:00 (27 дней назад) Оценил на: 5 Ну конечно же,Паркер влюбляется в темнокожую,а как-же без толерантности.Странно,что весь набор не добавили.Главный герой должен страдать неизлечимой болезнью,либо его ближайший родственник.Синдром Дауна,болезнь Альцгеймера или аллергию на всё возможное.Лучший друг главного персонажа обязательно должен быть геем.И если в фильме не будет произнесена фраза-"it's impossible...",то разрушатся все каноны жизни в Америке.Кинцо не зашло. jin92rus 28-Сен-2017 12:15 (27 дней назад)  Martian-182 28-Сен-2017 11:35 (27 дней назад) Бонус работает, если переключить озвучку на оригинал.  Mr. Drax 28-Сен-2017 11:11 (27 дней назад) Оценил на: 10 чет для WEB-DL ки много весит )) ШТОПОР 28-Сен-2017 11:11 (27 дней назад) Оценил на: 5 На 0:51:17 пропадает украинская звуковая дорожка и появляется на 01:05:26 Bilboard 28-Сен-2017 11:11 (27 дней назад) перестал смотреть эту хрень после того как ушел Тоби Магуайер Method1990 28-Сен-2017 01:20 (27 дней назад) Оценил на: 10 Спасибо :) komruter 28-Сен-2017 01:05 (27 дней назад) Оценил на: 5 А будет рип без чёрных полос? Чарующий_тапок 28-Сен-2017 01:05 (27 дней назад) Оценил на: 1 Супер-толерантный фильм, из белых только человек паук и его враг, остальные все негры и индусы. Фильм отвратный. Dj_Men 28-Сен-2017 00:20 (27 дней назад) VaZGeN, там нет Мэри Джейн, это совсем другая девчонка. alexey828 28-Сен-2017 00:05 (27 дней назад) Оценил на: 10 Качество такое хорошее,что можно даже и не ждать BD. Исходник с Amazon'а просто шикарен. Спасибо! space 27-Сен-2017 23:45 (27 дней назад)  Antony-torz 27-Сен-2017 23:42 (27 дней назад) Оценил на: 10 Дата релиза на DVD/Blu-Ray: 17 Октября 2017 gedie 27-Сен-2017 23:30 (28 дней назад) Зачем рендерить с черными полосами? Вы же понимаете, что это бессмысленно? Sepochka76 27-Сен-2017 23:30 (28 дней назад) Оценил на: 10 на торрент-геймс 5 гигов 1080 весит) rorshash 27-Сен-2017 23:20 (28 дней назад) MediaInfo не открывается Ведро Укропа 27-Сен-2017 23:20 (28 дней назад) Амазон вроде как почётче, спасибо, забрал! pattern 27-Сен-2017 23:11 (28 дней назад) Какой-то ситком. Смуглые подруги и Флэш. Спецэффекты не ахти. 

Файлы для обмена предоставлены пользователями сайта. Администрация не несёт ответственности за их содержание. На сервере хранятся только торрент-файлы. Это значит, что мы не храним никаких нелегальных материалов, а так же материалов охраняемых авторским правом.

zitor.org

Возвращение домой через торрент в хорошем качестве бесплатно 1080p

GeneralUnique ID : 243474579949995020337646038171651320871 (0xB72B7F989A3FFDBCA77BCD239EC2AC27)Complete name : F:Spider.Man.Homecoming.2017.BDRip.1080p.ExKinoRay.mkvFormat : MatroskaFormat version : Version 4 / Version 2File size : 10.9 GiBDuration : 2 h 13 minOverall bit rate : 11.7 Mb/sEncoded date : UTC 2017-10-03 19:57:50Writing application : mkvmerge v16.0.0 ('Protest') 64-bitWriting library : libebml v1.3.5 + libmatroska v1.4.8

VideoID : 1Format : AVCFormat/Info : Advanced Video CodecFormat profile : [email protected] settings : CABAC / 4 Ref FramesFormat settings, CABAC : YesFormat settings, RefFrames : 4 framesCodec ID : V_MPEG4/ISO/AVCDuration : 2 h 13 minBit rate : 10 000 kb/sWidth : 1 920 pixelsHeight : 800 pixelsDisplay aspect ratio : 2.40:1Frame rate mode : ConstantFrame rate : 23.976 (24000/1001) FPSColor space : YUVChroma subsampling : 4:2:0Bit depth : 8 bitsScan type : ProgressiveBits/(Pixel*Frame) : 0.272Stream size : 9.17 GiB (84%)Writing library : x264 core 149 r2771+45 509cceb 7mod [[email protected] X86_64]Encoding settings : cabac=1 / ref=4 / deblock=1:-1:-1 / analyse=0x3:0x133 / me=umh / subme=11 / psy=1 / fade_compensate=0.00 / psy_rd=0.95:0.10 / mixed_ref=1 / me_range=48 / chroma_me=1 / trellis=2 / 8x8dct=1 / cqm=0 / deadzone=21,11 / fast_pskip=0 / chroma_qp_offset=-4 / threads=12 / lookahead_threads=2 / sliced_threads=0 / nr=0 / decimate=1 / interlaced=0 / bluray_compat=0 / constrained_intra=0 / fgo=0 / bframes=9 / b_pyramid=2 / b_adapt=2 / b_bias=0 / direct=3 / weightb=1 / open_gop=0 / weightp=2 / keyint=250 / keyint_min=23 / scenecut=40 / intra_refresh=0 / rc_lookahead=30 / rc=2pass / mbtree=0 / bitrate=10000 / ratetol=1.0 / qcomp=0.70 / qpmin=0:0:0 / qpmax=69:69:69 / qpstep=4 / cplxblur=20.0 / qblur=0.5 / vbv_maxrate=35000 / vbv_bufsize=35000 / nal_hrd=none / filler=0 / ip_ratio=1.40 / pb_ratio=1.30 / aq=3:1.00 / aq-sensitivity=10.00 / aq-factor=1.00:1.00:1.00 / aq2=0 / aq3=2:[0.50:0.50]:[0.50:0.50]:[0.50:0.50]:[0.50:0.50] / aq3-sensitivity=10.00 / aq3-factor=[1.00:1.00]:[1.00:1.00]:[1.00:1.00] / aq3-boundary=192:64:24Language : EnglishDefault : YesForced : No

Audio #1ID : 2Format : AC-3Format/Info : Audio Coding 3Format settings, Endianness : BigCodec ID : A_AC3Duration : 2 h 13 minBit rate mode : ConstantBit rate : 384 kb/sChannel(s) : 6 channelsChannel positions : Front: L C R, Side: L R, LFESampling rate : 48.0 kHzFrame rate : 31.250 FPS (1536 SPF)Bit depth : 16 bitsCompression mode : LossyStream size : 367 MiB (3%)Title : iTunesLanguage : RussianService kind : Complete MainDefault : YesForced : No

Audio #2ID : 3Format : DTSFormat/Info : Digital Theater SystemsMode : 16Format settings, Endianness : BigCodec ID : A_DTSDuration : 2 h 13 minBit rate mode : ConstantBit rate : 1 509 kb/sChannel(s) : 6 channelsChannel positions : Front: L C R, Side: L R, LFESampling rate : 48.0 kHzFrame rate : 93.750 FPS (512 SPF)Bit depth : 24 bitsCompression mode : LossyStream size : 1.41 GiB (13%)Title : OriginalLanguage : EnglishDefault : NoForced : No

Text #1ID : 4Format : UTF-8Codec ID : S_TEXT/UTF8Codec ID/Info : UTF-8 Plain TextDuration : 2 h 9 minBit rate : 0 b/sCount of elements : 17Stream size : 825 Bytes (0%)Title : Forced [iTunes]Language : RussianDefault : YesForced : No

Text #2ID : 5Format : UTF-8Codec ID : S_TEXT/UTF8Codec ID/Info : UTF-8 Plain TextDuration : 2 h 12 minBit rate : 104 b/sCount of elements : 1825Stream size : 102 KiB (0%)Title : Full [iTunes]Language : RussianDefault : NoForced : No

Text #3ID : 6Format : UTF-8Codec ID : S_TEXT/UTF8Codec ID/Info : UTF-8 Plain TextDuration : 5 s 130 msBit rate : 79 b/sCount of elements : 2Stream size : 51.0 Bytes (0%)Title : Forced [iTunes]Language : EnglishDefault : NoForced : No

Text #4ID : 7Format : UTF-8Codec ID : S_TEXT/UTF8Codec ID/Info : UTF-8 Plain TextDuration : 2 h 12 minBit rate : 64 b/sCount of elements : 1790Stream size : 62.3 KiB (0%)Title : Full [iTunes]Language : EnglishDefault : NoForced : No

Menu00:00:00.000 : en:100:05:33.083 : en:200:14:23.279 : en:300:20:49.999 : en:400:26:18.243 : en:500:36:26.976 : en:600:46:02.926 : en:700:54:39.192 : en:801:05:09.280 : en:901:12:02.276 : en:1001:20:19.189 : en:1101:29:40.542 : en:1201:36:55.894 : en:1301:44:43.152 : en:1401:50:30.249 : en:1501:57:52.566 : en:16

piratbit.ru

Возвращение домой через торрент в хорошем качестве бесплатно 1080p

GeneralUnique ID : 223849843026374807123752937013500722026 (0xA867E95CDA97CDA58AA3E21F39603B6A)Complete name : Spider-Man.Homecoming.2017.WEB-DL.1080p.Rus.Ukr.Eng.mkvFormat : MatroskaFormat version : Version 4 / Version 2File size : 8.67 GiBDuration : 2 h 54 minOverall bit rate mode : VariableOverall bit rate : 7 092 kb/sMovie name : SPIDERMAN_HMCMNG_WEB_DL_1080p_BLUEBIRDEncoded date : UTC 2017-09-27 18:40:11Writing application : mkvmerge v6.9.1 ('Blue Panther') 32bit built on Apr 18 2014 18:15:44Writing library : libebml v1.3.0 + libmatroska v1.4.1

VideoID : 1Format : AVCFormat/Info : Advanced Video CodecFormat profile : [email protected] settings : CABAC / 4 Ref FramesFormat settings, CABAC : YesFormat settings, RefFrames : 4 framesCodec ID : V_MPEG4/ISO/AVCDuration : 2 h 54 minBit rate mode : VariableMaximum bit rate : 15.0 Mb/sWidth : 1 920 pixelsHeight : 1 080 pixelsDisplay aspect ratio : 16:9Frame rate mode : ConstantFrame rate : 23.976 (24000/1001) FPSColor space : YUVChroma subsampling : 4:2:0Bit depth : 8 bitsScan type : ProgressiveTitle : SPIDERMAN_HMCMNG_WEB_DL_1080p_BLUEBIRDLanguage : EnglishDefault : YesForced : NoColor range : LimitedColor primaries : BT.709Transfer characteristics : BT.709Matrix coefficients : BT.709

Audio #1ID : 2Format : AC-3Format/Info : Audio Coding 3Format settings, Endianness : BigCodec ID : A_AC3Duration : 2 h 54 minBit rate mode : ConstantBit rate : 384 kb/sChannel(s) : 6 channelsChannel positions : Front: L C R, Side: L R, LFESampling rate : 48.0 kHzFrame rate : 31.250 FPS (1536 SPF)Bit depth : 16 bitsCompression mode : LossyStream size : 481 MiB (5%)Title : [DUB] DD 5.1 @ 384 kbps (iTunes)Language : RussianService kind : Complete MainDefault : NoForced : No

Audio #2ID : 3Format : AACFormat/Info : Advanced Audio CodecFormat profile : LCCodec ID : A_AAC-2Duration : 2 h 54 minChannel(s) : 2 channelsChannel positions : Front: L RSampling rate : 44.1 kHzFrame rate : 43.066 FPS (1024 SPF)Compression mode : LossyTitle : [DUB] AAC 2.0 @ 160 kbpsLanguage : UkrainianDefault : NoForced : No

Audio #3ID : 4Format : E-AC-3Format/Info : Enhanced Audio Coding 3Format settings, Endianness : BigCodec ID : A_EAC3Duration : 2 h 54 minBit rate mode : ConstantBit rate : 640 kb/sChannel(s) : 6 channelsChannel positions : Front: L C R, Side: L R, LFESampling rate : 48.0 kHzFrame rate : 187.500 FPS (256 SPF)Compression mode : LossyStream size : 801 MiB (9%)Title : [ORIGINAL] DD 5.1 @ 640 kbps (iTunes)Language : EnglishService kind : Complete MainDefault : NoForced : No

Text #1ID : 5Format : UTF-8Codec ID : S_TEXT/UTF8Codec ID/Info : UTF-8 Plain TextTitle : Full-lengthLanguage : RussianDefault : NoForced : No

Text #2ID : 6Format : UTF-8Codec ID : S_TEXT/UTF8Codec ID/Info : UTF-8 Plain TextTitle : Full-lengthLanguage : UkrainianDefault : NoForced : No

Text #3ID : 7Format : UTF-8Codec ID : S_TEXT/UTF8Codec ID/Info : UTF-8 Plain TextTitle : Full-lengthLanguage : EnglishDefault : NoForced : No

Text #4ID : 8Format : UTF-8Codec ID : S_TEXT/UTF8Codec ID/Info : UTF-8 Plain TextTitle : ForcedLanguage : RussianDefault : YesForced : Yes

Menu00:00:00.000 : en:Stay Tuned00:00:10.000 : en:Studio Logos00:00:46.000 : en:Toomes loses a job and gains a new one00:05:06.000 : en:Marvel Logo00:05:41.000 : en:a Film by Peter Parker00:10:04.000 : en:Peter waits the school day out00:14:42.000 : en:Spider-Man keeps the neighborhood friendly00:18:15.000 : en:Spider-Man battles the Avengers00:20:59.000 : en:Peter finds a surprise at home00:25:53.000 : en:Ned asks for all the details00:29:19.000 : en:Peter debates bringing Spider-Man to the party00:32:10.000 : en:Spider-Man chases after a van00:36:56.000 : en:Tony instructs Peter to stand down00:39:27.000 : en:Toomes attempts to reason with his crew00:42:33.000 : en:Ned helps Peter with a shop project00:46:12.000 : en:Peter rejoins the team00:50:22.000 : en:Spider-Man makes a new friend while tracking bad guys00:54:48.000 : en:Spider-Man races back to his team00:58:57.000 : en:The Decathlon Team celebrates at the Washington Monument01:05:18.000 : en:Toomes contemplates his recent run of bad luck01:06:23.000 : en:The Decathlon team is welcomed back as heroes01:08:48.000 : en:Peter tries out interrogation mode01:12:11.000 : en:Spider-Man commutes on the ferry01:19:51.000 : en:Toomes calls for a bigger job01:20:28.000 : en:Perter faces the consequences of his mistake01:23:43.000 : en:Peter turns himself around01:27:05.000 : en:Peter meets Liz's family01:29:50.000 : en:Toomes gives Peter the Dad talk01:34:21.000 : en:Peter leaves the dance early01:36:47.000 : en:Ned gives Spider-Man directions01:39:28.000 : en:Spider-Man locates the Vulture's lair01:42:33.000 : en:Peter picks himself up01:44:52.000 : en:Vulture takes to the sky01:50:34.000 : en:Spider-Man and Vulture battle01:54:39.000 : en:Peter says a difficult goodbye01:56:10.000 : en:The Decathlon Team celebrates their win01:58:02.000 : en:Tony makes Peter an offer02:02:26.000 : en:Peter suits up02:03:04.000 : en:End Credits02:05:13.000 : en:Toomes encounters a former business partner02:06:07.000 : en:End Credits Continued02:12:38.000 : en:Patience02:13:36.000 : en:a Film by Peter Parker (Extended Director's Cut)02:19:13.000 : en:Deleted Scenes02:25:20.000 : en:Midtown Technical High School News02:28:38.000 : en:Mr. Harrington Lessons in Love02:30:47.000 : en:Aftermath02:35:35.000 : en:Searching for Spider-Man02:43:34.000 : en:Spidey Stunts02:49:27.000 : en:Jon Watts: Head of the Class

piratbit.ru


Смотрите также