Скачать фильм через торрент бесплатно пирамида в хорошем качестве


Скачать фильм Пирамида (2014) через торрент

25 февраля 2016 12:58 Пирамида / The Pyramid (2014) HDRip от MegaPeer | iTunes .torrent   [Информация о файле (нажмите для просмотра)] Перевод: Профессиональный (полное дублирование)Качество: HDRipВидео: XviD, 672x288, 966 kbpsЗвук: MP3, 128 kb/s (2 ch) 701,52 Mb 14 4 25 февраля 2016 12:58 Пирамида / The Pyramid (2014) BDRip от MediaClub | КПК .torrent   [Информация о файле (нажмите для просмотра)] Качество: BDRipВидео: MPEG-4 AVC, 500 Кбит/с, 480x202, 23.976 кадр/сАудио: Русский (AAC, 2 ch, 128 Кбит/с) / Дублированный 407,54 Mb 8 4 25 февраля 2016 12:58 Пирамида / The Pyramid (2014) BDRip 720p от Leonardo and Scarabey | iTunes .torrent   [Информация о файле (нажмите для просмотра)] Перевод: Профессиональный (полное дублирование) iTunesФормат: MKVВидео кодек: MPEG-4 AVC Аудио кодек: AC3Видео: 1280x544 (2.35:1) at 23.976 fps, AVC at 3434 kbps avg, 0.206 bit/pixelАудио: Русский, AC3 5.1, 384 kbps, 48 kHz - Dub, iTunesСубтитры: Русские, украинские, английские 2,42 Gb 198 8 25 февраля 2016 12:58 Пирамида / The Pyramid (2014) BDRip 720p | KinoGadget and KinoXa | iPad | iTunes .torrent   [Информация о файле (нажмите для просмотра)] Перевод: Дублированный | iTunesКачество: BDRip 720pФормат: mp4 1,34 Gb 14 2 25 февраля 2016 12:58 Пирамида / The Pyramid (2014) BDRip 720 от SuperMin | iTunes .torrent   [Информация о файле (нажмите для просмотра)] Перевод: Профессиональный (полное дублирование)Кодек: h364Качество: BDRip 720 от SuperMinВидео: 1280x544 (2.35:1), 3130 kbps, 23.976 fpsЗвук: Русский (AC-3, 6ch, 384 kbps) [iTunes] 2,18 Gb 35 4 25 февраля 2016 12:58 Пирамида / The Pyramid (2014) BDRip 1080p | iTunes .torrent   [Информация о файле (нажмите для просмотра)] Качество: BDRip (1080p)Видео: MPEG-4 AVC, 7395 Кбит/с, 1920x816Аудио: Русский (AC3, 6 ch, 384 Кбит/с), украинский (AC3, 2 ch, 192 Кбит/с), английский (DTS, 6 ch, 1510 Кбит/с)Перевод: Дублированный [iTunes]Субтитры: Русские, английские, украинскиеВидео: Идентификатор : 1 Формат : AVC Формат/Информация : Advanced Video Codec Профиль формата : [email protected] Параметр CABAC формата : Да Параметр ReFrames формата : 5 кадров Идентификатор кодека : V_MPEG4/ISO/AVC Продолжительность : 1 ч. 28 м. Битрейт : 7395 Кбит/сек Ширина : 1920 пикселей Высота : 816 пикселей Соотношение сторон : 2,35:1 Режим частоты кадров : Постоянный Частота кадров : 23,976 кадра/сек Цветовое пространство : YUV Субдискретизация насыщенности : 4:2:0 Битовая глубина : 8 бит Тип развёртки : Прогрессивная Бит/(Пиксели*Кадры) : 0.197 Размер потока : 4,46 Гбайт (76%) Заголовок : by_bog3417 Библиотека кодирования : x264 core 146 r2538 121396c Настройки программы : cabac=1 / ref=5 / deblock=1:-3:-3 / analyse=0x3:0x33 / me=umh / subme=11 / psy=1 / psy_rd=1.05:0.15 / mixed_ref=1 / me_range=48 / chroma_me=1 / trellis=2 / 8x8dct=1 / cqm=0 / deadzone=21,11 / fast_pskip=0 / chroma_qp_offset=-3 / threads=8 / lookahead_threads=4 / sliced_threads=0 / nr=0 / decimate=0 / interlaced=0 / bluray_compat=0 / constrained_intra=0 / bframes=9 / b_pyramid=2 / b_adapt=2 / b_bias=0 / direct=3 / weightb=1 / open_gop=1 / weightp=2 / keyint=240 / keyint_min=23 / scenecut=40 / intra_refresh=0 / rc=2pass / mbtree=0 / bitrate=7395 / ratetol=1.0 / qcomp=0.60 / qpmin=0 / qpmax=69 / qpstep=4 / cplxblur=20.0 / qblur=0.5 / ip_ratio=1.40 / pb_ratio=1.30 / aq=3:0.90 Язык : English Default : Да Forced : Нет DURATION : 01:28:52.286000000 NUMBER_OF_FRAMES : 127847 NUMBER_OF_BYTES : 4916243317 _STATISTICS_WRITING_APP : mkvmerge v7.4.0 ('Circles') 64bit built on Dec 12 2014 12:19:56 _STATISTICS_WRITING_DATE_UTC : 2015-04-28 08:49:06 _STATISTICS_TAGS : BPS DURATION NUMBER_OF_FRAMES NUMBER_OF_BYTESАудио #1: Идентификатор : 2 Формат : AC-3 Формат/Информация : Audio Coding 3 Расширение режима : CM (complete main) Параметр Endianness формата : Big Идентификатор кодека : A_AC3 Продолжительность : 1 ч. 28 м. Вид битрейта : Постоянный Битрейт : 384 Кбит/сек Каналы : 6 каналов Расположение каналов : Front: L C R, Side: L R, LFE Частота : 48,0 КГц Битовая глубина : 16 бит Метод сжатия : С потерями Размер потока : 244 Мбайт (4%) Заголовок : iTunes Язык : Russian Default : Да Forced : НетАудио #2: Идентификатор : 3 Формат : AC-3 Формат/Информация : Audio Coding 3 Расширение режима : CM (complete main) Параметр Endianness формата : Big Идентификатор кодека : A_AC3 Продолжительность : 1 ч. 28 м. Вид битрейта : Постоянный Битрейт : 192 Кбит/сек Каналы : 2 канала Расположение каналов : Front: L R Частота : 48,0 КГц Битовая глубина : 16 бит Метод сжатия : С потерями Размер потока : 122 Мбайт (2%) Заголовок : iTunes Язык : Ukrainian Default : Нет Forced : НетАудио #3: Идентификатор : 4 Формат : DTS Формат/Информация : Digital Theater Systems Режим : 16 Параметр Endianness формата : Big Идентификатор кодека : A_DTS Продолжительность : 1 ч. 28 м. Вид битрейта : Постоянный Битрейт : 1509 Кбит/сек Каналы : 6 каналов Расположение каналов : Front: L C R, Side: L R, LFE Частота : 48,0 КГц Битовая глубина : 24 бит Метод сжатия : С потерями Размер потока : 960 Мбайт (16%) Язык : English Default : Нет Forced : Нет 5,88 Gb 51 6 25 февраля 2016 12:58 Пирамида / The Pyramid (2014) HDRip-AVC | iTunes .torrent   [Информация о файле (нажмите для просмотра)] Качество: HDRip-AVCВидео: AVC, 1024x428 (2.35:1), 23.976 fps, 1 968 Kbps (0.187 bit/pixel)Аудио: AC-3, 48.0 KHz, 6 ch, 384 Kbps, CBR (Russian)Видео: Идентификатор : 1 Формат : AVC Формат/Информация : Advanced Video Codec Профиль формата : [email protected] Параметр CABAC формата : Да Параметр ReFrames формата : 10 кадров Идентификатор кодека : V_MPEG4/ISO/AVC Продолжительность : 1 ч. 28 м. Битрейт : 1968 Кбит/сек Ширина : 1024 пикселя Высота : 428 пикселей Соотношение сторон : 2,40:1 Режим частоты кадров : Постоянный Частота кадров : 23,976 кадра/сек Цветовое пространство : YUV Субдискретизация насыщенности : 4:2:0 Битовая глубина : 8 бит Тип развёртки : Прогрессивная Бит/(Пиксели*Кадры) : 0.187 Размер потока : 1,19 Гбайт (82%) Библиотека кодирования : x264 core 142 r2431 ac76440 Настройки программы : cabac=1 / ref=10 / deblock=1:-3:-3 / analyse=0x3:0x133 / me=umh / subme=10 / psy=1 / psy_rd=1.00:0.10 / mixed_ref=1 / me_range=32 / chroma_me=1 / trellis=2 / 8x8dct=1 / cqm=0 / deadzone=21,11 / fast_pskip=1 / chroma_qp_offset=-3 / threads=12 / lookahead_threads=2 / sliced_threads=0 / nr=0 / decimate=0 / interlaced=0 / bluray_compat=0 / constrained_intra=0 / bframes=8 / b_pyramid=2 / b_adapt=2 / b_bias=0 / direct=3 / weightb=1 / open_gop=0 / weightp=2 / keyint=240 / keyint_min=23 / scenecut=40 / intra_refresh=0 / rc=2pass / mbtree=0 / bitrate=1968 / ratetol=1.0 / qcomp=0.60 / qpmin=0 / qpmax=69 / qpstep=4 / cplxblur=20.0 / qblur=0.5 / ip_ratio=1.40 / pb_ratio=1.30 / aq=1:1.00 Язык : English Default : Да Forced : НетАудио: Идентификатор : 2 Формат : AC-3 Формат/Информация : Audio Coding 3 Расширение режима : CM (complete main) Параметр Endianness формата : Big Идентификатор кодека : A_AC3 Продолжительность : 1 ч. 28 м. Вид битрейта : Постоянный Битрейт : 384 Кбит/сек Каналы : 6 каналов Расположение каналов : Front: L C R, Side: L R, LFE Частота : 48,0 КГц Битовая глубина : 16 бит Метод сжатия : С потерями Размер потока : 244 Мбайт (16%) Язык : Russian Default : Да Forced : Нет 1,46 Gb 41 5 25 февраля 2016 12:58 Пирамида / The Pyramid (2014) HDRip | iTunes .torrent   [Информация о файле (нажмите для просмотра)] Формат: AVI (XviD)Качество: HDRipВидео: 1792 kb/s, 720x304Звук: AC3, 384 kb/s (6 ch) 1,36 Gb 545 6 25 февраля 2016 12:58 Пирамида / The Pyramid (2014) WEB-DLRip от AleksSin | iTunes .torrent   [Информация о файле (нажмите для просмотра)] Перевод: Дублированное [iTunes]Кодек: AVI (XviD)Качество: WEB-DLRip (Исх. WEB-DL 720p)Видео: 720x304 (2.37:1), 23.976 fps, XviD build 73 ~2322 kbps avg, 0.45 bit/pixelАудио#1: 48 kHz, AC3 Dolby Digital, 3/2 (L,C,R,l,r) + LFE ch, ~384.00 kbps avg (Русский)Аудио#2: 48 kHz, AC3 Dolby Digital, 2/0 (L,R) ch, ~384.00 kbps avg (Украинский)Аудио#3: 48 kHz, AC3 Dolby Digital, 2/0 (L,R) ch, ~384.00 kbps avg (Английский)Субтитры: Русские, английскиеВидео: Идентификатор : 0 Формат : MPEG-4 Visual Профиль формата : Advanced [email protected] Параметр BVOP формата : 1 Параметр QPel формата : Нет Параметр GMC формата : Без точки перехода Параметр матрицы формата : Выборочная Идентификатор кодека : XVID Идентификатор кодека/Подсказка : XviD Продолжительность : 1 ч. 29 м. Битрейт : 2322 Кбит/сек Ширина : 720 пикс. Высота : 304 пикс. Соотношение сторон : 2,35:1 Частота кадров : 23,976 кадр/сек Цветовое пространство : YUV Подвыборка цветности : 4:2:0 Битовая глубина : 8 бит Тип развёртки : Прогрессивная Метод сжатия : С потерями Бит/(Пиксели*Кадры) : 0.442 Размер потока : 1,45 Гбайт (66%) Библиотека кодирования : XviD 73Аудио #1: Идентификатор : 1 Формат : AC-3 Формат/Информация : Audio Coding 3 Расширение режима : CM (complete main) Идентификатор кодека : 2000 Продолжительность : 1 ч. 28 м. Вид битрейта : Постоянный Битрейт : 384 Кбит/сек Каналы : 6 каналов Расположение каналов : Front: L C R, Side: L R, LFE Частота : 48,0 КГц Битовая глубина : 16 бит Метод сжатия : С потерями Размер потока : 244 Мбайт (11%) Выравнивание : Разделение по промежуткам Продолжительность промежутка : 42 мс. (1,00 видеокадр) Время предзагрузки промежутка : 500 msАудио #2: Идентификатор : 2 Формат : AC-3 Формат/Информация : Audio Coding 3 Расширение режима : CM (complete main) Идентификатор кодека : 2000 Продолжительность : 1 ч. 28 м. Вид битрейта : Постоянный Битрейт : 384 Кбит/сек Каналы : 2 канала Расположение каналов : Front: L R Частота : 48,0 КГц Битовая глубина : 16 бит Метод сжатия : С потерями Размер потока : 244 Мбайт (11%) Выравнивание : Разделение по промежуткам Продолжительность промежутка : 42 мс. (1,00 видеокадр) Время предзагрузки промежутка : 500 msАудио #3: Идентификатор : 3 Формат : AC-3 Формат/Информация : Audio Coding 3 Расширение режима : CM (complete main) Идентификатор кодека : 2000 Продолжительность : 1 ч. 28 м. Вид битрейта : Постоянный Битрейт : 384 Кбит/сек Каналы : 2 канала Расположение каналов : Front: L R Частота : 48,0 КГц Битовая глубина : 16 бит Метод сжатия : С потерями Размер потока : 244 Мбайт (11%) Выравнивание : Разделение по промежуткам Продолжительность промежутка : 42 мс. (1,00 видеокадр) Время предзагрузки промежутка : 500 ms 2,18 Gb 9 5 25 февраля 2016 12:58 Пирамида / The Pyramid (2014) WEB-DLRip | iTunes .torrent   [Информация о файле (нажмите для просмотра)] Кодек: XviDКачество: WEB-DLRipВидео: 959 Кбит/с, 640x272Звук: AC3, 2 ch, 128 Кбит/сСубтитры: Отсутствуют 699,91 Mb 10 5 25 февраля 2016 12:58 Пирамида / The Pyramid (2014) WEB-DL 720p | iTunes .torrent   [Информация о файле (нажмите для просмотра)] Формат: MKVКачество: WEB-DL 720pВидео: 3916 Kb/s, 1280x544Аудио: Russian: AC3, 384 kb/s (6 ch) / English/Ukrainian: AAC (2 ch) 2,93 Gb 103 7 25 февраля 2016 12:57 Пирамида / The Pyramid (2014) WEB-DLRip | iTunes .torrent   [Информация о файле (нажмите для просмотра)] Формат: AVI (XviD)Качество: WEB-DLRipВидео: 1772 kb/s, 720x304Аудио: AC3, 384 kb/s (6 ch) 1,35 Gb 782 15

gig-torrent.net

Скачать Пирамида через торрент - фильм в хорошем качестве

Категория: Фильмы 4016 0 Торрент добавлен: 27-04-2015 Рейтинг:

2014 / ужас / 89 мин.Название в оригинале: The Pyramid / Пирамида Страна: США Режиссер: Грегори Левассёр В главных ролях: Эшли Хиншоу, Дэнис О’Хэйр, Джеймс Бакли, Криста-Мари Никола, Амир Камиаб, Джозеф Бедделем, Garsha Arristos, Омар Бенбрахим, Принц Шах

Такие сооружения как пирамиды навсегда будут овеяны тайнами, которые никто из современников не знает, как их разгадать. Американские археологи проводят очередные раскопки в месте нахождения самых больших пирамид планеты и находят под толщею песка еще одну пирамиду, которая, по словам ученных намного старше остальных. Одной находки археологам стало мало, ведь ее еще нужно исследовать и понять в чем ее секрет.

Они собирают необходимые предметы, чтобы спуститься к пирамиде и осмотреть ее сначала снаружи, а затем зайти внутрь. Никто не задумывается о возможной опасности, ведь теоретически она существует, когда входишь в помещение, где не ступала нога человека несколько тысяч лет. Тем более на это место вполне могло быть наложено проклятие. Они постепенно углублялись внутрь помещения, заходя все дальше от того места, где они вошли.

Позже они начали понимать, что выхода из пирамиды найти им не удается и в коллективе, где еще совсем недавно царил повышенный интерес к исследованию и всяческое пренебрежение к безопасности, поселяется паника. Это ловушка, созданная тысячелетия назад неизвестными нам цивилизациями намерена поглотить очередных энтузиастов, пытающихся разгадать тайны этой древнейшей постройки. Еще больший страх на команду исследователей наводит тот факт, что в стенах пирамиды живет какое-то невидимое зло, намеревающееся навечно похоронить их здесь.

Трейлер к фильму Пирамида

 

Пирамида скачать торрент

Качество:  BDRip (1080p)Видео:  MPEG-4 AVC, 7395 Кбит/с, 1920x816Аудио:  Русский (AC3, 6 ch, 384 Кбит/с), украинский (AC3, 2 ch, 192 Кбит/с), английский (DTS, 6 ch, 1510 Кбит/с)Дублированный [iTunes]

5,88 Gb

Формат: AVI (XviD)Качество: HDRip Видео: 1792 kb/s, 720x304Звук: AC3, 384 kb/s (6 ch) Дублированное [лицензия]

 

Вы находитесь на странице, где можете совершенно бесплатно скачать фильм Пирамида в хорошем качестве через торрент, в любом формате, который больше всего вам на данный момент подходит. Скачивание осуществляется через торрент, что означает максимально высокую скорость загрузки. Желаем Вам приятного просмотра!. Не забудь поделиться своими впечатлениями после того как посмотришь фильм Пирамида.

Информация Посетители, находящиеся в группе Гости, не могут оставлять комментарии к данной публикации.

psp-gu.ru

Скачать фильм Пирамида через торрент в хорошем качестве бесплатно 1080p

GeneralUnique ID                                : 185797548653189500395101363496310088540 (0x8BC74E66B1C440C5BD797C28D38D235C)Complete name                            : I:\P1r4m1d4.2014.D.WEB-DL.1080p.mkvFormat                                   : MatroskaFormat version                           : Version 4 / Version 2File size                                : 3.27 GiBDuration                                 : 1h 29mnOverall bit rate                         : 5 244 KbpsEncoded date                             : UTC 2015-03-04 19:56:31Writing application                      : mkvmerge v6.9.1 ('Blue Panther') 64bit built on Apr 18 2014 18:23:38Writing library                          : libebml v1.3.0 + libmatroska v1.4.1

VideoID                                       : 1Format                                   : AVCFormat/Info                              : Advanced Video CodecFormat profile                           : [email protected] settings, CABAC                   : YesFormat settings, ReFrames                : 5 framesCodec ID                                 : V_MPEG4/ISO/AVCDuration                                 : 1h 29mnWidth                                    : 1 912 pixelsHeight                                   : 812 pixelsDisplay aspect ratio                     : 2.35:1Frame rate                               : 23.976 fpsColor space                              : YUVChroma subsampling                       : 4:2:0Bit depth                                : 8 bitsScan type                                : ProgressiveLanguage                                 : EnglishDefault                                  : YesForced                                   : NoColor primaries                          : BT.709-5, BT.1361, IEC 61966-2-4, SMPTE RP177Transfer characteristics                 : BT.709-5, BT.1361Matrix coefficients                      : BT.709-5, BT.1361, IEC 61966-2-4 709, SMPTE RP177

Audio #1ID                                       : 2Format                                   : AC-3Format/Info                              : Audio Coding 3Mode extension                           : CM (complete main)Codec ID                                 : A_AC3Duration                                 : 1h 29mnBit rate mode                            : ConstantBit rate                                 : 384 KbpsChannel(s)                               : 6 channelsChannel positions                        : Front: L C R, Side: L R, LFESampling rate                            : 48.0 KHzBit depth                                : 16 bitsCompression mode                         : LossyStream size                              : 245 MiB (7%)Language                                 : RussianDefault                                  : YesForced                                   : No

Audio #2ID                                       : 3Format                                   : AACFormat/Info                              : Advanced Audio CodecFormat profile                           : LCCodec ID                                 : A_AACDuration                                 : 1h 29mnChannel(s)                               : 2 channelsChannel positions                        : Front: L RSampling rate                            : 48.0 KHzCompression mode                         : LossyLanguage                                 : EnglishDefault                                  : NoForced                                   : No

Audio #3ID                                       : 4Format                                   : AACFormat/Info                              : Advanced Audio CodecFormat profile                           : LCCodec ID                                 : A_AACDuration                                 : 1h 29mnChannel(s)                               : 2 channelsChannel positions                        : Front: L RSampling rate                            : 48.0 KHzCompression mode                         : LossyLanguage                                 : UkrainianDefault                                  : NoForced                                   : No

Menu00:00:00.000                             : en:100:03:06.000                             : en:200:06:55.000                             : en:300:10:29.000                             : en:400:12:44.000                             : en:500:15:35.000                             : en:600:19:14.000                             : en:700:23:54.000                             : en:800:27:02.000                             : en:900:31:25.000                             : en:1000:33:58.000                             : en:1100:36:27.000                             : en:1200:38:00.000                             : en:1300:41:02.000                             : en:1400:42:59.000                             : en:1500:46:36.000                             : en:1600:48:46.000                             : en:1700:52:30.000                             : en:1800:55:33.000                             : en:1900:58:18.000                             : en:2001:02:50.000                             : en:2101:07:20.000                             : en:2201:09:35.000                             : en:2301:11:43.000                             : en:2401:15:42.000                             : en:2501:18:27.000                             : en:2601:21:43.000                             : en:2701:23:47.000                             : en:28

piratbit.ru

/ The Pyramid ( / Gregory Levasseur) [2014, , , BDRip 1080p] iTunes

x264 [info]: frame I:585 Avg QP:13.97 size:150213 x264 [info]: frame P:30629 Avg QP:16.36 size: 69741 x264 [info]: frame B:96633 Avg QP:17.95 size: 27861 : 209064155455050292896002828382339193196 (0x9D484AAEBE9DE74FA06B54F06B1DD96C) : F:Piramida.2014.BDRip.1080p.by_bog3417.mkv : Matroska : Version 2 : 5,88 : 1 . 28 . : 9460 / : by_bog3417 : UTC 2015-04-28 08:49:06 : mkvmerge v7.4.0 ('Circles') 64bit built on Dec 12 2014 12:19:56 : libebml v1.3.0 + libmatroska v1.4.1 DURATION : 01:28:52.331000000 NUMBER_OF_FRAMES : 499906 NUMBER_OF_BYTES : 1005812368 _STATISTICS_WRITING_APP : mkvmerge v7.4.0 ('Circles') 64bit built on Dec 12 2014 12:19:56 _STATISTICS_WRITING_DATE_UTC : 2015-04-28 08:49:06 _STATISTICS_TAGS : BPS DURATION NUMBER_OF_FRAMES NUMBER_OF_BYTES : 1 : AVC / : Advanced Video Codec : [email protected] CABAC : ReFrames : 5 : V_MPEG4/ISO/AVC : 1 . 28 . : 7395 / : 1920 : 816 : 2,35:1 : : 23,976 / : YUV : 4:2:0 : 8 : /(*) : 0.197 : 4,46 (76%) : by_bog3417 : x264 core 146 r2538 121396c : cabac=1 / ref=5 / deblock=1:-3:-3 / analyse=0x3:0x33 / me=umh / subme=11 / psy=1 / psy_rd=1.05:0.15 / mixed_ref=1 / me_range=48 / chroma_me=1 / trellis=2 / 8x8dct=1 / cqm=0 / deadzone=21,11 / fast_pskip=0 / chroma_qp_offset=-3 / threads=8 / lookahead_threads=4 / sliced_threads=0 / nr=0 / decimate=0 / interlaced=0 / bluray_compat=0 / constrained_intra=0 / bframes=9 / b_pyramid=2 / b_adapt=2 / b_bias=0 / direct=3 / weightb=1 / open_gop=1 / weightp=2 / keyint=240 / keyint_min=23 / scenecut=40 / intra_refresh=0 / rc=2pass / mbtree=0 / bitrate=7395 / ratetol=1.0 / qcomp=0.60 / qpmin=0 / qpmax=69 / qpstep=4 / cplxblur=20.0 / qblur=0.5 / ip_ratio=1.40 / pb_ratio=1.30 / aq=3:0.90 : English Default : Forced : DURATION : 01:28:52.286000000 NUMBER_OF_FRAMES : 127847 NUMBER_OF_BYTES : 4916243317 _STATISTICS_WRITING_APP : mkvmerge v7.4.0 ('Circles') 64bit built on Dec 12 2014 12:19:56 _STATISTICS_WRITING_DATE_UTC : 2015-04-28 08:49:06 _STATISTICS_TAGS : BPS DURATION NUMBER_OF_FRAMES NUMBER_OF_BYTES #1 : 2 : AC-3 / : Audio Coding 3 : CM (complete main) Endianness : Big : A_AC3 : 1 . 28 . : : 384 / : 6 : Front: L C R, Side: L R, LFE : 48,0 : 16 : : 244 (4%) : iTunes : Russian Default : Forced : #2 : 3 : AC-3 / : Audio Coding 3 : CM (complete main) Endianness : Big : A_AC3 : 1 . 28 . : : 192 / : 2 : Front: L R : 48,0 : 16 : : 122 (2%) : iTunes : Ukrainian Default : Forced : #3 : 4 : DTS / : Digital Theater Systems : 16 Endianness : Big : A_DTS : 1 . 28 . : : 1509 / : 6 : Front: L C R, Side: L R, LFE : 48,0 : 24 : : 960 (16%) : English Default : Forced : #1 : 5 : UTF-8 : S_TEXT/UTF8 / : UTF-8 Plain Text : Russian Default : Forced : #2 : 6 : UTF-8 : S_TEXT/UTF8 / : UTF-8 Plain Text : Russian Default : Forced : #3 : 7 : UTF-8 : S_TEXT/UTF8 / : UTF-8 Plain Text : Ukrainian Default : Forced : #4 : 8 : UTF-8 : S_TEXT/UTF8 / : UTF-8 Plain Text : English Default : Forced : 00:00:00.000 : en:1 00:03:06.000 : en:2 00:06:55.000 : en:3 00:10:29.000 : en:4 00:12:44.000 : en:5 00:15:35.000 : en:6 00:19:14.000 : en:7 00:23:54.000 : en:8 00:27:02.000 : en:9 00:31:25.000 : en:10 00:33:58.000 : en:11 00:36:27.000 : en:12 00:38:00.000 : en:13 00:41:02.000 : en:14 00:42:59.000 : en:15 00:46:36.000 : en:16 00:48:46.000 : en:17 00:52:30.000 : en:18 00:55:33.000 : en:19 00:58:18.000 : en:20 01:02:50.000 : en:21 01:07:20.000 : en:22 01:09:35.000 : en:23 01:11:43.000 : en:24 01:15:42.000 : en:25 01:18:27.000 : en:26 01:21:43.000 : en:27 01:23:47.000 : en:28

unionpeer.com


Смотрите также