Скачать фильм через торрент бесплатно в хорошем качестве бриллиантовая рука


Скачать фильм Бриллиантовая Рука через торрент в хорошем качестве бесплатно BDRip-AVC

GeneralUnique ID : 240288143462559912359021958984156967947 (0xB4C5D025DA1E19C5837EA3544089F40B)Complete name : E:BDRip-AVCBrilliantovaya ruka (1968).mkvFormat : MatroskaFormat version : Version 2File size : 2.24 GiBDuration : 1h 38mnOverall bit rate : 3 263 KbpsEncoded date : UTC 2011-12-24 20:42:55Writing application : mkvmerge v4.9.1 ('Ich will') сборка от Jul 11 2011 23:53:15Writing library : libebml v1.2.1 + libmatroska v1.1.1

VideoID : 1Format : AVCFormat/Info : Advanced Video CodecFormat profile : High L4.1Format settings, CABAC : YesFormat settings, ReFrames : 5 framesCodec ID : V_MPEG4/ISO/AVCDuration : 1h 38mnBit rate : 2 366 KbpsWidth : 1 000 pixelsHeight : 432 pixelsDisplay aspect ratio : 2.35:1Frame rate : 23.976 fpsColor space : YUVChroma subsampling : 4:2:0Bit depth : 8 bitsScan type : ProgressiveBits/(Pixel*Frame) : 0.228Stream size : 1.58 GiB (71%)Title : for freeislandWriting library : x264 core 116 r2074 2641b9eEncoding settings : cabac=1 / ref=5 / deblock=1:-2:-2 / analyse=0x3:0x133 / me=hex / subme=8 / psy=1 / psy_rd=1.00:0.15 / mixed_ref=1 / me_range=16 / chroma_me=1 / trellis=1 / 8x8dct=1 / cqm=0 / deadzone=21,11 / fast_pskip=1 / chroma_qp_offset=-3 / threads=4 / sliced_threads=0 / nr=0 / decimate=1 / interlaced=0 / bluray_compat=0 / constrained_intra=0 / bframes=7 / b_pyramid=2 / b_adapt=2 / b_bias=0 / direct=3 / weightb=1 / open_gop=0 / weightp=2 / keyint=240 / keyint_min=25 / scenecut=40 / intra_refresh=0 / rc_lookahead=50 / rc=2pass / mbtree=0 / bitrate=2366 / ratetol=1.0 / qcomp=1.00 / qpmin=0 / qpmax=69 / qpstep=4 / cplxblur=20.0 / qblur=0.5 / vbv_maxrate=50000 / vbv_bufsize=50000 / nal_hrd=none / ip_ratio=1.40 / pb_ratio=1.30 / aq=1:1.00Language : EnglishDefault : YesForced : NoColor primaries : BT.709-5, BT.1361, IEC 61966-2-4, SMPTE RP177Transfer characteristics : BT.709-5, BT.1361Matrix coefficients : BT.709-5, BT.1361, IEC 61966-2-4 709, SMPTE RP177

Audio #1ID : 2Format : AC-3Format/Info : Audio Coding 3Mode extension : CM (complete main)Codec ID : A_AC3Duration : 1h 38mnBit rate mode : ConstantBit rate : 448 KbpsChannel(s) : 1 channelChannel positions : Front: CSampling rate : 48.0 KHzBit depth : 16 bitsCompression mode : LossyStream size : 315 MiB (14%)Title : 1 channelLanguage : RussianDefault : YesForced : No

Audio #2ID : 3Format : AC-3Format/Info : Audio Coding 3Mode extension : CM (complete main)Codec ID : A_AC3Duration : 1h 38mnBit rate mode : ConstantBit rate : 448 KbpsChannel(s) : 6 channelsChannel positions : Front: L C R, Side: L R, LFESampling rate : 48.0 KHzBit depth : 16 bitsCompression mode : LossyStream size : 315 MiB (14%)Title : 5.1 channelsLanguage : RussianDefault : NoForced : No

Menu00:00:00.000 : en:00:00:00.00000:04:43.825 : en:00:04:43.82500:08:27.549 : en:00:08:27.54900:11:36.988 : en:00:11:36.98800:15:58.332 : en:00:15:58.33200:22:14.917 : en:00:22:14.91700:28:26.705 : en:00:28:26.70500:34:49.546 : en:00:34:49.54600:39:05.343 : en:00:39:05.34300:43:30.566 : en:00:43:30.56600:49:45.566 : en:00:49:45.56600:54:14.334 : en:00:54:14.33400:58:53.572 : en:00:58:53.57201:04:20.815 : en:01:04:20.81501:10:20.341 : en:01:10:20.34101:14:34.679 : en:01:14:34.67901:22:27.025 : en:01:22:27.02501:30:11.448 : en:01:30:11.44801:33:01.451 : en:01:33:01.45101:36:52.682 : en:01:36:52.682

piratbit.ru

Скачать фильм Бриллиантовая рука через торрент в хорошем качестве бесплатно 720p

Размер: 7.46 GB | Добавлен: 5 лет 9 мес. назад | Торрент скачан:116 раз
Реклама Дарим 3000 рублей за регистрацию, не упусти свой шанс получить шикарный бонус!!!

31-12-2011 07:45 Бриллиантовая рука Скачать торрент  

Бриллиантовая рука Страна: СССР / МосфильмЖанр: комедия, криминал, приключения, семейныйГод выпуска: 1968Продолжительность: 01:38:20Cубтитры: нет

Режиссер: Леонид Гайдай

В ролях: Юрий Никулин, Андрей Миронов, Анатолий Папанов, Нина Гребешкова, Станислав Чекан, Владимир Гуляев, Нонна Мордюкова, Светлана Светличная, Роман Филиппов, Григорий Шпигель

Описание: Кинороман из жизни контрабандистов с прологом и эпилогом. В южном городке орудует шайка «валютчиков», возглавляемая Шефом и его помощником Графом. Скромный советский служащий и примерный семьянин Семен Семеныч Горбунков отправляется в зарубежный круиз на теплоходе, на котором также плывет Граф, который должен забрать бриллианты в одном из восточных городов и провезти их в загипсованной руке. Но в силу недоразумения вместо жулика на условленном месте падает ничего не подозревающий Семен Семенович и драгоценный гипс накладывают ему. Вот тут-то все и начинается...

Тип релиза: BDRip 720p (Blu-Ray 1080p)Контейнер: MKVВидео: 1280x544 at 23.976, [email protected], crf, ~8945 kbps avgАудио: Russian: 48 kHz, DTS, 3/2 (L,C,R,l,r) + LFE ch, ~1536.00 kbpsАудио 2: Russian: 48 kHz, AC3, 1/0 (C) , ~192.00 kbps avgДополнительно: Сохранены оригинальные чаптеры как на Blu-ray.

GeneralUnique ID                                : 203696689309334287793965292153332519966 (0x993E8E2B815EE663A16A4B51CFFF541E)Complete name                            : D:\Фильмы\Brilliantovaja.ruka.1968.720p.BluRay.2xRus.HDCLUB.mkvFormat                                   : MatroskaFormat version                           : Version 2File size                                : 7.46 GiBDuration                                 : 1h 38mnOverall bit rate                         : 10.9 MbpsMovie name                               : Бриллиантовая рука (1968) - Release for HDCLUBEncoded date                             : UTC 2011-12-25 05:09:12Writing application                      : mkvmerge v5.2.0 ('I can't explain') built on Dec 18 2011 18:12:03Writing library                          : libebml v1.2.3 + libmatroska v1.3.0VideoID                                       : 1Format                                   : AVCFormat/Info                              : Advanced Video CodecFormat profile                           : [email protected] settings, CABAC                   : YesFormat settings, ReFrames                : 10 framesCodec ID                                 : V_MPEG4/ISO/AVCDuration                                 : 1h 38mnBit rate                                 : 8 945 KbpsWidth                                    : 1 280 pixelsHeight                                   : 544 pixelsDisplay aspect ratio                     : 2.35:1Frame rate                               : 23.976 fpsColor space                              : YUVChroma subsampling                       : 4:2:0Bit depth                                : 8 bitsScan type                                : ProgressiveBits/(Pixel*Frame)                       : 0.536Stream size                              : 6.14 GiB (82%)Title                                    : Бриллиантовая рука (1968) - Release for HDCLUBWriting library                          : x264 core 120 r2120 0c7dab9Encoding settings                        : cabac=1 / ref=10 / deblock=1:-3:-3 / analyse=0x3:0x133 / me=umh / subme=11 / psy=1 / psy_rd=1.00:0.00 / mixed_ref=1 / me_range=64 / chroma_me=1 / trellis=2 / 8x8dct=1 / cqm=0 / deadzone=21,11 / fast_pskip=0 / chroma_qp_offset=-2 / threads=9 / sliced_threads=0 / nr=0 / decimate=0 / interlaced=0 / bluray_compat=0 / constrained_intra=0 / bframes=6 / b_pyramid=2 / b_adapt=2 / b_bias=0 / direct=3 / weightb=1 / open_gop=0 / weightp=2 / keyint=250 / keyint_min=23 / scenecut=40 / intra_refresh=0 / rc_lookahead=40 / rc=crf / mbtree=0 / crf=16.4 / qcomp=0.60 / qpmin=0 / qpmax=69 / qpstep=4 / vbv_maxrate=50000 / vbv_bufsize=62500 / crf_max=0.0 / nal_hrd=none / ip_ratio=1.40 / pb_ratio=1.30 / aq=1:0.80Language                                 : RussianAudio #1ID                                       : 2Format                                   : DTSFormat/Info                              : Digital Theater SystemsCodec ID                                 : A_DTSDuration                                 : 1h 38mnBit rate mode                            : ConstantBit rate                                 : 1 510 KbpsChannel(s)                               : 6 channelsChannel positions                        : Front: L C R, Side: L R, LFESampling rate                            : 48.0 KHzBit depth                                : 16 bitsCompression mode                         : LossyStream size                              : 1.04 GiB (14%)Title                                    : 48 kHz, DTS, 3/2 (L,C,R,l,r) + LFE ch, ~1536.00 kbpsLanguage                                 : RussianAudio #2ID                                       : 3Format                                   : AC-3Format/Info                              : Audio Coding 3Mode extension                           : CM (complete main)Codec ID                                 : A_AC3Duration                                 : 1h 38mnBit rate mode                            : ConstantBit rate                                 : 192 KbpsChannel(s)                               : 1 channelChannel positions                        : Front: CSampling rate                            : 48.0 KHzBit depth                                : 16 bitsCompression mode                         : LossyStream size                              : 135 MiB (2%)Title                                    : 48 kHz, AC3, 1/0 (C) , ~192.00 kbps avgLanguage                                 : RussianMenu00:00:00.000                             : en:Chapter 0100:04:43.825                             : en:Chapter 0200:08:27.548                             : en:Chapter 0300:11:36.987                             : en:Chapter 0400:15:58.332                             : en:Chapter 0500:22:14.916                             : en:Chapter 0600:28:26.705                             : en:Chapter 0700:34:49.545                             : en:Chapter 0800:39:05.343                             : en:Chapter 0900:43:30.566                             : en:Chapter 1000:49:45.565                             : en:Chapter 1100:54:14.334                             : en:Chapter 1200:58:53.571                             : en:Chapter 1301:04:20.815                             : en:Chapter 1401:10:20.341                             : en:Chapter 1501:14:34.678                             : en:Chapter 1601:22:27.025                             : en:Chapter 1701:30:11.447                             : en:Chapter 1801:33:01.450                             : en:Chapter 1901:36:52.681                             : en:Chapter 2001:38:20.019                             : en:Chapter 21

Source_______ vs______Encode Скачать Бриллиантовая рука через торрент http://i30.fastpic.ru/big/2011/1225/c2/a5eeb145d38d375d3adbf95104f9d1c2.jpg Скачать фильм Бриллиантовая рука через торрент бесплантно в хорошем качестве Описание: Кинороман из жизни контрабандистов с прологом и эпилогом. В южном городке орудует шайка «валютчиков», возглавляемая Шефом и его ... 2011-12-31 07:45 10 10 3

Loading...

Loading...

Рекламный пират

31-12-2011 08:44 Бриллиантовая рука Скачать торрент  

ого! качество! спасибо!

Дорогой пользователь! Огромная просьба, поблагодарите релизера, оцените раздачу и оставьте свои комментарий, если Вы скачали Бриллиантовая рука через торрент бесплатно! Внесите свою лепту в развитие PiratBit!

Комментировать посты могут только пользователи прошедшие не сложную регистрацию

Бриллиантовая рука через торрент Скачать бесплатно Бриллиантовая рука Бриллиантовая рука скачать торрент Бриллиантовая рука смотреть онлайн Cкачать фильм Бриллиантовая рука бесплатно Бриллиантовая рука скачать торрент в хорошем качестве Бриллиантовая рука смотреть онлайн бесплатно в хорошем качестве

Вы не можете начинать темыВы не можете отвечать на сообщенияВы не можете редактировать свои сообщенияВы не можете удалять свои сообщенияВы не можете голосовать в опросахВы не можете прикреплять файлы к сообщениямВы можете скачивать файлы

piratbit.ru

Скачать фильм Бриллиантовая рука через торрент в хорошем качестве бесплатно BDRip

Раздают: 3 [ 50 KB/s ]
Размер: 1.45 GB | Добавлен: 5 лет 9 мес. назад | Торрент скачан:1198 раз
Реклама Дарим 3000 рублей за регистрацию, не упусти свой шанс получить шикарный бонус!!!

26-12-2011 08:15 Бриллиантовая рука Скачать торрент  

Бриллиантовая рукаГод выпуска: 1968Страна: СССРЖанр: комедия, криминал, приключения, семейныйПродолжительность: 01:38:20Перевод: Не требуется

Режиссер: Леонид Гайдай

В ролях: Юрий Никулин, Андрей Миронов, Анатолий Папанов, Нина Гребешкова, Станислав Чекан, Владимир Гуляев, Нонна Мордюкова, Светлана Светличная, Роман Филиппов, Григорий Шпигель

Описание: Кинороман из жизни контрабандистов с прологом и эпилогом. В южном городке орудует шайка «валютчиков», возглавляемая Шефом и его помощником Графом. Скромный советский служащий и примерный семьянин Семен Семеныч Горбунков отправляется в зарубежный круиз на теплоходе, на котором также плывет Граф, который должен забрать бриллианты в одном из восточных городов и провезти их в загипсованной руке. Но в силу недоразумения вместо жулика на условленном месте падает ничего не подозревающий Семен Семенович и драгоценный гипс накладывают ему. Вот тут-то все и начинается...

Качество: BDRipФормат: AVIВидео кодек: XviDАудио кодек: AC3Видео: XviD / 720 x 304 / 2.37:1 / 1660 kbps / 23,976 fpsАудио: 48 kHz, AC3 Dolby Digital, 3/2 (L,C,R,l,r) + LFE ch, ~448.00 kbps avg

Скачать Бриллиантовая рука через торрент http://ulanovka.ru/forum/images/users/4724/02259e60b3b527fc55ca7942de9a1388.png Скачать фильм Бриллиантовая рука через торрент бесплантно в хорошем качестве Описание: Кинороман из жизни контрабандистов с прологом и эпилогом. В южном городке орудует шайка «валютчиков», возглавляемая Шефом и его ... 2011-12-26 08:15 9.9 10 18

Loading...

Loading...

Рекламный пират

08-10-2013 19:18 Бриллиантовая рука Скачать торрент  

02-01-2015 17:29 Бриллиантовая рука Скачать торрент  

??????????????????????????????????????????????????раздача 0

Дорогой пользователь! Огромная просьба, поблагодарите релизера, оцените раздачу и оставьте свои комментарий, если Вы скачали Бриллиантовая рука через торрент бесплатно! Внесите свою лепту в развитие PiratBit!

Комментировать посты могут только пользователи прошедшие не сложную регистрацию

Бриллиантовая рука через торрент Скачать бесплатно Бриллиантовая рука Бриллиантовая рука скачать торрент Бриллиантовая рука смотреть онлайн Cкачать фильм Бриллиантовая рука бесплатно Бриллиантовая рука скачать торрент в хорошем качестве Бриллиантовая рука смотреть онлайн бесплатно в хорошем качестве

Вы не можете начинать темыВы не можете отвечать на сообщенияВы не можете редактировать свои сообщенияВы не можете удалять свои сообщенияВы не можете голосовать в опросахВы не можете прикреплять файлы к сообщениямВы можете скачивать файлы

piratbit.ru

Скачать фильм Бриллиантовая Рука через торрент в хорошем качестве бесплатно 720p

Размер: 6.01 GB | Добавлен: 5 лет 10 мес. назад | Торрент скачан:150 раз
Реклама Дарим 3000 рублей за регистрацию, не упусти свой шанс получить шикарный бонус!!!

25-12-2011 09:09 Бриллиантовая Рука Скачать торрент  

Бриллиантовая Рука

Страна: СССР Год выпуска: 1968 Жанр: Комедия Продолжительность: 01:38:21Перевод: Не требуется

Режиссёр: Леонид Гайдай

В ролях: Юрий Никулин, Анатолий Папанов, Андрей Миронов, Леонид Каневский, Светлана Светличная, Нонна Мордюкова, Нина Гребешкова, Владимир Гуляев, Станислав Чекан, Григорий Шпигель, Андрей Файт, Евгения Мельникова, Максим Никулин, Георгий Светлани, Лев Поляков, Татьяна Никулина

Описание: Скромный служащий Семен Горбунков, отправляется в заграничную турпоездку и там, случайно споткнувшись, ломает руку. Но оказывается, произнесенные им при этом слова "Черт побери!" служат паролем для контрабандистов, и в гипс Семен Семеновича закатывают золото и бриллианты. А настоящий контрабандист, тем временем, оказывается соседом Горбункова... Контрабандисты во чтобы то не стало пытаются заполучить ценности из гипса. Но Семен Семеныч ставит в известность милицию, которая начинает "ловлю на живца" - на самого Горбункова, и Семен Семеныч вступает в героический поединок с шайкой контрабандистов...

Качество: BDRip 720pИсходник: Blu-Ray Формат: MKVВидео кодек: H.264Аудио кодек: DTSВидео: H.264, 1280x544 pix, 7233 Kbps, 23.976 fps, High L4.1Аудио: DTS, 48.0 KHz, 1510 Kbps, 5.1 channel, 16 bits

GeneralUnique ID : 187924201318030051810054950726144720747 (0x8D60E27908EA96C88C1ED1753A497F6B)Complete name : E:Brilliantovaya ruka [BDRip 720p] (1968).mkvFormat : MatroskaFormat version : Version 2File size : 6.01 GiBDuration : 1h 38mnOverall bit rate : 8 742 KbpsEncoded date : UTC 2011-12-25 05:06:25Writing application : mkvmerge v4.9.1 ('Ich will') сборка от Jul 11 2011 23:53:15Writing library : libebml v1.2.1 + libmatroska v1.1.1

VideoID : 1Format : AVCFormat/Info : Advanced Video CodecFormat profile : High L4.1Format settings, CABAC : YesFormat settings, ReFrames : 5 framesCodec ID : V_MPEG4/ISO/AVCDuration : 1h 38mnBit rate : 7 233 KbpsWidth : 1 280 pixelsHeight : 544 pixelsDisplay aspect ratio : 2.35:1Frame rate : 23.976 fpsColor space : YUVChroma subsampling : 4:2:0Bit depth : 8 bitsScan type : ProgressiveBits/(Pixel*Frame) : 0.433Stream size : 4.85 GiB (81%)Title : for freeislandWriting library : x264 core 116 r2074 2641b9eEncoding settings : cabac=1 / ref=5 / deblock=1:-1:-1 / analyse=0x3:0x133 / me=hex / subme=8 / psy=1 / psy_rd=1.00:0.15 / mixed_ref=1 / me_range=16 / chroma_me=1 / trellis=1 / 8x8dct=1 / cqm=0 / deadzone=21,11 / fast_pskip=1 / chroma_qp_offset=-3 / threads=4 / sliced_threads=0 / nr=0 / decimate=1 / interlaced=0 / bluray_compat=0 / constrained_intra=0 / bframes=7 / b_pyramid=2 / b_adapt=2 / b_bias=0 / direct=3 / weightb=1 / open_gop=0 / weightp=2 / keyint=240 / keyint_min=25 / scenecut=40 / intra_refresh=0 / rc_lookahead=50 / rc=2pass / mbtree=0 / bitrate=7233 / ratetol=1.0 / qcomp=1.00 / qpmin=0 / qpmax=69 / qpstep=4 / cplxblur=20.0 / qblur=0.5 / vbv_maxrate=50000 / vbv_bufsize=50000 / nal_hrd=none / ip_ratio=1.40 / pb_ratio=1.30 / aq=1:1.00Language : EnglishDefault : YesForced : NoColor primaries : BT.709-5, BT.1361, IEC 61966-2-4, SMPTE RP177Transfer characteristics : BT.709-5, BT.1361Matrix coefficients : BT.709-5, BT.1361, IEC 61966-2-4 709, SMPTE RP177

AudioID : 2Format : DTSFormat/Info : Digital Theater SystemsCodec ID : A_DTSDuration : 1h 38mnBit rate mode : ConstantBit rate : 1 510 KbpsChannel(s) : 6 channelsChannel positions : Front: L C R, Side: L R, LFESampling rate : 48.0 KHzBit depth : 24 bitsCompression mode : LossyStream size : 1.04 GiB (17%)Language : RussianDefault : YesForced : No

Menu00:00:00.000 : en:00:00:00.00000:04:43.825 : en:00:04:43.82500:08:27.549 : en:00:08:27.54900:11:36.988 : en:00:11:36.98800:15:58.332 : en:00:15:58.33200:22:14.917 : en:00:22:14.91700:28:26.705 : en:00:28:26.70500:34:49.546 : en:00:34:49.54600:39:05.343 : en:00:39:05.34300:43:30.566 : en:00:43:30.56600:49:45.566 : en:00:49:45.56600:54:14.334 : en:00:54:14.33400:58:53.572 : en:00:58:53.57201:04:20.815 : en:01:04:20.81501:10:20.341 : en:01:10:20.34101:14:34.679 : en:01:14:34.67901:22:27.025 : en:01:22:27.02501:30:11.448 : en:01:30:11.44801:33:01.451 : en:01:33:01.45101:36:52.682 : en:01:36:52.682

Релиз: Скачать Бриллиантовая Рука через торрент http://s017.radikal.ru/i439/1112/11/75cac6feece4.jpg Скачать фильм Бриллиантовая Рука через торрент бесплантно в хорошем качестве Описание: Скромный служащий Семен Горбунков, отправляется в заграничную турпоездку и там, случайно споткнувшись, ломает руку. Но ... 2011-12-25 09:09 10 10 5

Loading...

Loading...

Рекламный пират

25-12-2011 12:36 Бриллиантовая Рука Скачать торрент  

Просто СУПЕР!!!!!!!!!!!

25-12-2011 16:16 Бриллиантовая Рука Скачать торрент  

Родители смотрели, я смотрел, дети будут смотреть и внуки 100% будут смотреть. Неумирающая легенда.

26-12-2011 14:21 Бриллиантовая Рука Скачать торрент  

Light-L-N писал(а):

Родители смотрели, я смотрел, дети будут смотреть и внуки 100% будут смотреть. Неумирающая легенда.

Вообще было бы здорово, если бы кто-нибудь сделайте все советские комедии в таком классном качестве

27-03-2015 23:08 Бриллиантовая Рука Скачать торрент  

Леонид Гайдай Гений.таких нет уже.наверно через 100 лет будет Гайдай№2.ну а фильм класика.

Дорогой пользователь! Огромная просьба, поблагодарите релизера, оцените раздачу и оставьте свои комментарий, если Вы скачали Бриллиантовая Рука через торрент бесплатно! Внесите свою лепту в развитие PiratBit!

Комментировать посты могут только пользователи прошедшие не сложную регистрацию

Бриллиантовая Рука через торрент Скачать бесплатно Бриллиантовая Рука Бриллиантовая Рука скачать торрент Бриллиантовая Рука смотреть онлайн Cкачать фильм Бриллиантовая Рука бесплатно Бриллиантовая Рука скачать торрент в хорошем качестве Бриллиантовая Рука смотреть онлайн бесплатно в хорошем качестве

Вы не можете начинать темыВы не можете отвечать на сообщенияВы не можете редактировать свои сообщенияВы не можете удалять свои сообщенияВы не можете голосовать в опросахВы не можете прикреплять файлы к сообщениямВы можете скачивать файлы

piratbit.ru


Смотрите также