Скачать фильм через торрент бесплатно в хорошем качестве двойник дьявола


Скачать фильм Двойник дьявола через торрент в хорошем качестве бесплатно BDRip лицензия

Размер: 1.47 GB | Добавлен: 5 лет 10 мес. назад | Торрент скачан:265 раз
Реклама Дарим 3000 рублей за регистрацию, не упусти свой шанс получить шикарный бонус!!!

10-12-2011 10:00 Двойник дьявола Скачать торрент  

Двойник дьявола / The Devil's Double «Секс... власть... куча денег, что ещё нужно 'принцу' у которого есть всё?» Год выпуска: 2011Страна: Нидерланды,Бельгия / Corsan, Corrino Media Corporation, Staccato FilmsЖанр: драма, биографияПродолжительность: 01:48:08Перевод: Профессиональный (полное дублирование) [Лицензия] Режиссер: Ли ТамахориПродюссер: Catherine Vandeleene, Пол Брюлс, Майкл Джон ФедунСценарий: Майкл Томас, Латиф ЯхиаБюджет: $19 100 000Премьера в мире: 22 января 2011лицам до 17 лет обязательно присутствие взрослогоМировой рейтинг IMDB 7.10 (6 746) В ролях: Доминик Купер, Людивин Санье, Раад Рави, Филип Куэст, Мимун Оайясса, Халид Лэйт, Дар Салим, Нассер Мемарзиа, Мем Ферда, Пано Масти, Александр Гаврилин, Наталья Грачева, Александр Новиков, Иван Жарков, Анастасия НестеренкоОписание: Секс... Власть... Слишком много денег... Что еще может понадобиться «Принцу», у которого есть все? Разве что двойник. На него можно спихнуть всю рутину, а в опасных ситуациях он примет удар на себя. Но и Двойник не останется без награды — он получит все, что есть у принца. Все, кроме женщины, которая станет единственным, что Двойник по-настоящему возжелает.

Давно хотела посмотреть этот фильм, как только увидела анонс по Евроньюс в сюжете о Берлинском кинофестивале. Но так как российские премьеры фестивальных фильмов сильно отстают от мировых…Когда же я наконец дождалась выхода его на отечественные киноэкраны, я решила посмотреть его наедине с собой, потому с друзьями такие фильмы смотреть невозможно, так как никто не упустит возможности блеснуть остроумием и активно будет комментировать на протяжении всего фильма. А такие фильмы надо смотреть внимательно, не упуская деталей, которые и делают этот фильм примечательным.Сюжеты, основанные на реальных историях человеческих судеб, на мой взгляд, заслуживают внимание, так как они действительно имели место, это не просто чье-то воображение, а собрание поступков, которые были совершены и имели последствия, эмоций, которые испытывались людьми и повлияли на их мир и последующую жизнь. Само собой в фильмах часто все приукрашивают или наоборот; добавляют эпичности, но лишь для того, чтобы все не выглядело как глупое реалити-шоу, в данном случае, о сыне властного человека, которого баловали всю жизнь, и который искренне верит, что все чем он обладает принадлежит ему по праву, очевидно, сильно ошибается. С чего все начиналось всем известно. Удей, сын Саддама Хуссейна, находит себе двойника, который должен ходить на официальные мероприятия, пока он напивается, обкалывается, обнюхивается и обтрахивает все, что движется. Ах да, забыла отметить, что он еще и фанат садистских выходок, которые он предусмотрительно видеодокуметировал! Он, своего рода, воплощение всех человеческих пороков, и его, не задумываясь можно назвать психическим больным, потому что это единственное логическое объяснение его поведению. Что касается Яхьи, то он как было уже не раз сказано, его полная противоположность: он сдержан, хорошо воспитан, он имеет моральные принципы и по-настоящему любит свою семью, а иначе бы точно не согласился бы быть свидетелем всех оргий и бессмысленных убийств. Меня впечатлила игра Доминика Купера! Он великолепно справился со своей задачей — сыграть разные характеры людей, которые чуть ли не идеально похожи. Мельчайшая мимика, взгляд и жесты, почти незаметные, когда Яхья притворялся Удеем, выдавали его истинную личность. БРАВО, ДОМИНИК! Я думаю, вы выросли в глазах многих кинолюбителей и критиков.Мое внимание привлекла сцена, где Саддам, пришедший к своему сыну в больницу (передоз «снотворного»), хорошенечко одарил его пощечинами и едва ли не кастрировал, его остановил доктор, уверяя, что это смертельно из-за потери крови, которая может быть вызвана. На что Саддам сказал: «Его надо было еще при рождении оскопить!» Честно сказать, после этого прониклась к нему уважением, хотя Саддам Хуссейн и считается одним из самых жестоких и беспощадных диктаторов в современной истории, что, наверное, вполне резонно. Но жестокость бывает и оправданной, а в данном случае даже необходимой и, я бы сказала, здоровой реакцией отца.Я бы хотела отметить, что создатели хорошо потрудились, соорудив Багдад на Мальте. В общем, я считаю, что фильм стоит посмотреть, о потраченном времени не пожалеете. Еще раз убедилась, что европейское кино имеет душу, по сравнению со штампованными блокбастерами заокеанского производства.

    Достаточно интересное кино, правда ролик обещал намного большего, но и то что оказалось на самом деле то же не плохо. Тут можно конечно придираться к тому, что все съемки проходили в Саудовской Арабии и достоверность от этого улетучилась, так как на заднем плане Багдадом и не пахло. Но это можно простить, ну а в историю сына последнего диктатора Ирака поверить можно, таких отпрысков, у которых денег и власти куры не клюют очень много и каждый с такими сталкивался. Так что сценарная часть и режиссерская задумка вполне объяснима и понятна для зрителя, единственное, что осталось за кадром — сама глубина переживаний двойника сынка, здесь упущение и весьма серьезное. Да, с ролью дьяволенка он не справлялся, не шел на поводу, но все таки как то он остался в стороне от камер, где основное время ушло на самого оригинала. Кстати игра актерская здесь очень и очень хороша, действительно смена характеров на лицо и на лице, постарался, молодец. Но в остальном, все таки фильм мог бы быть и получше, а не только красоваться хоромами и насилием.

Качество: BDRip [Рип с Blu-ray 1080p ]Формат: AVIВидео кодек: XviDАудио кодек: AC3Видео: 720x304 (2.37:1), 23.976 fps, XviD build 50 ~1615 kbps avg, 0.31 bit/pixelАудио: 48 kHz, AC3 Dolby Digital, 2/0 (L,R) ch, ~320 kbps Скачать Двойник дьявола через торрент http://i27.fastpic.ru/big/2011/1210/45/48ec5bc11213430dcc725aeb1e8a0445.jpg Скачать фильм Двойник дьявола через торрент бесплантно в хорошем качестве Описание: Секс... Власть... Слишком много денег... Что еще может понадобиться «Принцу», у которого есть все? Разве что двойник. На него ... 2011-12-10 10:00 10 10 2

Loading...

Loading...

Последний раз редактировалось: coc900 (2011-12-10 10:32), всего редактировалось 2 раз(а)

Рекламный пират

10-12-2011 10:09 Двойник дьявола Скачать торрент  

Автор, от себя,если смотрел, можешь сказать как кино? Смотрел трейлер, не понял как оно....

10-12-2011 10:20 Двойник дьявола Скачать торрент  

BigBuddhaУважаемый мне такая тематика не очень,поэтому фильм я не смотрел.Сейчас добавлю пару рецензий,прочтите

15-12-2011 17:55 Двойник дьявола Скачать торрент  

Благодарю, хороший фильм

16-12-2011 09:51 Двойник дьявола Скачать торрент  

Кино супер!!!!!!!!! Вот что говорит когда две личности не могут быть одинаковыми

Дорогой пользователь! Огромная просьба, поблагодарите релизера, оцените раздачу и оставьте свои комментарий, если Вы скачали Двойник дьявола через торрент бесплатно! Внесите свою лепту в развитие PiratBit!

Комментировать посты могут только пользователи прошедшие не сложную регистрацию

Двойник дьявола через торрент Скачать бесплатно Двойник дьявола Двойник дьявола скачать торрент Двойник дьявола смотреть онлайн Cкачать фильм Двойник дьявола бесплатно Двойник дьявола скачать торрент в хорошем качестве Двойник дьявола смотреть онлайн бесплатно в хорошем качестве

Вы не можете начинать темыВы не можете отвечать на сообщенияВы не можете редактировать свои сообщенияВы не можете удалять свои сообщенияВы не можете голосовать в опросахВы не можете прикреплять файлы к сообщениямВы можете скачивать файлы

piratbit.ru

Скачать фильм Двойник дьявола через торрент в хорошем качестве бесплатно 1080p] Профессиональный (дубляж)

Размер: 33.86 GB | Добавлен: 3 года 7 мес. назад | Торрент скачан:20 раз
Реклама Дарим 3000 рублей за регистрацию, не упусти свой шанс получить шикарный бонус!!!

07-03-2014 13:31 Двойник дьявола Скачать торрент  

Двойник дьявола / The Devil's Double«Секс... власть... куча денег, что ещё нужно 'принцу' у которого есть всё?» Страна: Нидерланды, БельгияЖанр: Боевик, драма, биографияГод выпуска: 2011Продолжительность: 01:48:52Перевод : Профессиональный (дубляж) и Одноголосый закадровый - Вячеслав Замез (zamez)Формат субтитров: srt, pgsОригинальная аудиодорожка: АнглийскаяРежиссёр: Ли Тамахори / Lee TamahoriВ ролях: Доминик Купер, Людивин Санье, Раад Рави, Филип Куэст, Мимун Оайясса, Халид Лэйт, Дар Салим, Нассер Мемарзиа, Мем Ферда, Пано МастиОписание:Секс... Власть... Слишком много денег... Что еще может понадобиться «Принцу», у которого есть все? Разве что двойник.На него можно спихнуть всю рутину, а в опасных ситуациях он примет удар на себя. Но и Двойник не останется без награды - он получит все, что есть у принца. Все, кроме женщины, которая станет единственным, что Двойник по-настоящему возжелает.Качество:: BDRemuxФормат: MKVВидео кодек: AVCАудио кодек:DTS-HD MAВидео : MPEG-4 AVC / 34993 kbps / 1080p / 23.976 fps / 16:9 / High Profile 4.1Аудио 1: Русский дубляж / DTS-HD MA / 5.1 / 1998 kbps / 48 kHz / 16-bit (DTS Core: 5.1 / 48 kHz / 1509 kbps / 16-bit) (добавил заставку Lionsgate)Аудио 2: Русский одноголосый В. Замез / DTS / 5.1 / 1536 kbps / 48 kHz (ненормативная лексика) (спасибо mihaildns)Аудио 3: Русский одноголосый В. Замез / DTS / 5.1 / 1536 kbps / 48 kHz (спасибо mihaildns)Аудио 4: Английский / DTS-HD MA / 7.1 / 4467 kbps / 48 kHz / 24-bit (DTS Core: 5.1 / 48 kHz / 1509 kbps / 24-bit)Аудио 5: Английский / Dolby Digital / 2.0 / 224 kbps / 48 kHz (Commentary with Director Lee Tamahori)Cубтитры 1: Русские srt (BD west video)Cубтитры 2: Русские srt (Е.Воронин)Cубтитры 3: Английские srtCубтитры 4: Английские pgsCубтитры 5: Английские SDH pgsГлавы: есть

Код:

Полное имя                       : The.Devil's.Double.2011.Blu-ray.1080p.AVC.Rus.Eng.mkvФормат                           : MatroskaВерсия формата                   : Version 2Размер файла                     : 33,9 ГбайтПродолжительность                : 1 ч. 48 м.Режим общего битрейта            : ПеременныйОбщий поток                      : 44,5 Мбит/секНазвание фильма                  : HANSMERДата кодирования                 : UTC 2011-12-10 02:46:05Программа кодирования            : mkvmerge v5.1.0 ('And so it goes') built on Nov 28 2011 23:58:28Библиотека кодирования           : libebml v1.2.3 + libmatroska v1.3.0ВидеоИдентификатор                    : 1Формат                           : AVCФормат/Информация                : Advanced Video CodecПрофиль формата                  : [email protected]Параметр CABAC формата           : ДаПараметр ReFrames формата        : 4 кадраПараметр GOP формата             : M=3, N=12Режим смешивания                 : Container [email protected]Идентификатор кодека             : V_MPEG4/ISO/AVCПродолжительность                : 1 ч. 48 м.Вид битрейта                     : ПеременныйБитрейт                          : 37,0 Мбит/секШирина                           : 1920 пикселейВысота                           : 1080 пикселейСоотношение сторон               : 16:9Частота кадров                   : 23,976 кадра/секЦветовое пространство            : YUVСубдискретизация насыщенности    : 4:2:0Битовая глубина                  : 8 битТип развёртки                    : ПрогрессивнаяБит/(Пиксели*Кадры)              : 0.744Размер потока                    : 28,3 Гбайт (84%)Заголовок                        : 34993 kbpsЯзык                             : EnglishАудио #1Идентификатор                    : 2Формат                           : DTSФормат/Информация                : Digital Theater SystemsПрофиль формата                  : MA / CoreИдентификатор кодека             : A_DTSПродолжительность                : 1 ч. 48 м.Вид битрейта                     : ПеременныйБитрейт                          : 1561 Кбит/сек / 1510 Кбит/секКаналы                           : 6 каналовРасположение каналов             : Front: L C R, Side: L R, LFEЧастота                          : 48,0 КГцБитовая глубина                  : 16 битМетод сжатия                     : Без потерь / LossyЗаголовок                        : Dub / DTS-HD MA 5.1 @ 1998 kbpsЯзык                             : RussianАудио #2Идентификатор                    : 3Формат                           : DTSФормат/Информация                : Digital Theater SystemsИдентификатор кодека             : A_DTSПродолжительность                : 1 ч. 48 м.Вид битрейта                     : ПостоянныйБитрейт                          : 1510 Кбит/секКаналы                           : 6 каналовРасположение каналов             : Front: L C R, Side: L R, LFEЧастота                          : 48,0 КГцБитовая глубина                  : 24 битМетод сжатия                     : С потерямиРазмер потока                    : 1,15 Гбайт (3%)Заголовок                        : Zamez (mat)Язык                             : RussianАудио #3Идентификатор                    : 4Формат                           : DTSФормат/Информация                : Digital Theater SystemsИдентификатор кодека             : A_DTSПродолжительность                : 1 ч. 48 м.Вид битрейта                     : ПостоянныйБитрейт                          : 1510 Кбит/секКаналы                           : 6 каналовРасположение каналов             : Front: L C R, Side: L R, LFEЧастота                          : 48,0 КГцБитовая глубина                  : 24 битМетод сжатия                     : С потерямиРазмер потока                    : 1,15 Гбайт (3%)Заголовок                        : ZamezЯзык                             : RussianАудио #4Идентификатор                    : 5Формат                           : DTSФормат/Информация                : Digital Theater SystemsПрофиль формата                  : MA / CoreИдентификатор кодека             : A_DTSПродолжительность                : 1 ч. 48 м.Вид битрейта                     : ПеременныйБитрейт                          : 1597 Кбит/сек / 1510 Кбит/секКаналы                           : 8 каналов / 6 каналовРасположение каналов             : Front: L C R, Side: L R, Back: L R, LFE / Front: L C R, Side: L R, LFEЧастота                          : 48,0 КГцБитовая глубина                  : 24 битМетод сжатия                     : Без потерь / LossyЗаголовок                        : DTS-HD MA 7.1 @ 4467 kbpsЯзык                             : EnglishАудио #5Идентификатор                    : 6Формат                           : AC-3Формат/Информация                : Audio Coding 3Расширение режима                : CM (complete main)Идентификатор кодека             : A_AC3Продолжительность                : 1 ч. 48 м.Вид битрейта                     : ПостоянныйБитрейт                          : 224 Кбит/секКаналы                           : 2 каналаРасположение каналов             : Front: L RЧастота                          : 48,0 КГцБитовая глубина                  : 16 битМетод сжатия                     : С потерямиРазмер потока                    : 174 Мбайт (1%)Заголовок                        : Commentary with Director Lee TamahoriЯзык                             : EnglishТекст #1Идентификатор                    : 7Формат                           : UTF-8Идентификатор кодека             : S_TEXT/UTF8Идентификатор кодека/Информация  : UTF-8 Plain TextЗаголовок                        : BD west videoЯзык                             : RussianТекст #2Идентификатор                    : 8Формат                           : UTF-8Идентификатор кодека             : S_TEXT/UTF8Идентификатор кодека/Информация  : UTF-8 Plain TextЗаголовок                        : voronineЯзык                             : RussianТекст #3Идентификатор                    : 9Формат                           : UTF-8Идентификатор кодека             : S_TEXT/UTF8Идентификатор кодека/Информация  : UTF-8 Plain TextЯзык                             : EnglishТекст #4Идентификатор                    : 10Формат                           : PGSИдентификатор кодека             : S_HDMV/PGSИдентификатор кодека/Информация  : The same subtitle format used on BDs/HD-DVDsЗаголовок                        : PGSЯзык                             : EnglishТекст #5Идентификатор                    : 11Формат                           : PGSИдентификатор кодека             : S_HDMV/PGSИдентификатор кодека/Информация  : The same subtitle format used on BDs/HD-DVDsЗаголовок                        : PGS SDHЯзык                             : EnglishМеню00:00:00.000                     : en:Security Detail00:04:48.371                     : en:I Want You00:10:36.636                     : en:You Belong to Him00:21:14.982                     : en:Family/Discipline00:30:22.029                     : en:Three Sons00:33:36.097                     : en:Public Appearance/Chasing Girls00:44:50.354                     : en:Taking Orders00:48:07.051                     : en:Spared/A Visitor00:57:56.640                     : en:Military Speech01:01:37.694                     : en:Ambushed01:06:24.731                     : en:Wedding Day/Do It Yourself01:11:38.586                     : en:Complaint/Proud of You/The Party01:19:45.030                     : en:New Ride/Come Back01:27:45.927                     : en:It Was You01:32:54.486                     : en:Your Father01:38:42.125                     : en:Justice

Скачать Двойник дьявола через торрент http://i31.fastpic.ru/big/2011/1210/6e/879f08da41b386b0c095718bddfa7b6e.jpg Скачать фильм Двойник дьявола через торрент бесплантно в хорошем качестве Описание:Секс... Власть... Слишком много денег... Что еще может понадобиться «Принцу», у которого есть все? Разве что двойник.На него можно ... 2014-03-07 13:31 10 10 4

Loading...

Loading...

Рекламный пират

МИКЛУХА ДЖЕКС

07-03-2014 16:01 Двойник дьявола Скачать торрент  

Отличный фильм!

07-03-2014 17:20 Двойник дьявола Скачать торрент  

Поменьше размер фильма будет?

Дорогой пользователь! Огромная просьба, поблагодарите релизера, оцените раздачу и оставьте свои комментарий, если Вы скачали Двойник дьявола через торрент бесплатно! Внесите свою лепту в развитие PiratBit!

Комментировать посты могут только пользователи прошедшие не сложную регистрацию

Двойник дьявола через торрент Скачать бесплатно Двойник дьявола Двойник дьявола скачать торрент Двойник дьявола смотреть онлайн Cкачать фильм Двойник дьявола бесплатно Двойник дьявола скачать торрент в хорошем качестве Двойник дьявола смотреть онлайн бесплатно в хорошем качестве

Вы не можете начинать темыВы не можете отвечать на сообщенияВы не можете редактировать свои сообщенияВы не можете удалять свои сообщенияВы не можете голосовать в опросахВы не можете прикреплять файлы к сообщениямВы можете скачивать файлы

piratbit.ru

Скачать фильм Двойник дьявола через торрент в хорошем качестве бесплатно DVD9

Размер: 7.36 GB | Добавлен: 5 лет 10 мес. назад | Торрент скачан:38 раз
Реклама Дарим 3000 рублей за регистрацию, не упусти свой шанс получить шикарный бонус!!!

15-12-2011 16:44 Двойник дьявола Скачать торрент  

Двойник дьявола / The Devil's Double«Секс... власть... куча денег, что ещё нужно 'принцу' у которого есть всё?» Страна: Нидерланды, БельгияСтудия: Corrino Media Corporation, Corsan, Staccato FilmsЖанр: драма, биографияГод выпуска: 2011Мировая премьера: 22 января 2011Российская премьера: 11 августа 2011, «West»Дата выхода DVD: 13 декабря 2011, «West Video»Дата выхода Blu-Ray: 13 декабря 2011, «West Video»Продолжительность: 01:43:44Перевод: Профессиональный (дублированный) [Лицензия]Cубтитры: русские, украинскиеОригинальная аудиодорожка: английскийРежиссер: Ли Тамахори / Lee TamahoriВ ролях: Доминик Купер, Людивин Санье, Раад Рави, Филип Куэст, Мимун Оайясса, Халид Лэйт, Дар Салим, Нассер Мемарзиа, Мем Ферда, Пано МастиОписание: Секс… Власть… Слишком много денег… Что еще может понадобиться «Принцу», у которого есть все? Разве что двойник.На него можно спихнуть всю рутину, а в опасных ситуациях он примет удар на себя. Но и Двойник не останется без награды — он получит все, что есть у принца. Все, кроме женщины, которая станет единственным, что Двойник по-настоящему возжелает.Бонусы: Фильм о фильме, Латиф и Удэй, дизайн фильма, трейлер, анонсы Качество: DVD9 R5Формат: DVD-VideoВидео кодек: MPEG2Аудио кодек: AC3 + DTSВидео: PAL 16:9 (720x576(0.647)) MPEG Video, 25,000 кадр/сек, 6706 Кбит/секАудио #1: Russian (Dolby AC3, 6 ch) 384 Кбит/сек, 48,0 КГцАудио #2: English (Dolby AC3, 6 ch) 384 Кбит/сек, 48,0 КГцАудио #3: Russian (DTS, 5 ch) 768 Кбит/сек, 48,0 КГцTitle:Size: 7.36 Gb ( 7 717 550 KBytes ) - DVD-9Enabled regions: 1, 2, 3, 4, 5, 6, 7, 8

VTS_01 :Play Length: 00:00:23Video: PAL 4:3 (720x576) VBR

VTS_02 :Play Length: 00:02:27Video: PAL 16:9 (720x576) VBR, Auto Pan&ScanAudio:Russian (Dolby AC3, 2 ch)Russian (Dolby AC3, 2 ch)

VTS_03 :Play Length: 00:04:43Video: PAL 16:9 (720x576) VBR, Auto Pan&ScanAudio:Russian (Dolby AC3, 2 ch)English (Dolby AC3, 2 ch)

VTS_04 :Play Length: 00:03:25Video: PAL 16:9 (720x576) VBR, Auto Pan&ScanAudio:Russian (Dolby AC3, 2 ch)English (Dolby AC3, 2 ch)

VTS_05 :Play Length: 00:04:35Video: PAL 16:9 (720x576) VBR, Auto Pan&ScanAudio:Russian (Dolby AC3, 2 ch)English (Dolby AC3, 2 ch)

VTS_06 :Play Length: 00:04:34Video: PAL 16:9 (720x576) VBR, Auto Pan&ScanAudio:Russian (Dolby AC3, 2 ch)English (Dolby AC3, 2 ch)

VTS_07 :Play Length: 00:02:24Video: PAL 16:9 (720x576) VBR, Auto Pan&ScanAudio:Russian (Dolby AC3, 2 ch)Russian (Dolby AC3, 2 ch)

VTS_08 :Play Length: 00:02:16Video: PAL 16:9 (720x576) VBR, Auto Pan&ScanAudio:Russian (Dolby AC3, 2 ch)Russian (Dolby AC3, 2 ch)

VTS_09 :Play Length: 00:01:10Video: PAL 4:3 (720x576) VBRAudio:English (Dolby AC3, 2 ch)English (Dolby AC3, 2 ch)

VTS_10 :Play Length: 01:43:44Video: PAL 16:9 (720x576) VBR, Auto Pan&Scan, Auto LetterboxedAudio:Russian (Dolby AC3, 6 ch)English (Dolby AC3, 6 ch)Russian (DTS, 5 ch)Subtitles:RussianUkrainian

ОбщееПолное имя : G:\Новинки 2011\Dvojnik.d'javola.2011.DVD9\VIDEO_TS\VTS_10_1.VOBФормат : MPEG-PSРазмер файла : 1024 МбайтПродолжительность : 17 м.Общий поток : 8396 Кбит/сек

ВидеоИдентификатор : 224 (0xE0)Формат : MPEG VideoВерсия формата : Version 2Профиль формата : [email protected]Параметр BVOP формата : ДаПараметр матрицы формата : ВыборочнаяПродолжительность : 17 м.Вид битрейта : ПеременныйБитрейт : 6706 Кбит/секМаксимальный битрейт : 7900 Кбит/секШирина : 720 пикселейВысота : 576 пикселейСоотношение сторон : 16:9Частота кадров : 25,000 кадров/секСтандарт вещания : PALЦветовое пространство : YUVСубдискретизация насыщенности : 4:2:0Битовая глубина : 8 битТип развёртки : ЧересстрочнаяПорядок развёртки : Верхнее поле первоеМетод сжатия : С потерямиБит/(Пиксели*Кадры) : 0.647Размер потока : 818 Мбайт (80%)

Аудио #1Идентификатор : 189 (0xBD)-128 (0x80)Формат : AC-3Формат/Информация : Audio Coding 3Расширение режима : CM (complete main)Режим смешивания : DVD-VideoПродолжительность : 17 м.Вид битрейта : ПостоянныйБитрейт : 384 Кбит/секКаналы : 6 каналовРасположение каналов : Front: L C R, Side: L R, LFEЧастота : 48,0 КГцБитовая глубина : 16 битМетод сжатия : С потерямиРазмер потока : 46,8 Мбайт (5%)

Аудио #2Идентификатор : 189 (0xBD)-129 (0x81)Формат : AC-3Формат/Информация : Audio Coding 3Расширение режима : CM (complete main)Режим смешивания : DVD-VideoПродолжительность : 17 м.Вид битрейта : ПостоянныйБитрейт : 384 Кбит/секКаналы : 6 каналовРасположение каналов : Front: L C R, Side: L R, LFEЧастота : 48,0 КГцБитовая глубина : 16 битМетод сжатия : С потерямиРазмер потока : 46,8 Мбайт (5%)

Аудио #3Идентификатор : 189 (0xBD)-138 (0x8A)Формат : DTSФормат/Информация : Digital Theater SystemsРежим смешивания : DVD-VideoПродолжительность : 17 м.Вид битрейта : ПостоянныйБитрейт : 755 Кбит/секКаналы : 6 каналовРасположение каналов : Front: L C R, Side: L R, LFEЧастота : 48,0 КГцБитовая глубина : 24 битМетод сжатия : С потерямиРазмер потока : 92,0 Мбайт (9%)

ТекстИдентификатор : 189 (0xBD)-32 (0x20)Формат : RLEФормат/Информация : Run-length encodingРежим смешивания : DVD-VideoЗадержка видео : 440 мс.

Скачать Двойник дьявола через торрент http://i4.imageban.ru/out/2011/12/14/6577d8379edf674462ba22e9383021fe.jpg Скачать фильм Двойник дьявола через торрент бесплантно в хорошем качестве Описание: Секс… Власть… Слишком много денег… Что еще может понадобиться «Принцу», у которого есть все? Разве что двойник.На него можно ... 2011-12-15 16:44 4.5 10 6

Loading...

Loading...

Рекламный пират

Дорогой пользователь! Огромная просьба, поблагодарите релизера, оцените раздачу и оставьте свои комментарий, если Вы скачали Двойник дьявола через торрент бесплатно! Внесите свою лепту в развитие PiratBit!

Комментировать посты могут только пользователи прошедшие не сложную регистрацию

Двойник дьявола через торрент Скачать бесплатно Двойник дьявола Двойник дьявола скачать торрент Двойник дьявола смотреть онлайн Cкачать фильм Двойник дьявола бесплатно Двойник дьявола скачать торрент в хорошем качестве Двойник дьявола смотреть онлайн бесплатно в хорошем качестве

Вы не можете начинать темыВы не можете отвечать на сообщенияВы не можете редактировать свои сообщенияВы не можете удалять свои сообщенияВы не можете голосовать в опросахВы не можете прикреплять файлы к сообщениямВы можете скачивать файлы

piratbit.ru

/ The Devil's Double ( / Lee Tamahori) [2011, , , , , , BDRip 1080p] Dub Sub Rus + Original Eng

General Unique ID : 226076478162344389325022489025399335463 (0xAA14BEF365AF37648A5F19BBB559AA27) Complete name : D:\Downloads\\\The Devils Double 2011 BluRay 1080p DTS x264-CHD.mkv Format : Matroska File size : 12.2 GiB Duration : 1h 48mn Overall bit rate : 16.0 Mbps Movie name : -Talian- Encoded date : UTC 2011-12-10 11:45:46 Writing application : mkvmerge v5.0.1 ('Es ist Sommer') built on Oct 9 2011 11:55:43 Writing library : libebml v1.2.2 + libmatroska v1.3.0

Video

ID : 1 Format : AVC Format/Info : Advanced Video Codec Format profile : [email protected] Format settings, CABAC : Yes Format settings, ReFrames : 5 frames Codec ID : V_MPEG4/ISO/AVC Duration : 1h 48mn Bit rate : 9 943 Kbps Width : 1 920 pixels Height : 816 pixels Display aspect ratio : 2.35:1 Frame rate : 23.976 fps Color space : YUV Chroma subsampling : 4:2:0 Bit depth : 8 bits Scan type : Progressive Bits/(Pixel*Frame) : 0.265 Stream size : 7.32 GiB (60%) Title : The Devils Double 2011 BluRay 1080p DTS x264-CHD Writing library : x264 core 118 r2085+614 d1cc25d Encoding settings : cabac=1 / ref=5 / deblock=1:-3:-3 / analyse=0x3:0x113 / me=umh / subme=10 / psy=1 / fade_compensate=0.00 / psy_rd=1.05:0.10 / mixed_ref=1 / me_range=48 / chroma_me=1 / trellis=2 / 8x8dct=1 / cqm=1 / deadzone=21,11 / fast_pskip=0 / chroma_qp_offset=-2 / threads=12 / sliced_threads=0 / nr=0 / decimate=1 / interlaced=0 / bluray_compat=0 / constrained_intra=0 / fgo=0 / bframes=6 / b_pyramid=2 / b_adapt=2 / b_bias=0 / direct=3 / weightb=1 / open_gop=0 / weightp=2 / keyint=250 / keyint_min=23 / scenecut=40 / intra_refresh=0 / rc_lookahead=60 / rc=2pass / mbtree=1 / bitrate=9943 / ratetol=2.0 / qcomp=0.70 / qpmin=3 / qpmax=69 / qpstep=4 / cplxblur=20.0 / qblur=0.5 / vbv_maxrate=40000 / vbv_bufsize=30000 / nal_hrd=none / ip_ratio=1.40 / aq=2:1.00 Language : English

Audio #1

ID : 2 Format : DTS Format/Info : Digital Theater Systems Codec ID : A_DTS Duration : 1h 48mn Bit rate mode : Constant Bit rate : 1 510 Kbps Channel(s) : 6 channels Channel positions : Front: L C R, Side: L R, LFE Sampling rate : 48.0 KHz Bit depth : 24 bits Compression mode : Lossy Stream size : 1.15 GiB (9%) Title : DUB- Blu-ray Language : Russian

Audio #2

ID : 3 Format : DTS Format/Info : Digital Theater Systems Codec ID : A_DTS Duration : 1h 48mn Bit rate mode : Constant Bit rate : 1 510 Kbps Channel(s) : 6 channels Channel positions : Front: L C R, Side: L R, LFE Sampling rate : 48.0 KHz Bit depth : 24 bits Compression mode : Lossy Stream size : 1.15 GiB (9%) Title : VO-Zamez[ ] Language : Russian

Audio #3

ID : 4 Format : DTS Format/Info : Digital Theater Systems Codec ID : A_DTS Duration : 1h 48mn Bit rate mode : Constant Bit rate : 1 510 Kbps Channel(s) : 6 channels Channel positions : Front: L C R, Side: L R, LFE Sampling rate : 48.0 KHz Bit depth : 24 bits Compression mode : Lossy Stream size : 1.15 GiB (9%) Title : VO-Zamez [ ] Language : Russian

Audio #4

ID : 5 Format : DTS Format/Info : Digital Theater Systems Codec ID : A_DTS Duration : 1h 48mn Bit rate mode : Constant Bit rate : 1 510 Kbps Channel(s) : 6 channels Channel positions : Front: L C R, Side: L R, LFE Sampling rate : 48.0 KHz Bit depth : 24 bits Compression mode : Lossy Stream size : 1.15 GiB (9%) Title : Original Language : English

Text #1

ID : 6 Format : UTF-8 Codec ID : S_TEXT/UTF8 Codec ID/Info : UTF-8 Plain Text Title : Sub-Blu-ray Language : Russian

Text #2

ID : 7 Format : UTF-8 Codec ID : S_TEXT/UTF8 Codec ID/Info : UTF-8 Plain Text Title : Sub-Voronine Language : Russian

Text #3

ID : 8 Format : UTF-8 Codec ID : S_TEXT/UTF8 Codec ID/Info : UTF-8 Plain Text Title : Sub Language : Ukrainian

Text #4

ID : 9 Format : UTF-8 Codec ID : S_TEXT/UTF8 Codec ID/Info : UTF-8 Plain Text Title : Sub-full Language : English

Text #5

ID : 10 Format : UTF-8 Codec ID : S_TEXT/UTF8 Codec ID/Info : UTF-8 Plain Text Title : Sub-SDH Language : English

Menu

00:00:00.000 : Security Detail 00:04:48.371 : I Want You 00:10:36.636 : You Belong to Him 00:21:14.982 : Family/Discipline 00:30:22.029 : Three Sons 00:33:36.097 : Public Appearance/Chasing Girls 00:44:50.354 : Taking Orders 00:48:07.051 : Spared/A Visitor 00:57:56.640 : Military Speech 01:01:37.694 : Ambushed 01:06:24.731 : Wedding Day/Do It Yourself 01:11:38.586 : Complaint/Proud of You/The Party 01:19:45.030 : New Ride/Come Back 01:27:45.927 : It Was You 01:32:54.486 : Your Father 01:38:42.125 : Justice

unionpeer.com


Смотрите также