Скачать фильм через торрент бесплатно в хорошем качестве город смерти


Город костей (2013) через торрент

4 февраля 2016 12:46 Орудия смерти: Город костей / The Mortal Instruments: City of Bones (2013) BDRemux 1080p от NovaLan .torrent   [Информация о файле (нажмите для просмотра)] Перевод: Дублированный(Лицензия) / Профессиональный многоголосый / УкраинскийКодек: H.264Качество: Blu-Ray Remux 1080pВидео: MPEG-4 AVC, 24793 Кбит/с, 1920х1080, 23.976 кадр/сЗвук: Русский (DTS-HD MA, 6 ch, 2079 Кбит/с), (AC3, 6 ch, 448 Кбит/с), украинский (AC3, 2 ch, 192 Кбит/с), английский (DTS-HD MA, 6 ch, 3819 Кбит/с), (AC3, 6 ch, 640 Кбит/с)Субтитры: Русские, английские, испанские 31,04 Gb 3 2 4 февраля 2016 12:46 Орудия смерти: Город костей / The Mortal Instruments: City of Bones (2013) BDRip-AVC от HELLYWOOD | US-Transfer | Лицензия .torrent   [Информация о файле (нажмите для просмотра)] Перевод: Профессиональный (полное дублирование) [лицензия BD RUS]Субтитры: Русские, английские (Fill + SDH)Качество: BDRip-AVCФормат: MKVВидео: х.264, 1032x430 (2,40:1), 23,976 fps, 1502 Кbps, 0.141 bit/pixelАудио#1: 48 kHz, AC3 Dolby Digital, 3/2 (L,C,R,l,r) + LFE ch, 448.00 kbps |RUSАудио#2: 48 kHz, AC3 Dolby Digital, 3/2 (L,C,R,l,r) + LFE ch, 448.00 kbps |ENG 2,18 Gb 55 2 4 февраля 2016 12:46 Орудия смерти: Город костей / The Mortal Instruments: City of Bones (2013) BDRip от HQCLUB | USA Transfer | Лицензия .torrent   [Информация о файле (нажмите для просмотра)] Перевод: Профессиональный (полное дублирование)Субтитры: русские, английские (обычные, SDH, SDH-Colored)Формат: AVIКачество: BDRip (источник:Видео: 720x304 (2.37:1), 23.976 fps, XviD build 65 ~1943 kbps avg, 0.37 bit/pixelАудио #1: 48 kHz, AC3 Dolby Digital, 3/2 (L,C,R,l,r) + LFE ch, ~448 kbps avg (DUB)Аудио #2: 48 kHz, AC3 Dolby Digital, 2/0 (L,R) ch, ~192 kbps avg (UKR.DUB)(отдельно)Аудио #3: 48 kHz, AC3 Dolby Digital, 3/2 (L,C,R,l,r) + LFE ch, ~448 kbps avg (MVO)(отдельно)Аудио #4: 48 kHz, AC3 Dolby Digital, 3/2 (L,C,R,l,r) + LFE ch, ~448 kbps avg (ENG)(отдельно) 2,18 Gb 599 14 4 февраля 2016 12:46 Орудия смерти: Город костей / The Mortal Instruments: City of Bones (2013) BDRip 1080p .torrent   [Информация о файле (нажмите для просмотра)] Перевод: Дублированный + Оригинал (Eng)Кодек: x264Качество: BDRip 1080pВидео: 1920x800, 7252 Kbps, 23.976 fpsАудио #1: AC-3, 6 ch, 640 kbps (Rus)Аудио #2: AC-3, 6 ch, 640 kbps (Eng)Субтитры: русские, английскиеВидео: Идентификатор : 1 Формат : AVC Формат/Информация : Advanced Video Codec Профиль формата : [email protected] Параметр CABAC формата : Да Параметр ReFrames формата : 5 кадров Идентификатор кодека : V_MPEG4/ISO/AVC Продолжительность : 2 ч. 10 м. Битрейт : 7252 Кбит/сек Ширина : 1920 пикселей Высота : 800 пикселей Соотношение сторон : 2,40:1 Режим частоты кадров : Постоянный Частота кадров : 23,976 кадра/сек Цветовое пространство : YUV Субдискретизация насыщенности : 4:2:0 Битовая глубина : 8 бит Тип развёртки : Прогрессивная Бит/(Пиксели*Кадры) : 0.197 Размер потока : 6,44 Гбайт (83%) Заголовок : Rip by Boriy Библиотека кодирования : x264 core 142 r2409 d6b4e63 Настройки программы : cabac=1 / ref=5 / deblock=1:-3:-3 / analyse=0x3:0x113 / me=umh / subme=11 / psy=1 / psy_rd=1.00:0.00 / mixed_ref=1 / me_range=32 / chroma_me=1 / trellis=2 / 8x8dct=1 / cqm=0 / deadzone=21,11 / fast_pskip=0 / chroma_qp_offset=-2 / threads=12 / lookahead_threads=1 / sliced_threads=0 / nr=0 / decimate=0 / interlaced=0 / bluray_compat=0 / constrained_intra=0 / bframes=6 / b_pyramid=2 / b_adapt=2 / b_bias=0 / direct=3 / weightb=1 / open_gop=0 / weightp=2 / keyint=240 / keyint_min=23 / scenecut=40 / intra_refresh=0 / rc=2pass / mbtree=0 / bitrate=7252 / ratetol=1.0 / qcomp=0.60 / qpmin=0 / qpmax=69 / qpstep=4 / cplxblur=20.0 / qblur=0.5 / ip_ratio=1.40 / pb_ratio=1.30 / aq=1:0.80 Язык : English Default : Да Forced : НетАудио #1: Идентификатор : 2 Формат : AC-3 Формат/Информация : Audio Coding 3 Расширение режима : CM (complete main) Параметр Endianness формата : Big Идентификатор кодека : A_AC3 Продолжительность : 2 ч. 10 м. Вид битрейта : Постоянный Битрейт : 640 Кбит/сек Каналы : 6 каналов Расположение каналов : Front: L C R, Side: L R, LFE Частота : 48,0 КГц Битовая глубина : 16 бит Метод сжатия : С потерями Размер потока : 596 Мбайт (8%) Заголовок : Дубляж Язык : Russian Default : Да Forced : НетАудио #2: Идентификатор : 3 Формат : AC-3 Формат/Информация : Audio Coding 3 Расширение режима : CM (complete main) Параметр Endianness формата : Big Идентификатор кодека : A_AC3 Продолжительность : 2 ч. 10 м. Вид битрейта : Постоянный Битрейт : 640 Кбит/сек Каналы : 6 каналов Расположение каналов : Front: L C R, Side: L R, LFE Частота : 48,0 КГц Битовая глубина : 16 бит Метод сжатия : С потерями Размер потока : 596 Мбайт (8%) Заголовок : Оригинал Язык : English Default : Нет Forced : Нет 7,76 Gb 103 2 4 февраля 2016 12:46 Орудия смерти: Город костей / The Mortal Instruments: City of Bones (2013) BDRemux 1080p от ExKinoRay | US-Transfer | D, P | Лицензия .torrent   [Информация о файле (нажмите для просмотра)] Качество: Blu-Ray Remux (1080p)Видео: MPEG-4 AVC, 24793 Кбит/с, 1920x1080, 23.976 кадр/сАудио: Русский (АС3, 6 ch, 640 Кбит/с), (АС3, 6 ch, 448 Кбит/с), английский (DTS-HD MA, 6 ch, 3819 Кбит/с)Перевод: Дублированный, профессиональный многоголосыйСубтитры: АнглийскиеВидео: Идентификатор : 1 Формат : AVC Формат/Информация : Advanced Video Codec Профиль формата : [email protected] Параметр CABAC формата : Да Параметр ReFrames формата : 2 кадра Параметр GOP формата : M=1, N=10 Идентификатор кодека : V_MPEG4/ISO/AVC Продолжительность : 2 ч. 10 м. Вид битрейта : Переменный Ширина : 1920 пикселей Высота : 1080 пикселей Соотношение сторон : 16:9 Режим частоты кадров : Постоянный Частота кадров : 23,976 кадра/сек Цветовое пространство : YUV Субдискретизация насыщенности : 4:2:0 Битовая глубина : 8 бит Тип развёртки : Прогрессивная Default : Да Forced : НетАудио #1: Идентификатор : 2 Формат : AC-3 Формат/Информация : Audio Coding 3 Расширение режима : CM (complete main) Параметр Endianness формата : Big Идентификатор кодека : A_AC3 Продолжительность : 2 ч. 10 м. Вид битрейта : Постоянный Битрейт : 640 Кбит/сек Каналы : 6 каналов Расположение каналов : Front: L C R, Side: L R, LFE Частота : 48,0 КГц Битовая глубина : 16 бит Метод сжатия : С потерями Размер потока : 596 Мбайт (2%) Заголовок : Дублированный (лицензия) Язык : Russian Default : Да Forced : ДаАудио #2: Идентификатор : 3 Формат : AC-3 Формат/Информация : Audio Coding 3 Расширение режима : CM (complete main) Параметр Endianness формата : Big Идентификатор кодека : A_AC3 Продолжительность : 2 ч. 10 м. Вид битрейта : Постоянный Битрейт : 448 Кбит/сек Каналы : 6 каналов Расположение каналов : Front: L C R, Side: L R, LFE Частота : 48,0 КГц Битовая глубина : 16 бит Метод сжатия : С потерями Размер потока : 417 Мбайт (2%) Заголовок : Профессиональный многоголосый Язык : Russian Default : Нет Forced : НетАудио #3: Идентификатор : 4 Формат : DTS Формат/Информация : Digital Theater Systems Профиль формата : MA / Core Режим : 16 Параметр Endianness формата : Big Идентификатор кодека : A_DTS Продолжительность : 2 ч. 10 м. Вид битрейта : Переменный Битрейт : Неизвестно / 1509 Кбит/сек Каналы : 6 каналов Расположение каналов : Front: L C R, Side: L R, LFE Частота : 48,0 КГц Битовая глубина : 24 бит Метод сжатия : Без потерь / Lossy Язык : English Default : Нет Forced : Нет 27,03 Gb 10 5 4 февраля 2016 12:46 Орудия смерти: Город костей / The Mortal Instruments: City of Bones (2013) DVD5 от New-Team | D | сжатый .torrent   [Информация о файле (нажмите для просмотра)] Перевод: Профессиональный (дублированный)Качество: DVD5 (сжатый) / DVD9 R5Формат: DVD VideoВидео: PAL 16x9 (720х576) VBR, 4509 kbps, Auto LetterboxedАудио: 48 kHz, Dolby AC3, 6 ch, 448 kbps,русский 4,37 Gb 6 3 4 февраля 2016 12:46 Орудия смерти: Город костей / The Mortal Instruments: City of Bones (2013) DVD9 R5 от New-Team | D | лицензия .torrent   [Информация о файле (нажмите для просмотра)] Перевод: Профессиональный (дублированный)Качество: DVD9 R5Формат: DVD VideoВидео: PAL 16x9 (720х576) VBR, 6000 kbps, Auto LetterboxedАудио 1: 48 kHz, Dolby AC3, 6 ch, 448 kbps,русскийАудио 2: 48 kHz, DTS, 6 ch, 768 kbps,русскийАудио 3: 48 kHz, Dolby AC3, 6 ch, 448 kbps, английский 6,98 Gb 10 5 4 февраля 2016 12:46 Орудия смерти: Город костей / The Mortal Instruments: City of Bones (2013) BDRip-AVC | US-Transfer | D .torrent   [Информация о файле (нажмите для просмотра)] Перевод: Дублированный (Лицензия)Субтитры: АнглийскиеКодек: H.264Формат: MKVКачество: BDRip-AVC (Blu-Ray Remux (1080р))Видео: MPEG-4 AVC, 2760 Кбит/с, 1024х424Звук: Русский, английский (АС3, 6 ch, 448 Кбит/с) 3,33 Gb 4 2 4 февраля 2016 12:46 Орудия смерти: Город костей / The Mortal Instruments: City of Bones (2013) BDRip 720p от Leonardo and Scarabey | US Transfer | Лицензия .torrent   [Информация о файле (нажмите для просмотра)] Перевод: Профессиональный (полное дублирование) ЛицензияФормат: MKVВидео кодек: MPEG-4 AVC Аудио кодек: AC3Видео: AVC, 1280x534 (2.40:1) at 23.976 fps, AVC at 4442 kbps avg, 0.271 bit/pixelАудио: 48 kHz, AC3 Dolby Digital, 3/2 (L,C,R,l,r) + LFE ch, 640.00 kbps - Russian; Профессиональный, полное дублирование.Субтитры: английские 4,71 Gb 69 9 4 февраля 2016 12:46 Орудия смерти: Город костей / The Mortal Instruments: City of Bones (2013) HDRip-AVC | D .torrent   [Информация о файле (нажмите для просмотра)] Перевод: ДублированныйКодек: x264Качество: HDRip-AVC [BDRip 720p]Видео: 800x336 (2.40:1), 23.976 fps, 726 kbps, 0.113 bit/pixelЗвук: 48 kHz, AAC-HE, 2 channels, 72 kbps 744,8 Mb 35 4 4 февраля 2016 12:46 Орудия смерти: Город костей / The Mortal Instruments: City of Bones (2013) BDRip 720p | Лицензия | US-Transfer .torrent   [Информация о файле (нажмите для просмотра)] Качество: BDRip (720p)Видео: MPEG-4 AVC, 5052 Кбит/с, 1280x534Аудио: Русский (АС3, 6 ch, 640 Кбит/с), (DTS, 6 ch, 1510 Кбит/с), английский (DTS, 6 ch, 1510 Кбит/с)Перевод: Дублированный [лицензия]Субтитры: АнглийскиеВидео: Идентификатор : 1 Формат : AVC Формат/Информация : Advanced Video Codec Профиль формата : [email protected] Параметр CABAC формата : Да Параметр ReFrames формата : 12 кадров Идентификатор кодека : V_MPEG4/ISO/AVC Продолжительность : 2 ч. 10 м. Битрейт : 5052 Кбит/сек Ширина : 1280 пикселей Высота : 534 пикселя Соотношение сторон : 2,40:1 Режим частоты кадров : Постоянный Частота кадров : 23,976 кадра/сек Цветовое пространство : YUV Субдискретизация насыщенности : 4:2:0 Битовая глубина : 8 бит Тип развёртки : Прогрессивная Бит/(Пиксели*Кадры) : 0.308 Размер потока : 4,44 Гбайт (56%) Библиотека кодирования : x264 core 133 r2334+704+50 a7549b7 tMod [[email protected]:2:0 X86_64] Настройки программы : cabac=1 / ref=12 / deblock=1:-3:-3 / analyse=0x3:0x113 / me=umh / subme=10 / psy=1 / fade_compensate=0.00 / psy_rd=1.05:0.02 / mixed_ref=1 / me_range=32 / chroma_me=1 / trellis=2 / 8x8dct=1 / cqm=0 / deadzone=21,11 / fast_pskip=1 / chroma_qp_offset=-3 / threads=16 / lookahead_threads=1 / sliced_threads=0 / nr=0 / decimate=1 / interlaced=0 / bluray_compat=0 / constrained_intra=0 / fgo=0 / bframes=6 / b_pyramid=2 / b_adapt=1 / b_bias=0 / direct=3 / weightb=1 / open_gop=0 / weightp=2 / keyint=240 / keyint_min=23 / scenecut=40 / intra_refresh=0 / rc_lookahead=50 / rc=2pass / mbtree=1 / bitrate=5052 / ratetol=1.0 / qcomp=0.70 / qpmin=0 / qpmax=69 / qpstep=4 / cplxblur=20.0 / qblur=0.5 / vbv_maxrate=50000 / vbv_bufsize=50000 / nal_hrd=none / ip_ratio=1.40 / aq=4:0.85 / aq-sensitivity=10.00 / aq-factor=1.00:1.00:1.00 / aq2=0 / aq3=0 Язык : English Default : Да Forced : НетАудио #1: Идентификатор : 2 Формат : AC-3 Формат/Информация : Audio Coding 3 Расширение режима : CM (complete main) Параметр Endianness формата : Big Идентификатор кодека : A_AC3 Продолжительность : 2 ч. 10 м. Вид битрейта : Постоянный Битрейт : 640 Кбит/сек Каналы : 6 каналов Расположение каналов : Front: L C R, Side: L R, LFE Частота : 48,0 КГц Битовая глубина : 16 бит Метод сжатия : С потерями Размер потока : 596 Мбайт (7%) Язык : Russian Default : Да Forced : НетАудио #2: Идентификатор : 3 Формат : DTS Формат/Информация : Digital Theater Systems Режим : 16 Параметр Endianness формата : Big Идентификатор кодека : A_DTS Продолжительность : 2 ч. 10 м. Вид битрейта : Постоянный Битрейт : 1509 Кбит/сек Каналы : 6 каналов Расположение каналов : Front: L C R, Side: L R, LFE Частота : 48,0 КГц Битовая глубина : 24 бит Метод сжатия : С потерями Размер потока : 1,37 Гбайт (17%) Язык : Russian Default : Нет Forced : НетАудио #3: Идентификатор : 4 Формат : DTS Формат/Информация : Digital Theater Systems Режим : 16 Параметр Endianness формата : Big Идентификатор кодека : A_DTS Продолжительность : 2 ч. 10 м. Вид битрейта : Постоянный Битрейт : 1509 Кбит/сек Каналы : 6 каналов Расположение каналов : Front: L C R, Side: L R, LFE Частота : 48,0 КГц Битовая глубина : 24 бит Метод сжатия : С потерями Размер потока : 1,37 Гбайт (17%) Язык : English Default : Нет Forced : Нет 7,92 Gb 9 2 4 февраля 2016 12:46 Орудия смерти: Город костей / The Mortal Instruments: City of Bones (2013) BDRip 1080p | Лицензия | US-Transfer .torrent   [Информация о файле (нажмите для просмотра)] Качество: BDRip (1080p)Видео: MPEG-4 AVC, 10500 Кбит/с, 1920x800Аудио: Русский (АС3, 6 ch, 640 Кбит/с), (DTS, 6 ch, 1510 Кбит/с), английский (DTS, 6 ch, 1510 Кбит/с)Перевод: Дублированный [лицензия]Субтитры: АнглийскиеВидео: Идентификатор : 1 Формат : AVC Формат/Информация : Advanced Video Codec Профиль формата : [email protected] Параметр CABAC формата : Да Параметр ReFrames формата : 5 кадров Идентификатор кодека : V_MPEG4/ISO/AVC Продолжительность : 2 ч. 10 м. Битрейт : 10,5 Мбит/сек Ширина : 1920 пикселей Высота : 800 пикселей Соотношение сторон : 2,40:1 Режим частоты кадров : Постоянный Частота кадров : 23,976 кадра/сек Цветовое пространство : YUV Субдискретизация насыщенности : 4:2:0 Битовая глубина : 8 бит Тип развёртки : Прогрессивная Бит/(Пиксели*Кадры) : 0.284 Размер потока : 9,26 Гбайт (72%) Библиотека кодирования : x264 core 133 r2334+704+50 a7549b7 tMod [[email protected]:2:0 X86_64] Настройки программы : cabac=1 / ref=5 / deblock=1:-3:-3 / analyse=0x3:0x113 / me=umh / subme=10 / psy=1 / fade_compensate=0.00 / psy_rd=1.05:0.02 / mixed_ref=1 / me_range=32 / chroma_me=1 / trellis=2 / 8x8dct=1 / cqm=0 / deadzone=21,11 / fast_pskip=1 / chroma_qp_offset=-3 / threads=16 / lookahead_threads=1 / sliced_threads=0 / nr=0 / decimate=1 / interlaced=0 / bluray_compat=0 / constrained_intra=0 / fgo=0 / bframes=6 / b_pyramid=2 / b_adapt=1 / b_bias=0 / direct=3 / weightb=1 / open_gop=0 / weightp=2 / keyint=240 / keyint_min=23 / scenecut=40 / intra_refresh=0 / rc_lookahead=50 / rc=2pass / mbtree=1 / bitrate=10458 / ratetol=1.0 / qcomp=0.70 / qpmin=0 / qpmax=69 / qpstep=4 / cplxblur=20.0 / qblur=0.5 / vbv_maxrate=50000 / vbv_bufsize=50000 / nal_hrd=none / ip_ratio=1.40 / aq=4:0.85 / aq-sensitivity=10.00 / aq-factor=1.00:1.00:1.00 / aq2=0 / aq3=0 Язык : English Default : Да Forced : НетАудио #1: Идентификатор : 2 Формат : AC-3 Формат/Информация : Audio Coding 3 Расширение режима : CM (complete main) Параметр Endianness формата : Big Идентификатор кодека : A_AC3 Продолжительность : 2 ч. 10 м. Вид битрейта : Постоянный Битрейт : 640 Кбит/сек Каналы : 6 каналов Расположение каналов : Front: L C R, Side: L R, LFE Частота : 48,0 КГц Битовая глубина : 16 бит Метод сжатия : С потерями Размер потока : 596 Мбайт (5%) Язык : Russian Default : Да Forced : НетАудио #2: Идентификатор : 3 Формат : DTS Формат/Информация : Digital Theater Systems Режим : 16 Параметр Endianness формата : Big Идентификатор кодека : A_DTS Продолжительность : 2 ч. 10 м. Вид битрейта : Постоянный Битрейт : 1509 Кбит/сек Каналы : 6 каналов Расположение каналов : Front: L C R, Side: L R, LFE Частота : 48,0 КГц Битовая глубина : 24 бит Метод сжатия : С потерями Размер потока : 1,37 Гбайт (11%) Язык : Russian Default : Нет Forced : НетАудио #3: Идентификатор : 4 Формат : DTS Формат/Информация : Digital Theater Systems Режим : 16 Параметр Endianness формата : Big Идентификатор кодека : A_DTS Продолжительность : 2 ч. 10 м. Вид битрейта : Постоянный Битрейт : 1509 Кбит/сек Каналы : 6 каналов Расположение каналов : Front: L C R, Side: L R, LFE Частота : 48,0 КГц Битовая глубина : 24 бит Метод сжатия : С потерями Размер потока : 1,37 Гбайт (11%) Язык : English Default : Нет Forced : Нет 12,84 Gb 9 1 4 февраля 2016 12:46 Орудия смерти: Город костей / The Mortal Instruments: City of Bones (2013) BDRip 1080p от Killbrain and Scarabey | iTunes .torrent   [Информация о файле (нажмите для просмотра)] Перевод: русский профессиональный (полное дублирование)[iTunes]Контейнер: MKVВидео: AVC / [email protected] /2 pass / 23,976 fps / 1920x800p (2,40:1) / 9,2 Mbps / 0.250Аудио 1: AC3 / 5.1 ch / 384 kbps / Русский дубляж, iTunesАудио 2: AC3 / 5.1 ch / 640 kbps / Английский original, BD USСубтитры: [softsub SRT]Видео: Идентификатор : 1 Формат : AVC Формат/Информация : Advanced Video Codec Профиль формата : [email protected] Параметр CABAC формата : Да Параметр ReFrames формата : 4 кадра Идентификатор кодека : V_MPEG4/ISO/AVC Продолжительность : 2 ч. 10 м. Битрейт : 9200 Кбит/сек Ширина : 1920 пикселей Высота : 800 пикселей Соотношение сторон : 2,40:1 Режим частоты кадров : Постоянный Частота кадров : 23,976 кадра/сек Цветовое пространство : YUV Субдискретизация насыщенности : 4:2:0 Битовая глубина : 8 бит Тип развёртки : Прогрессивная Бит/(Пиксели*Кадры) : 0.250 Размер потока : 8,19 Гбайт (88%) Заголовок : The Mortal Instruments: City of Bones (2013) Библиотека кодирования : x264 core 138 r2358 9e941d1 Настройки программы : cabac=1 / ref=4 / deblock=1:-3:-3 / analyse=0x3:0x113 / me=umh / subme=10 / psy=1 / psy_rd=1.00:0.05 / mixed_ref=1 / me_range=32 / chroma_me=1 / trellis=2 / 8x8dct=1 / cqm=0 / deadzone=21,11 / fast_pskip=0 / chroma_qp_offset=-3 / threads=3 / lookahead_threads=1 / sliced_threads=0 / nr=0 / decimate=0 / interlaced=0 / bluray_compat=0 / constrained_intra=0 / bframes=6 / b_pyramid=2 / b_adapt=2 / b_bias=0 / direct=3 / weightb=1 / open_gop=0 / weightp=2 / keyint=240 / keyint_min=24 / scenecut=40 / intra_refresh=0 / rc_lookahead=60 / rc=2pass / mbtree=0 / bitrate=9200 / ratetol=1.0 / qcomp=0.65 / qpmin=0 / qpmax=69 / qpstep=4 / cplxblur=20.0 / qblur=0.5 / vbv_maxrate=40000 / vbv_bufsize=30000 / nal_hrd=none / ip_ratio=1.40 / pb_ratio=1.30 / aq=1:0.90 Язык : English Default : Да Forced : НетАудио #1: Идентификатор : 2 Формат : AC-3 Формат/Информация : Audio Coding 3 Расширение режима : CM (complete main) Параметр Endianness формата : Big Идентификатор кодека : A_AC3 Продолжительность : 2 ч. 10 м. Вид битрейта : Постоянный Битрейт : 384 Кбит/сек Каналы : 6 каналов Расположение каналов : Front: L C R, Side: L R, LFE Частота : 48,0 КГц Битовая глубина : 16 бит Метод сжатия : С потерями Размер потока : 358 Мбайт (4%) Заголовок : AC3 / 5.1 ch / 384 kbps / Русский дубляж, iTunes Язык : Russian Default : Да Forced : НетАудио #2: Идентификатор : 3 Формат : AC-3 Формат/Информация : Audio Coding 3 Расширение режима : CM (complete main) Параметр Endianness формата : Big Идентификатор кодека : A_AC3 Продолжительность : 2 ч. 10 м. Вид битрейта : Постоянный Битрейт : 640 Кбит/сек Каналы : 6 каналов Расположение каналов : Front: L C R, Side: L R, LFE Частота : 48,0 КГц Битовая глубина : 16 бит Метод сжатия : С потерями Размер потока : 596 Мбайт (6%) Заголовок : AC3 / 5.1 ch / 640 kbps / Английский original, BD US Язык : English Default : Нет Forced : Нет 9,3 Gb 25 3 4 февраля 2016 12:46 Орудия смерти: Город костей / The Mortal Instruments: City of Bones (2013) HDRip от Assassins Creed | КПК .torrent   [Информация о файле (нажмите для просмотра)] Перевод: Профессиональный (дублированный)Качество: HDRipФормат: MP4Видео: MPEG-4 Visual at 1080 Кбит/сек; 640 x 272 (2.353) at 23.945 fpsАудио: AAC at 128 Кбит/сек; 2 канала, 48,0 КГц 1,1 Gb 11 4 4 февраля 2016 12:46 Орудия смерти: Город костей / The Mortal Instruments: City of Bones (2013) BDRip от Flash | US-Transfer | iTunes Russian .torrent   [Информация о файле (нажмите для просмотра)] Перевод: Профессиональный (дублированный) - iTunes RussianВидео: 720x304, 23.976 fps, XviD build 73 ~2010 kbps avg, 0.383 bit/pixelАудио: 48 kHz, AC3 Dolby Digital, 3/2 (L,C,R,l,r) + LFE ch, ~384.00 kbps avgВидео: Идентификатор : 0 Формат : MPEG-4 Visual Профиль формата : Advanced [email protected] Параметр BVOP формата : 1 Параметр QPel формата : Нет Параметр GMC формата : Без точки перехода Параметр матрицы формата : Выборочная Идентификатор кодека : XVID Идентификатор кодека/Подсказка : XviD Продолжительность : 2 ч. 10 м. Битрейт : 2010 Кбит/сек Ширина : 720 пикселей Высота : 304 пикселя Соотношение сторон : 2,35:1 Частота кадров : 23,976 кадра/сек Цветовое пространство : YUV Субдискретизация насыщенности : 4:2:0 Битовая глубина : 8 бит Тип развёртки : Прогрессивная Метод сжатия : С потерями Бит/(Пиксели*Кадры) : 0.383 Размер потока : 1,83 Гбайт (84%) Библиотека кодирования : XviD 73Аудио: Идентификатор : 1 Формат : AC-3 Формат/Информация : Audio Coding 3 Расширение режима : CM (complete main) Параметр Endianness формата : Big Идентификатор кодека : 2000 Продолжительность : 2 ч. 10 м. Вид битрейта : Постоянный Битрейт : 384 Кбит/сек Каналы : 6 каналов Расположение каналов : Front: L C R, Side: L R, LFE Частота : 48,0 КГц Битовая глубина : 16 бит Метод сжатия : С потерями Размер потока : 358 Мбайт (16%) Выравнивание : Разделение по промежуткам Продолжительность промежутка : 42 мс. (1,00 видеокадр) Время предзагрузки промежутка : 500 мс. 2,19 Gb 27 4 4 февраля 2016 12:46 Орудия смерти: Город костей / The Mortal Instruments: City of Bones (2013) HDRip от Scarabey | iTunes Russian .torrent   [Информация о файле (нажмите для просмотра)] Перевод: Профессиональный (полное дублирование) - iTunes RussianВидео: 720x304 (2.37:1), 23.976 fps, XviD build 73 ~1934 kbps avg, 0.37 bit/pixelАудио: 48 kHz, AC3 Dolby Digital, 3/2 (L,C,R,l,r) + LFE ch, ~384.00 kbps avg 2,12 Gb 65 1 4 февраля 2016 12:46 Орудия смерти: Город костей / The Mortal Instruments: City of Bones (2013) HDRip от Scarabey | iTunes Russian .torrent   [Информация о файле (нажмите для просмотра)] Перевод: Профессиональный (полное дублирование) - iTunes RussianВидео: 720x304 (2.37:1), 23.976 fps, XviD build 73 ~1390 kbps avg, 0.27 bit/pixelАудио: 48 kHz, AC3 Dolby Digital, 2/0 (L,R) ch, ~192.00 kbps avg 1,45 Gb 545 24 4 февраля 2016 12:46 Орудия смерти: Город костей / The Mortal Instruments: City of Bones (2013) HDRip от Scarabey | iTunes Russian .torrent   [Информация о файле (нажмите для просмотра)] Перевод: Профессиональный (полное дублирование) - iTunes RussianВидео: 640x272 (2.35:1), 23.976 fps, XviD build 73 ~702 kbps avg, 0.17 bit/pixelАудио: 48 kHz, MPEG Layer 3, 2 ch, ~128.00 kbps avg 782,37 Mb 13 5 4 февраля 2016 12:46 Орудия смерти: Город костей / The Mortal Instruments: City of Bones (2013) BDRip 720p от Leonardo and Scarabey | US Transfer | iTunes Russia .torrent   [Информация о файле (нажмите для просмотра)] Перевод: Профессиональный (полное дублирование) iTunes RussiaФормат: MKVВидео кодек: MPEG-4 AVC Аудио кодек: AC3Видео: AVC, 1280x534 (2.40:1) at 23.976 fps, AVC at 4442 kbps avg, 0.271 bit/pixelАудио: 48 kHz, AC3 Dolby Digital, 3/2 (L,C,R,l,r) + LFE ch, 384.00 kbps - RussianСубтитры: английские 4,48 Gb 20 1 4 февраля 2016 12:46 Орудия смерти: Город костей / The Mortal Instruments: City of Bones (2013) BDRip-AVC от ExKinoRay | US-Transfer | iTunes Russian, P .torrent   [Информация о файле (нажмите для просмотра)] Качество: BDRip (AVC)Видео: MPEG-4 AVC, 2820 Кбит/с, 1024x426Аудио: Русский (АС3, 6 ch, 384 Кбит/с), (АС3, 6 ch, 448 Кбит/с), английский (АС3, 6 ch, 448 Кбит/с)Перевод: Дублированный, профессиональный многоголосыйСубтитры: АнглийскиеВидео: Идентификатор : 1 Формат : AVC Формат/Информация : Advanced Video Codec Профиль формата : [email protected] Параметр CABAC формата : Да Параметр ReFrames формата : 11 кадров Идентификатор кодека : V_MPEG4/ISO/AVC Продолжительность : 2 ч. 10 м. Битрейт : 2820 Кбит/сек Ширина : 1024 пикселя Высота : 426 пикселей Соотношение сторон : 2,40:1 Режим частоты кадров : Постоянный Частота кадров : 23,976 кадра/сек Цветовое пространство : YUV Субдискретизация насыщенности : 4:2:0 Битовая глубина : 8 бит Тип развёртки : Прогрессивная Бит/(Пиксели*Кадры) : 0.270 Размер потока : 2,49 Гбайт (67%) Библиотека кодирования : x264 core 125 r2200 999b753 Настройки программы : cabac=1 / ref=11 / deblock=1:-3:-3 / analyse=0x3:0x133 / me=umh / subme=11 / psy=1 / psy_rd=1.00:0.10 / mixed_ref=1 / me_range=48 / chroma_me=1 / trellis=2 / 8x8dct=1 / cqm=0 / deadzone=21,11 / fast_pskip=0 / chroma_qp_offset=-3 / threads=12 / lookahead_threads=2 / sliced_threads=0 / nr=0 / decimate=0 / interlaced=0 / bluray_compat=0 / constrained_intra=0 / bframes=9 / b_pyramid=2 / b_adapt=2 / b_bias=0 / direct=3 / weightb=1 / open_gop=0 / weightp=2 / keyint=240 / keyint_min=23 / scenecut=40 / intra_refresh=0 / rc_lookahead=40 / rc=2pass / mbtree=1 / bitrate=2820 / ratetol=1.0 / qcomp=0.60 / qpmin=0 / qpmax=69 / qpstep=4 / cplxblur=20.0 / qblur=0.5 / vbv_maxrate=50000 / vbv_bufsize=52500 / nal_hrd=none / ip_ratio=1.40 / aq=1:1.00 Default : Да Forced : НетАудио #1: Идентификатор : 2 Формат : AC-3 Формат/Информация : Audio Coding 3 Расширение режима : CM (complete main) Параметр Endianness формата : Big Идентификатор кодека : A_AC3 Продолжительность : 2 ч. 10 м. Вид битрейта : Постоянный Битрейт : 384 Кбит/сек Каналы : 6 каналов Расположение каналов : Front: L C R, Side: L R, LFE Частота : 48,0 КГц Битовая глубина : 16 бит Метод сжатия : С потерями Размер потока : 358 Мбайт (9%) Заголовок : Дублированный (iTunes Russian) Язык : Russian Default : Да Forced : ДаАудио #2: Идентификатор : 3 Формат : AC-3 Формат/Информация : Audio Coding 3 Расширение режима : CM (complete main) Параметр Endianness формата : Big Идентификатор кодека : A_AC3 Продолжительность : 2 ч. 10 м. Вид битрейта : Постоянный Битрейт : 448 Кбит/сек Каналы : 6 каналов Расположение каналов : Front: L C R, Side: L R, LFE Частота : 48,0 КГц Битовая глубина : 16 бит Метод сжатия : С потерями Размер потока : 417 Мбайт (11%) Заголовок : Профессиональный многоголосый Язык : Russian Default : Нет Forced : НетАудио #3: Идентификатор : 4 Формат : AC-3 Формат/Информация : Audio Coding 3 Расширение режима : CM (complete main) Параметр Endianness формата : Big Идентификатор кодека : A_AC3 Продолжительность : 2 ч. 10 м. Вид битрейта : Постоянный Битрейт : 448 Кбит/сек Каналы : 6 каналов Расположение каналов : Front: L C R, Side: L R, LFE Частота : 48,0 КГц Битовая глубина : 16 бит Метод сжатия : С потерями Размер потока : 417 Мбайт (11%) Язык : English Default : Нет Forced : Нет 3,73 Gb 8 3 4 февраля 2016 12:46 Орудия смерти: Город костей / The Mortal Instruments: City of Bones (2013) HDRip от Smart-Tracker | P | КПК .torrent   [Информация о файле (нажмите для просмотра)] Перевод: Профессиональный (многоголосый, закадровый)Качество: HDRipФормат: mp4 863,05 Mb 4 5 4 февраля 2016 12:46 Орудия смерти: Город костей / The Mortal Instruments: City of Bones (2013) BDRip 1080p | P | US-Transfer .torrent   [Информация о файле (нажмите для просмотра)] Качество: BDRip (1080p)Видео: MPEG-4 AVC, 10500 Кбит/с, 1920x800Аудио: Русский (АС3, 6 ch, 448 Кбит/с), английский (DTS, 6 ch, 1510 Кбит/с)Перевод: Профессиональный многоголосыйВидео: Идентификатор : 1 Формат : AVC Формат/Информация : Advanced Video Codec Профиль формата : [email protected] Параметр CABAC формата : Да Параметр ReFrames формата : 5 кадров Идентификатор кодека : V_MPEG4/ISO/AVC Продолжительность : 2 ч. 10 м. Битрейт : 10,5 Мбит/сек Ширина : 1920 пикселей Высота : 800 пикселей Соотношение сторон : 2,40:1 Режим частоты кадров : Постоянный Частота кадров : 23,976 кадра/сек Цветовое пространство : YUV Субдискретизация насыщенности : 4:2:0 Битовая глубина : 8 бит Тип развёртки : Прогрессивная Бит/(Пиксели*Кадры) : 0.284 Размер потока : 9,29 Гбайт (82%) Библиотека кодирования : x264 core 133 r2334+704+50 a7549b7 tMod [[email protected]:2:0 X86_64] Настройки программы : cabac=1 / ref=5 / deblock=1:-3:-3 / analyse=0x3:0x113 / me=umh / subme=10 / psy=1 / fade_compensate=0.00 / psy_rd=1.05:0.02 / mixed_ref=1 / me_range=32 / chroma_me=1 / trellis=2 / 8x8dct=1 / cqm=0 / deadzone=21,11 / fast_pskip=1 / chroma_qp_offset=-3 / threads=16 / lookahead_threads=1 / sliced_threads=0 / nr=0 / decimate=1 / interlaced=0 / bluray_compat=0 / constrained_intra=0 / fgo=0 / bframes=6 / b_pyramid=2 / b_adapt=1 / b_bias=0 / direct=3 / weightb=1 / open_gop=0 / weightp=2 / keyint=240 / keyint_min=23 / scenecut=40 / intra_refresh=0 / rc_lookahead=50 / rc=2pass / mbtree=1 / bitrate=10458 / ratetol=1.0 / qcomp=0.70 / qpmin=0 / qpmax=69 / qpstep=4 / cplxblur=20.0 / qblur=0.5 / vbv_maxrate=50000 / vbv_bufsize=50000 / nal_hrd=none / ip_ratio=1.40 / aq=4:0.85 / aq-sensitivity=10.00 / aq-factor=1.00:1.00:1.00 / aq2=0 / aq3=0 Язык : English Default : Да Forced : НетАудио #1: Идентификатор : 2 Формат : AC-3 Формат/Информация : Audio Coding 3 Расширение режима : CM (complete main) Параметр Endianness формата : Big Идентификатор кодека : A_AC3 Продолжительность : 2 ч. 10 м. Вид битрейта : Постоянный Битрейт : 448 Кбит/сек Каналы : 6 каналов Расположение каналов : Front: L C R, Side: L R, LFE Частота : 48,0 КГц Битовая глубина : 16 бит Метод сжатия : С потерями Размер потока : 417 Мбайт (4%) Язык : Russian Default : Да Forced : НетАудио #2: Идентификатор : 3 Формат : DTS Формат/Информация : Digital Theater Systems Режим : 16 Параметр Endianness формата : Big Идентификатор кодека : A_DTS Продолжительность : 2 ч. 10 м. Вид битрейта : Постоянный Битрейт : 1509 Кбит/сек Каналы : 6 каналов Расположение каналов : Front: L C R, Side: L R, LFE Частота : 48,0 КГц Битовая глубина : 24 бит Метод сжатия : С потерями Размер потока : 1,37 Гбайт (12%) Язык : English Default : Нет Forced : Нет 11,29 Gb 2 4 4 февраля 2016 12:46 Орудия смерти: Город костей / The Mortal Instruments: City of Bones (2013) BDRip от Rulya74 .torrent   [Информация о файле (нажмите для просмотра)] Перевод: Профессиональное (многоголосый закадровый)Кодек: XVIDКачество: BDRipВидео: 720x304 (2.35:1), 23.976 fps, XviD MPEG-4 ~1405 kbps avg, 0.268 bit/pixelЗвук: 48 kHz, AC3 Dolby Digital, 2/0 (L,R) ch, ~192 kbps - Профессиональное (многоголосый закадровый) 1,46 Gb 519 10 4 февраля 2016 12:46 Орудия смерти: Город костей / The Mortal Instruments: City of Bones (2013) HDRip | Р .torrent   [Информация о файле (нажмите для просмотра)] Перевод: Профессиональный (многоголосный)Кодек: AVI (XviD)Качество: HDRipВидео: 640x272, 625 Кбит/с, 23.976 fpsЗвук: MP3, 2ch, 128 Кбит/с 710,72 Mb 38 1 4 февраля 2016 12:46 Орудия смерти: Город костей / The Mortal Instruments: City of Bones (2013) Blu-Ray Remux 1080p .torrent   [Информация о файле (нажмите для просмотра)] Перевод: Профессиональное (многоголосый закадровый)Кодек: x264Качество: Blu-Ray Remux (1080p)Видео: MPEG-4 AVC, 1920x1080 (16:9), 13472 kbps, 23,976 fps, 0,271 bppАудио №1: русский / AC3 / 5.1 / 48 kHz / 448 kbps / 16 bit|MVO| Аудио №2: английский / DTS-HD / 5.1 / 48 kHz / 1560 kbps / 16 bit (Core: 5.1 / 48 kHz / 1510 kbps / 16 bit) 14,34 Gb 6 3

gig-torrent.net

Город костей через торрент в хорошем качестве бесплатно BDRip

Размер: 2.19 GB | Добавлен: 3 года 7 мес. назад | Торрент скачан:973 раза
Реклама Дарим 3000 рублей за регистрацию, не упусти свой шанс получить шикарный бонус!!!

17-03-2014 16:57 Орудия смерти: Город костей Скачать торрент  

Орудия смерти: Город костей / The Mortal Instruments: City of Bones

Год выпуска: 2013 Страна: Германия, Канада / Constantin Film Produktion, Unique Features, Mr. Smith ProductionsЖанр: фэнтези, приключения, драма, мелодрама, детектив, боевик.Продолжительность: 02:04:38Перевод: Дубляж (Лицензия)

Режиссер: Харольд Цварт

В ролях: Лили Коллинз, Джейми Кэмпбелл Бауэр, Роберт Шиэн, Джемайма Уэст, Кевин Зегерс, Эйдан Тернер, Джаред Харрис, Лина Хиди, Джонатан Риз Майерс, Годфри Гао.

Описание: Клэри Фрэй всегда считала себя самой обыкновенной девушкой, пока не выяснилось, что она – потомок древнего рода Сумеречных Охотников, тайной касты воинов-полуангелов, защищающих наш мир от демонов. Когда мама Клэри исчезает, девушка объединяется с Сумеречными охотниками, чтобы спасти ее. Так начинается ее опасное знакомство с иной реальностью, в которой существуют демоны, маги, вампиры, оборотни и другие смертоносные существа.

Качество: BDRip (Рип с Blu-ray 1080i AVC DTS-HD 5.1)Формат: AVIВидео кодек: XviDАудио кодек: AC3Видео: 720x400 (1.80:1), 25 fps, XviD build 50 ~2062 kbps avg, 0.29 bit/pixelАудио: 48 kHz, AC3 Dolby Digital, 3/2 (L,C,R,l,r) + LFE ch, ~448 kbps

ОбщееПолное имя : H:киноThe Mortal Instruments.City of Bones.2013.BDRip.aviФормат : AVIФормат/Информация : Audio Video InterleaveПрофиль формата : OpenDMLРазмер файла : 2,19 ГбайтПродолжительность : 2 ч. 4 м.Общий поток : 2517 Кбит/секПрограмма кодирования : VirtualDubMod 1.5.10.3 | www.virtualdub-fr.org || (build 2550/release)Библиотека кодирования : VirtualDubMod build 2550/release

ВидеоИдентификатор : 0Формат : MPEG-4 VisualПрофиль формата : Advanced [email protected]Параметр BVOP формата : 2Параметр QPel формата : НетПараметр GMC формата : Без точки переходаПараметр матрицы формата : Default (H.263)Идентификатор кодека : XVIDИдентификатор кодека/Подсказка : XviDПродолжительность : 2 ч. 4 м.Битрейт : 2057 Кбит/секШирина : 720 пикселейВысота : 400 пикселейСоотношение сторон : 16:9Частота кадров : 25,000 кадров/секЦветовое пространство : YUVСубдискретизация насыщенности : 4:2:0Битовая глубина : 8 битТип развёртки : ПрогрессивнаяМетод сжатия : С потерямиБит/(Пиксели*Кадры) : 0.286Размер потока : 1,79 Гбайт (82%)Библиотека кодирования : XviD 1.2.1 (UTC 2008-12-04)

АудиоИдентификатор : 1Формат : AC-3Формат/Информация : Audio Coding 3Расширение режима : CM (complete main)Параметр Endianness формата : BigИдентификатор кодека : 2000Продолжительность : 2 ч. 4 м.Вид битрейта : ПостоянныйБитрейт : 448 Кбит/секКаналы : 6 каналовРасположение каналов : Front: L C R, Side: L R, LFEЧастота : 48,0 КГцБитовая глубина : 16 битМетод сжатия : С потерямиРазмер потока : 399 Мбайт (18%)Выравнивание : Разделение по промежуткамПродолжительность промежутка : 40 мс. (1,00 видеокадр)Время предзагрузки промежутка : 500 мс.

Скачать Орудия смерти: Город костей через торрент http://pic.pb.wtf/images/6/9gxkf.jpg Скачать фильм Орудия смерти: Город костей через торрент бесплантно в хорошем качестве Описание: Клэри Фрэй всегда считала себя самой обыкновенной девушкой, пока не выяснилось, что она – потомок древнего рода Сумеречных ... 2014-03-17 16:57 8.8 10 37

Loading...

Loading...

Рекламный пират

Дорогой пользователь! Огромная просьба, поблагодарите релизера, оцените раздачу и оставьте свои комментарий, если Вы скачали Орудия смерти: Город костей через торрент бесплатно! Внесите свою лепту в развитие PiratBit!

Комментировать посты могут только пользователи прошедшие не сложную регистрацию

Орудия смерти: Город костей через торрент Скачать бесплатно Орудия смерти: Город костей Орудия смерти: Город костей скачать торрент Орудия смерти: Город костей смотреть онлайн Cкачать фильм Орудия смерти: Город костей бесплатно Орудия смерти: Город костей скачать торрент в хорошем качестве Орудия смерти: Город костей смотреть онлайн бесплатно в хорошем качестве

Вы не можете начинать темыВы не можете отвечать на сообщенияВы не можете редактировать свои сообщенияВы не можете удалять свои сообщенияВы не можете голосовать в опросахВы не можете прикреплять файлы к сообщениямВы можете скачивать файлы

piratbit.ru

Город костей (2013) через торрент фильм в HD качестве

Название: Орудия смерти: Город костейОригинальное название: The Mortal Instruments: City of BonesГод выпуска: 2013Выпущено: СШАЖанр: фэнтези, приключения, боевик, драма, магия, волшебствоПродолжительность: 02:00:29Перевод: Профессиональный-многоголосый (лицензия)

Качество видео: HDRip (лицензия)Формат видео: aviРазмер: 1400 MB

Режиссер: Харольд ЦвартВ ролях: Джейми Кэмпбелл Бауэр, Лили Коллинз, Лина Хиди, Эйдан Тернер, Джонатан Рис-Майерс, Роберт Шиэн, Джемайма Уэст и др.

Описание: Одна совсем юная девушка по имени Клэри проживает вместе со своей матерью в столице США. Ей нравится заниматься живописью, гулять со своими приятелями и отдыхать в ночных клубах, в общем, живет жизнью типичного школьника. Девушка даже представление не имеет какие приключения её ждут и какое на самом деле её призвание в жизни.Один раз девушку приглашают на вечеринку в один загадочный клуб с таким же загадочным названием «Обитель ада». Клэри желает оторваться по полной вместе со своими приятелями, потанцевать и развеяться, однако, сама не подозревает, что её ожидает в этом месте и как это повернёт жизнь девушки. Клэри становиться очевидцем страшного преступления - убийства. Самое интересное, что этого ни один человек не видел, ни смотря на то, что вокруг было очень много людей. Самое странное, что труп моментом испаряется, как будто и ничего не было. Клэри сразу же идёт домой и пытается себя убедить в том, что ей все привиделось. Через небольшой промежуток времени девушка опять начинает лицезреть людей, которых никто не видит кроме неё. Клэри думает, что начинает сходить с ума и делится всем происходящим со своей мамой, которая реагирует на это весьма странно. Но однажды все предположения по поводу того, что она сходит с ума развеиваются, когда на неё покушается некий демон и её выручают Сумеречные Охотники, которые призваны - защищать людей и уничтожать злых демонов. Девушка узнаёт, что именно их она лицезрела в ночном клубе. Ребята приводят Клэри в своё логово, где перед ней раскрывается много тайн, которые преследовали её всю жизнь. В один миг девушка понимает, что жизнь обычного подростка заканчивается и наступает совершенно другое существование - борьба с демонами вместе с Сумеречными Охотниками.Девушку ожидает множество приключений, в ходе которых она спасёт свою маму от злых демонов, сразится с армией безжалостных оборотней и разоблачит коварные планы чёрных магов.

Рецензия от сайта Igrhost.ruФантастические боевики, впрочем, как и фантастика в целом, меня не «цепляют» с детства. Нет, существуют произведения авторов, которые наталкивают на определенные мысли, заставляют поразмыслить и пофантазировать на тему скорого приближения тех событий, о которых и рассказал автор в своей книге или киноленте. Но названием фильма Орудие смерти: Город костей скачать торрент дало мне понять, что этот фильм явно не будет относиться к их числу.Честно говоря, я уже и не помню, что подоткнуло меня на просмотр изначально совершенно не интересной для меня киноленты. Скорее всего, это был совет одного из фанатичных знакомых, не пропускающих ни одного фильма о фантастике. Самостоятельно, внимание на киноленту с достаточно скромным бюджетом (60 млн. долл. это вовсе не много), отсутствием звезд мирового кино и тривиальным сюжетом я бы не обратил.Но не стану навязывать Вам своего мнения. Давайте поговорим о сюжете, а затем рассмотрим очевидные положительные и отрицательные стороны картины.Итак, Орудия смерти скачать торрент рассказывают историю жизни Клэри  Фрей, которая на протяжении длительного времени считает себя самой обыкновенной девушкой. Но в один прекрасный момент выясняется, что она – потомок древнейшего рода Сумеречных Охотников. В обязанности рода входит защита всего мира от нечисти и дьяволов. Девушка до последнего сомневается в своей неординарности, но все-таки присоединяется к Охотникам, после того, как исчезает ее мать. И здесь начинается борьба с дьяволами, магами, вампирами, оборотнями и другими недружелюбными созданиями.Начнем с отрицательных сторон.Во-первых, несмотря на очевидное желание создателей заложить в фильм Орудия смерти  торрент интригу и поддержать ее до самой концовки, сделать у них этого не получилось. Уже в середине, даже невнимательному зрителю становится понятно, чем завершится действие.Во-вторых, кинолента была снята по книге, в которой, как раз-таки, интрига и неожиданная развязка присутствует. Зачем режиссер настолько сильно изменил сценарий не совсем понятно.В-третьих, реплики героев оставляют желать много лучшего. Кроме того, очевидные кино ляпы, которые замечаешь не из-за вредности, а скорее вследствие нелепости происходящего. Например, когда одного из главных героев укусил вампир (дабы не портить никому просмотр имен называть не стану) у него улучшается зрение и он, собственно, становится полноценным вампиром. Вот только солнце персонажу, по-прежнему, нипочем. Нестыковка, причем достаточно раздражительная.Ну что же, теперь самое время поговорить о плюсах.Самым очевидным для меня является легкость и незамысловатость произведения. Этот фильм можно смотреть, занимаясь массой других дел и в тоже время не упустить сути.Еще одним положительным моментом является отличная техника съемки и великолепные спецэффекты, которые действительно порадовали.Очень понравилась и игра актеров, все главные действующие лица справились со своими задачами на отлично.В общем, несмотря на то, что минусы были расписаны более подробно, в итоге, легкость от просмотра киноленты берет верх. Неплохой, незамысловатый фильм, в котором есть отличные спецэффекты и много действия.

 

Для того чтобы скачать фильм Орудия смерти: Город костей (2013) через торрент, Вам необходимо нажать на кнопку скачать торрент, которая находится над постером сверху, или на текстовую ссылку с надписью - Орудия смерти: Город костей (2013) скачать торрент в хорошем качестве.

igrhost.ru

Жажда смерти (2017) скачать фильм через торрент бесплатно в хорошем HD качестве

27 355

Физрук 4 сезон (2017)

390

Мой сын (2017)

29

Три сестры (2017)

295

Единственный живой парень в Нью-Йорке (2017)

9 732

Иностранец (2017)

355

Будь мужиком (2017)

1 590

Коматозники (2017)

1 380

Реальный Рокки (2017)

3 306

Геошторм (2017)

1 206

Двуличный любовник (2017)

887

Как Витька Чеснок вез Леху Штыря в дом инвалидов (2017)

13 863

Сделано в Америке (2017)

6 671

Напарник (2017)

1 229

Борг / Макинрой (2017)

1 118

Яма. Наши дни (2017)

3 799

Бегущий по лезвию 2049 (2017)

14 913

Сериал Беглец (2017)

6 292

Безбашенные (2017)

3 478

Послание от Кинга (2017)

2 349

Между нами горы (2017)

13 008

Жизнь впереди (2017)

119 791

Сериал Ольга 2 сезон 18 19 20 серия (2017)

784

Хорошее время (2017)

3 092

Любовь в городе ангелов (2017)

1 839

Уотергейт. Крушение Белого дома (2017)

7 270

Наемник (2017)

14 696

Сериал Отличница (2017)

2 745

Техасская резня бензопилой: Кожаное лицо (2017)

2 703

Убить Гюнтера (2017)

1 560

Заложники (2017)

24 697

Сериал Отчий берег (2017)

866

ЛЕГО Ниндзяго Фильм (2017)

3 438

Kingsman: Золотое кольцо (2017)

1 598

Мадам (2017)

kinonax.com

Город костей через торрент в хорошем качестве бесплатно HDRip

Размер: 1.46 GB | Добавлен: 3 года 8 мес. назад | Торрент скачан:3172 раза
Реклама Дарим 3000 рублей за регистрацию, не упусти свой шанс получить шикарный бонус!!!

19-11-2013 10:53 Орудия смерти: Город костей Скачать торрент  

Орудия смерти: Город костей / The Mortal Instruments: City of Bones

Год выпуска: 2013 Страна: Канада, Германия / Constantin Film Produktion, Don Carmody Productions, Unique FeaturesЖанр: Фэнтези, боевик, драма, мелодрама, детектив, приключенияПродолжительность: 02:09:55Перевод: Дубляж, Лицензия

Режиссер: Харольд Цварт

В ролях: Лили Коллинз, Джейми Кэмпбелл Бауэр, Роберт Шиэн, Кевин Зегерс, Лина Хиди, Кевин Дюран, Эйдан Тернер, Джемайма Уэст, Роберт Мэйллет, Годфри Гао,

Описание: Клэри Фрэй всегда считала себя самой обыкновенной девушкой, пока не выяснилось, что она — потомок древнего рода Сумеречных Охотников, тайной касты воинов-полуангелов, защищающих наш мир от демонов. Когда мама Клэри исчезает, девушка объединяется с Сумеречными охотниками, чтобы спасти ее. Так начинается ее опасное знакомство с иной реальностью, в которой существуют демоны, маги, вампиры, оборотни и другие смертоносные существа.

Качество: HDRipФормат: AVIВидео кодек: XviDАудио кодек: AC3Видео: 720x304 (2.37:1), 23.976 fps, XviD build 50 ~1207 kbps avg, 0.23 bit/pixelАудио#1: 48 kHz, AC3 Dolby Digital, 3/2 (L,C,R,l,r) + LFE ch, ~384 kbps

Орудие смерти скачать торрент

Скачать Орудия смерти: Город костей через торрент http://i58.fastpic.ru/big/2013/1119/5d/039868c710609215067811da662d9c5d.jpg Скачать фильм Орудия смерти: Город костей через торрент бесплантно в хорошем качестве Описание: Клэри Фрэй всегда считала себя самой обыкновенной девушкой, пока не выяснилось, что она — потомок древнего рода Сумеречных ... 2014-02-12 19:25 9.2 10 222

Loading...

Loading...

Последний раз редактировалось: MihailHD (2013-11-19 11:59), всего редактировалось 1 раз

Рекламный пират

22-11-2013 06:55 Орудия смерти: Город костей Скачать торрент  

как фильм? кто-нибудь смотрел?

24-11-2013 12:05 Орудия смерти: Город костей Скачать торрент  

Фильм очень понравился.Все сделано красиво!

Дорогой пользователь! Огромная просьба, поблагодарите релизера, оцените раздачу и оставьте свои комментарий, если Вы скачали Орудия смерти: Город костей через торрент бесплатно! Внесите свою лепту в развитие PiratBit!

Комментировать посты могут только пользователи прошедшие не сложную регистрацию

Орудия смерти: Город костей через торрент Скачать бесплатно Орудия смерти: Город костей Орудия смерти: Город костей скачать торрент Орудия смерти: Город костей смотреть онлайн Cкачать фильм Орудия смерти: Город костей бесплатно Орудия смерти: Город костей скачать торрент в хорошем качестве Орудия смерти: Город костей смотреть онлайн бесплатно в хорошем качестве

Вы не можете начинать темыВы не можете отвечать на сообщенияВы не можете редактировать свои сообщенияВы не можете удалять свои сообщенияВы не можете голосовать в опросахВы не можете прикреплять файлы к сообщениямВы можете скачивать файлы

piratbit.ru


Смотрите также