Скачать фильм через торрент бесплатно в хорошем качестве колония дигнидад


Скачать фильм Колония Дигнидад через торрент в хорошем качестве бесплатно WEB-DLRip

Раздают: 2 [ 0 KB/s ]
Размер: 1.37 GB | Добавлен: 1 год 5 мес. назад | Торрент скачан:417 раз
Реклама Дарим 3000 рублей за регистрацию, не упусти свой шанс получить шикарный бонус!!!

11-05-2016 10:16 Колония Дигнидад Скачать торрент  

Колония Дигнидад / Colonia • Год выпуска » 2015• Страна » Германия, Люксембург, Франция / Fred Films, Iris Productions, Majestic Filmproduktion, Rat Pack Filmproduktion GmbH• Жанр » Триллер, драма, мелодрама, история• Продолжительность » 01:49:53• Перевод » Дубляж - [Лицензия / iTunes]• Субтитры » Отсутствуют

В ролях » Эмма Уотсон, Даниэль Брюль, Микаэл Нюквист, Риченда Кэри, Вики Крипс,Джинн Вернер, Джулиан Овенден, Август Цирнер,, Мартин Вуттке, Николас Барсофф

Режиссёр» Карин Кусама

» Немецкий журналист Даниэль похищен в Чили тайной полицией и после немыслимых пыток отправлен в колонию «Дигнидад» — огромное поселение, выдающее себя за благотворительную коммуну, а на самом деле гнездо нацистов — беглецов из Третьего рейха. Колонию возглавляет бывший офицер вермахта, бесноватый проповедник Пауль Шефер, внушающий пастве пользу умерщвления плоти и бесплатного труда от заката до рассвета. В «Дигнидад» легко попасть, но обратной дороги нет. Здесь Даниэлю предстоит превратиться в раба и «материал» для бесчеловечных экспериментов. • Качество » WEB-DLRip• Формат » AVI• Видео кодек » XviD• Аудио кодек » AC3• Видео » MPEG-4 Visual,1388 Кбит/с, 720x304 , 23.976 fps• Аудио » Русский (AC-3 / 6 ch / 384 kbps /16 bit / 48,0 КГц )

Бюджет: $14 000 000Сборы в России: $82 604Дата мировой премьеры: 13 сентября 2015Дата российской премьеры: 31 марта 2016, «Cinema Prestige»

ОбщееПолное имя : C:\Users\DRON & LeXuZ\Desktop\Colonia.2015..D.WEB-DLRip.1400MB.aviФормат : AVIФормат/Информация : Audio Video InterleaveРазмер файла : 1,37 ГбайтПродолжительность : 1 ч. 49 м.Общий поток : 1781 Кбит/секПрограмма кодирования : VirtualDubMod 1.5.10.2 (build 2540/release)Библиотека кодирования : VirtualDubMod build 2540/release

ВидеоИдентификатор : 0Формат : MPEG-4 VisualПрофиль формата : Advanced [email protected]Параметр BVOP формата : 2Параметр QPel формата : НетПараметр GMC формата : Без точки переходаПараметр матрицы формата : ВыборочнаяИдентификатор кодека : XVIDИдентификатор кодека/Подсказка : XviDПродолжительность : 1 ч. 49 м.Битрейт : 1388 Кбит/секШирина : 720 пикселейВысота : 304 пикселяСоотношение сторон : 2,35:1Частота кадров : 23,976 кадра/секЦветовое пространство : YUVСубдискретизация насыщенности : 4:2:0Битовая глубина : 8 битТип развёртки : ПрогрессивнаяМетод сжатия : С потерямиБит/(Пиксели*Кадры) : 0.264Размер потока : 1,07 Гбайт (78%)Библиотека кодирования : XviD 1.2.1 (UTC 2008-12-04)

АудиоИдентификатор : 1Формат : AC-3Формат/Информация : Audio Coding 3Расширение режима : CM (complete main)Параметр Endianness формата : BigИдентификатор кодека : 2000Продолжительность : 1 ч. 49 м.Вид битрейта : ПостоянныйБитрейт : 384 Кбит/секКаналы : 6 каналовРасположение каналов : Front: L C R, Side: L R, LFEЧастота : 48,0 КГцБитовая глубина : 16 битМетод сжатия : С потерямиРазмер потока : 302 Мбайт (22%)Выравнивание : Разделение по промежуткамПродолжительность промежутка : 42 мс. (1,00 видеокадр)Время предзагрузки промежутка : 500 мс.[/code]

Скачать Колония Дигнидад через торрент http://i74.fastpic.ru/big/2015/1218/b5/c39d072d168dbcde95d1a17f670689b5.gif Скачать фильм Колония Дигнидад через торрент бесплантно в хорошем качестве В ролях » Эмма Уотсон, Даниэль Брюль, Микаэл Нюквист, Риченда Кэри, Вики Крипс,Джинн Вернер, Джулиан Овенден, Август Цирнер,, Мартин ... 2016-05-11 10:16 9.9 10 15

Loading...

Loading...

Рекламный пират

11-05-2016 12:39 Колония Дигнидад Скачать торрент  

дальше Поттера ,Гермеоне не стоило идти))

Дорогой пользователь! Огромная просьба, поблагодарите релизера, оцените раздачу и оставьте свои комментарий, если Вы скачали Колония Дигнидад через торрент бесплатно! Внесите свою лепту в развитие PiratBit!

Комментировать посты могут только пользователи прошедшие не сложную регистрацию

Колония Дигнидад через торрент Скачать бесплатно Колония Дигнидад Колония Дигнидад скачать торрент Колония Дигнидад смотреть онлайн Cкачать фильм Колония Дигнидад бесплатно Колония Дигнидад скачать торрент в хорошем качестве Колония Дигнидад смотреть онлайн бесплатно в хорошем качестве

Вы не можете начинать темыВы не можете отвечать на сообщенияВы не можете редактировать свои сообщенияВы не можете удалять свои сообщенияВы не можете голосовать в опросахВы не можете прикреплять файлы к сообщениямВы можете скачивать файлы

piratbit.ru

Скачать фильм Колония Дигнидад через торрент в хорошем качестве бесплатно 1080p

GeneralUnique ID                                : 244553651520664196684767568988010573201 (0xB7FB51EE9E7EAD9AB67A720AD0A9ED91)Complete name                            : E:\Колония Дигнидад\Colonia.2015.1080p.D.WEB-DL.mkvFormat                                   : MatroskaFormat version                           : Version 4 / Version 2File size                                : 3.99 GiBDuration                                 : 1h 49mnOverall bit rate                         : 5 200 KbpsMovie name                               : Colonia.2015.1080p.WEB-DL.DD5.1.h364Encoded date                             : UTC 2016-05-10 23:00:09Writing application                      : mkvmerge v9.1.0 ('Little Earthquakes') 64bitWriting library                          : libebml v1.3.3 + libmatroska v1.4.4DURATION                                 : 01:42:43.489000000NUMBER_OF_FRAMES                         : 1081NUMBER_OF_BYTES                          : 25833_STATISTICS_WRITING_APP                  : mkvmerge v9.1.0 ('Little Earthquakes') 64bit_STATISTICS_WRITING_DATE_UTC             : 2016-05-10 23:00:09_STATISTICS_TAGS                         : BPS DURATION NUMBER_OF_FRAMES NUMBER_OF_BYTES

VideoID                                       : 1Format                                   : AVCFormat/Info                              : Advanced Video CodecFormat profile                           : [email protected] settings, CABAC                   : YesFormat settings, ReFrames                : 5 framesCodec ID                                 : V_MPEG4/ISO/AVCDuration                                 : 1h 49mnBit rate                                 : 4 328 KbpsWidth                                    : 1 904 pixelsHeight                                   : 792 pixelsDisplay aspect ratio                     : 2.40:1Frame rate                               : 23.976 fpsColor space                              : YUVChroma subsampling                       : 4:2:0Bit depth                                : 8 bitsScan type                                : ProgressiveBits/(Pixel*Frame)                       : 0.120Stream size                              : 3.32 GiB (83%)Language                                 : EnglishDefault                                  : YesForced                                   : NoColor primaries                          : BT.709-5, BT.1361, IEC 61966-2-4, SMPTE RP177Transfer characteristics                 : BT.709-5, BT.1361Matrix coefficients                      : BT.709-5, BT.1361, IEC 61966-2-4 709, SMPTE RP177

Audio #1ID                                       : 2Format                                   : AC-3Format/Info                              : Audio Coding 3Mode extension                           : CM (complete main)Codec ID                                 : A_AC3Duration                                 : 1h 49mnBit rate mode                            : ConstantBit rate                                 : 384 KbpsChannel(s)                               : 6 channelsChannel positions                        : Front: L C R, Side: L R, LFESampling rate                            : 48.0 KHzBit depth                                : 16 bitsCompression mode                         : LossyStream size                              : 302 MiB (7%)Title                                    : iTunesLanguage                                 : RussianDefault                                  : YesForced                                   : No

Audio #2ID                                       : 3Format                                   : AC-3Format/Info                              : Audio Coding 3Mode extension                           : CM (complete main)Codec ID                                 : A_AC3Duration                                 : 1h 49mnBit rate mode                            : ConstantBit rate                                 : 384 KbpsChannel(s)                               : 6 channelsChannel positions                        : Front: L C R, Side: L R, LFESampling rate                            : 48.0 KHzBit depth                                : 16 bitsCompression mode                         : LossyStream size                              : 302 MiB (7%)Title                                    : OriginalLanguage                                 : EnglishDefault                                  : NoForced                                   : No

TextID                                       : 4Format                                   : UTF-8Codec ID                                 : S_TEXT/UTF8Codec ID/Info                            : UTF-8 Plain TextTitle                                    : FullLanguage                                 : EnglishDefault                                  : NoForced                                   : No

Menu00:00:00.000                             : en:Chapter 100:12:00.720                             : en:Chapter 200:20:21.220                             : en:Chapter 300:29:54.793                             : en:Chapter 400:40:16.414                             : en:Chapter 500:53:45.222                             : en:Chapter 601:00:05.602                             : en:Chapter 701:13:43.419                             : en:Chapter 801:23:27.002                             : en:Chapter 901:31:10.465                             : en:Chapter 1001:44:28.262                             : en:Chapter 11

piratbit.ru

Скачать фильм Колония Дигнидад через торрент в хорошем качестве бесплатно 720p

ОбщееУникальный идентификатор : 203849747208273592033598499511453743511 (0x995C0881C9E797D1B300B625D155F997)Полное имя : E:\Колония Дигнидад. 2O15.D(iTunes).WEB-DL.720p.mkvФормат : MatroskaВерсия формата : Version 2Размер файла : 3,70 ГбайтПродолжительность : 1 ч. 49 м.Общий поток : 4815 Кбит/секНазвание фильма : -merci-Дата кодирования : UTC 2016-05-11 03:36:07Программа кодирования : mkvmerge v5.8.0 ('No Sleep / Pillow') built on Sep 2 2012 15:37:04Библиотека кодирования : libebml v1.2.3 + libmatroska v1.3.0DURATION : 01:49:58.272000000NUMBER_OF_FRAMES : 206196NUMBER_OF_BYTES : 316717056_STATISTICS_WRITING_APP : mkvmerge v9.1.0 ('Little Earthquakes') 64bit_STATISTICS_WRITING_DATE_UTC : 2016-05-10 23:00:09_STATISTICS_TAGS : BPS DURATION NUMBER_OF_FRAMES NUMBER_OF_BYTES

ВидеоИдентификатор : 1Формат : AVCФормат/Информация : Advanced Video CodecПрофиль формата : [email protected]Параметр CABAC формата : НетПараметр ReFrames формата : 2 кадраИдентификатор кодека : V_MPEG4/ISO/AVCПродолжительность : 1 ч. 49 м.Битрейт : 3951 Кбит/секШирина : 1280 пикселейВысота : 532 пикселяСоотношение сторон : 2,40:1Режим частоты кадров : ПостоянныйЧастота кадров : 23,976 кадра/секЦветовое пространство : YUVСубдискретизация насыщенности : 4:2:0Битовая глубина : 8 битТип развёртки : ПрогрессивнаяБит/(Пиксели*Кадры) : 0.242Размер потока : 3,03 Гбайт (82%)Заголовок : Колония Дигнидад. 2O15.WEB-DL.720p.x264.PLAYNOW[][VR56]Язык : EnglishDefault : ДаForced : НетОсновные цвета : BT.709Характеристики трансфера : BT.709Коэффициенты матрицы : BT.709

Аудио #1Идентификатор : 2Формат : AC-3Формат/Информация : Audio Coding 3Расширение режима : CM (complete main)Параметр Endianness формата : BigИдентификатор кодека : A_AC3Продолжительность : 1 ч. 49 м.Вид битрейта : ПостоянныйБитрейт : 384 Кбит/секКаналы : 6 каналовРасположение каналов : Front: L C R, Side: L R, LFEЧастота : 48,0 КГцБитовая глубина : 16 битМетод сжатия : С потерямиРазмер потока : 302 Мбайт (8%)Заголовок : Dub (iTunes)Язык : RussianDefault : ДаForced : Нет

Аудио #2Идентификатор : 3Формат : AC-3Формат/Информация : Audio Coding 3Расширение режима : CM (complete main)Параметр Endianness формата : BigИдентификатор кодека : A_AC3Продолжительность : 1 ч. 49 м.Вид битрейта : ПостоянныйБитрейт : 384 Кбит/секКаналы : 6 каналовРасположение каналов : Front: L C R, Side: L R, LFEЧастота : 48,0 КГцБитовая глубина : 16 битМетод сжатия : С потерямиРазмер потока : 302 Мбайт (8%)Заголовок : EngЯзык : EnglishDefault : НетForced : Нет

ТекстИдентификатор : 4Формат : UTF-8Идентификатор кодека : S_TEXT/UTF8Идентификатор кодека/Информация : UTF-8 Plain TextЗаголовок : engЯзык : EnglishDefault : НетForced : Нет

Меню00:00:00.000 : en:Chapter 100:12:00.720 : en:Chapter 200:20:21.220 : en:Chapter 300:29:54.793 : en:Chapter 400:40:16.414 : en:Chapter 500:53:45.222 : en:Chapter 601:00:05.602 : en:Chapter 701:13:43.419 : en:Chapter 801:23:27.002 : en:Chapter 901:31:10.465 : en:Chapter 1001:44:28.262 : en:Chapter 11[/code]

piratbit.ru

Скачать фильм Колония Дигнидад через торрент в хорошем качестве бесплатно 1080p

GeneralUnique ID : 193504827783931894890166094778931769650 (0x9193AC99C3A8E9DF8C0C54DC88AE7132)Complete name : Colonia.2015.WEB-DL.1080p.mkvFormat : MatroskaFormat version : Version 4 / Version 2File size : 3.99 GiBDuration : 1h 49mnOverall bit rate : 5 203 KbpsMovie name : Colonia.2015.WEB-DL.1080pEncoded date : UTC 2016-04-22 11:11:27Writing application : mkvmerge v8.3.0 ('Over the Horizon') 64bitWriting library : libebml v1.3.1 + libmatroska v1.4.2DURATION : 01:49:52.896000000NUMBER_OF_FRAMES : 206028NUMBER_OF_BYTES : 316459008_STATISTICS_WRITING_APP : mkvmerge v8.3.0 ('Over the Horizon') 64bit_STATISTICS_WRITING_DATE_UTC : 2016-04-22 11:11:27_STATISTICS_TAGS : BPS DURATION NUMBER_OF_FRAMES NUMBER_OF_BYTES

VideoID : 1Format : AVCFormat/Info : Advanced Video CodecFormat profile : [email protected] settings, CABAC : YesFormat settings, ReFrames : 5 framesCodec ID : V_MPEG4/ISO/AVCDuration : 1h 49mnBit rate : 4 331 KbpsWidth : 1 904 pixelsHeight : 792 pixelsDisplay aspect ratio : 2.40:1Frame rate mode : ConstantFrame rate : 23.976 fpsColor space : YUVChroma subsampling : 4:2:0Bit depth : 8 bitsScan type : ProgressiveBits/(Pixel*Frame) : 0.120Stream size : 3.32 GiB (83%)Language : EnglishDefault : YesForced : NoColor primaries : BT.709Transfer characteristics : BT.709Matrix coefficients : BT.709

Audio #1ID : 2Format : AC-3Format/Info : Audio Coding 3Mode extension : CM (complete main)Format settings, Endianness : BigCodec ID : A_AC3Duration : 1h 49mnBit rate mode : ConstantBit rate : 384 KbpsChannel(s) : 2 channelsChannel positions : Front: L RSampling rate : 48.0 KHzBit depth : 16 bitsCompression mode : LossyStream size : 302 MiB (7%)Language : RussianDefault : YesForced : No

Audio #2ID : 3Format : AC-3Format/Info : Audio Coding 3Mode extension : CM (complete main)Format settings, Endianness : BigCodec ID : A_AC3Duration : 1h 49mnBit rate mode : ConstantBit rate : 384 KbpsChannel(s) : 6 channelsChannel positions : Front: L C R, Side: L R, LFESampling rate : 48.0 KHzBit depth : 16 bitsCompression mode : LossyStream size : 302 MiB (7%)Language : EnglishDefault : NoForced : No

TextID : 4Format : UTF-8Codec ID : S_TEXT/UTF8Codec ID/Info : UTF-8 Plain TextLanguage : EnglishDefault : NoForced : No

Menu00:00:00.000 : en:Chapter 100:12:00.720 : en:Chapter 200:20:21.220 : en:Chapter 300:29:54.793 : en:Chapter 400:40:16.414 : en:Chapter 500:53:45.222 : en:Chapter 601:00:05.602 : en:Chapter 701:13:43.419 : en:Chapter 801:23:27.002 : en:Chapter 901:31:10.465 : en:Chapter 1001:44:28.262 : en:Chapter 11[/code]

piratbit.ru


Смотрите также