Скачать фильм через торрент бесплатно в хорошем качестве никита


Скачать фильм Никита (1990) через торрент

26 сентября 2016 07:52 Никита / Nikita (1990) BDRip-AVC от MediaClub | P, P2, A .torrent   [Информация о файле (нажмите для просмотра)] Перевод: Профессиональный многоголосый, профессиональный двухголосый (Гланц и Королева), авторский одноголосый (Гаврилов), (Живов)Кодек: MPEG-4 AVCКачество: BDRip-AVCВидео: 2800 Кбит/с, 1024x436, 23.976 кадр/сЗвук: Аудио #1: Русский (AC3, 6 ch, 448 Кбит/с) / Профессиональный многоголосый (Кармен Видео)Аудио #2: Русский (AC3, 6 ch, 448 Кбит/с) / Профессиональный многоголосый (Амальгама)Аудио #3: Русский (AC3, 2 ch, 192 Кбит/с) / Профессиональный многоголосый (ВидеоСервис)Аудио #4: Русский (AC3, 6 ch, 448 Кбит/с) / Профессиональный двухголосый (Гланц и Королева)Аудио #5: Русский (AC3, 6 ch, 384 Кбит/с) / Авторский одноголосый (Гаврилов)Аудио #6: Русский (AC3, 6 ch, 448 Кбит/с) / Авторский одноголосый (Живов)Аудио #7: Украинский (AC3, 2 ch, 256 Кбит/с) / Профессиональный многоголосый (СТБ)Аудио #8: Английский (AC3, 6 ch, 448 Кбит/с) / ДублированныйАудио #9: Французский (AC3, 6 ch, 448 Кбит/с)Субтитры: Русские (2 варианта), английскиеВидео: Идентификатор : 1 Формат : AVC Формат/Информация : Advanced Video Codec Профиль формата : [email protected] Параметр CABAC формата : Да Параметр ReFrames формата : 9 кадров Идентификатор кодека : V_MPEG4/ISO/AVC Продолжительность : 1 ч. 57 м. Битрейт : 2800 Кбит/сек Ширина : 1024 пикселя Высота : 436 пикселей Соотношение сторон : 2,35:1 Режим частоты кадров : Постоянный Частота кадров : 23,976 кадра/сек Цветовое пространство : YUV Субдискретизация насыщенности : 4:2:0 Битовая глубина : 8 бит Тип развёртки : Прогрессивная Бит/(Пиксели*Кадры) : 0.262 Размер потока : 2,19 Гбайт (42%) Заголовок : La.Femme.Nikita.1990.x264.BDRip.AVC.MediaClub Библиотека кодирования : x264 core 142 r2409+42 04be48a tMod [[email protected]:2:0 X86] Настройки программы : cabac=1 / ref=9 / deblock=1:-3:-3 / analyse=0x3:0x133 / me=umh / subme=11 / psy=1 / fade_compensate=0.00 / psy_rd=1.00:0.25 / mixed_ref=1 / me_range=32 / chroma_me=1 / trellis=2 / 8x8dct=1 / cqm=0 / deadzone=21,11 / fast_pskip=0 / chroma_qp_offset=-4 / threads=3 / lookahead_threads=1 / sliced_threads=0 / nr=0 / decimate=0 / interlaced=0 / bluray_compat=0 / constrained_intra=0 / fgo=0 / bframes=8 / b_pyramid=2 / b_adapt=2 / b_bias=0 / direct=3 / weightb=1 / open_gop=0 / weightp=2 / keyint=240 / keyint_min=23 / scenecut=40 / intra_refresh=0 / rc=2pass / mbtree=0 / bitrate=2800 / ratetol=1.0 / qcomp=0.60 / qpmin=0:0:0 / qpmax=69:69:69 / qpstep=4 / cplxblur=20.0 / qblur=0.5 / ip_ratio=1.40 / pb_ratio=1.30 / aq=1:1.00 / aq-sensitivity=10.00 / aq-factor=1.00:1.00:1.00 / aq2=0 / aq3=0 Язык : French Default : Да Forced : НетАудио #1: Идентификатор : 2 Формат : AC-3 Формат/Информация : Audio Coding 3 Расширение режима : CM (complete main) Параметр Endianness формата : Big Идентификатор кодека : A_AC3 Продолжительность : 1 ч. 57 м. Вид битрейта : Постоянный Битрейт : 448 Кбит/сек Каналы : 6 каналов Расположение каналов : Front: L C R, Side: L R, LFE Частота : 48,0 КГц Битовая глубина : 16 бит Метод сжатия : С потерями Размер потока : 376 Мбайт (7%) Заголовок : TRACK_01_MVO_RUS_Кармен Видео Язык : Russian Default : Да Forced : ДаАудио #2: Идентификатор : 3 Формат : AC-3 Формат/Информация : Audio Coding 3 Расширение режима : CM (complete main) Параметр Endianness формата : Big Идентификатор кодека : A_AC3 Продолжительность : 1 ч. 57 м. Вид битрейта : Постоянный Битрейт : 448 Кбит/сек Каналы : 6 каналов Расположение каналов : Front: L C R, Side: L R, LFE Частота : 48,0 КГц Битовая глубина : 16 бит Метод сжатия : С потерями Размер потока : 376 Мбайт (7%) Заголовок : TRACK_02_MVO_RUS_Амальгама Язык : Russian Default : Нет Forced : НетАудио #3: Идентификатор : 4 Формат : AC-3 Формат/Информация : Audio Coding 3 Расширение режима : CM (complete main) Параметр Endianness формата : Big Идентификатор кодека : A_AC3 Продолжительность : 1 ч. 57 м. Вид битрейта : Постоянный Битрейт : 192 Кбит/сек Каналы : 2 канала Расположение каналов : Front: L R Частота : 48,0 КГц Битовая глубина : 16 бит Метод сжатия : С потерями Размер потока : 161 Мбайт (3%) Заголовок : TRACK_03_MVO_RUS_ВидеоСервис Язык : Russian Default : Нет Forced : НетАудио #4: Идентификатор : 5 Формат : AC-3 Формат/Информация : Audio Coding 3 Расширение режима : CM (complete main) Параметр Endianness формата : Big Идентификатор кодека : A_AC3 Продолжительность : 1 ч. 57 м. Вид битрейта : Постоянный Битрейт : 448 Кбит/сек Каналы : 6 каналов Расположение каналов : Front: L C R, Side: L R, LFE Частота : 48,0 КГц Битовая глубина : 16 бит Метод сжатия : С потерями Размер потока : 376 Мбайт (7%) Заголовок : TRACK_04_DVO_RUS Язык : Russian Default : Нет Forced : НетАудио #5: Идентификатор : 6 Формат : AC-3 Формат/Информация : Audio Coding 3 Расширение режима : CM (complete main) Параметр Endianness формата : Big Идентификатор кодека : A_AC3 Продолжительность : 1 ч. 57 м. Вид битрейта : Постоянный Битрейт : 384 Кбит/сек Каналы : 6 каналов Расположение каналов : Front: L C R, Side: L R, LFE Частота : 48,0 КГц Битовая глубина : 16 бит Метод сжатия : С потерями Размер потока : 322 Мбайт (6%) Заголовок : TRACK_05_AVO_RUS_GAVRILOV Язык : Russian Default : Нет Forced : НетАудио #6: Идентификатор : 7 Формат : AC-3 Формат/Информация : Audio Coding 3 Расширение режима : CM (complete main) Параметр Endianness формата : Big Идентификатор кодека : A_AC3 Продолжительность : 1 ч. 57 м. Вид битрейта : Постоянный Битрейт : 448 Кбит/сек Каналы : 6 каналов Расположение каналов : Front: L C R, Side: L R, LFE Частота : 48,0 КГц Битовая глубина : 16 бит Метод сжатия : С потерями Размер потока : 376 Мбайт (7%) Заголовок : TRACK_06_AVO_RUS_ZIVOV Язык : Russian Default : Нет Forced : НетАудио #7: Идентификатор : 8 Формат : AC-3 Формат/Информация : Audio Coding 3 Расширение режима : CM (complete main) Параметр Endianness формата : Big Идентификатор кодека : A_AC3 Продолжительность : 1 ч. 57 м. Вид битрейта : Постоянный Битрейт : 256 Кбит/сек Каналы : 2 канала Расположение каналов : Front: L R Частота : 48,0 КГц Битовая глубина : 16 бит Метод сжатия : С потерями Размер потока : 215 Мбайт (4%) Заголовок : TRACK_07_MVO_UKR_СТБ Язык : Ukrainian Default : Нет Forced : НетАудио #8: Идентификатор : 9 Формат : AC-3 Формат/Информация : Audio Coding 3 Расширение режима : CM (complete main) Параметр Endianness формата : Big Идентификатор кодека : A_AC3 Продолжительность : 1 ч. 57 м. Вид битрейта : Постоянный Битрейт : 448 Кбит/сек Каналы : 6 каналов Расположение каналов : Front: L C R, Side: L R, LFE Частота : 48,0 КГц Битовая глубина : 16 бит Метод сжатия : С потерями Размер потока : 376 Мбайт (7%) Заголовок : TRACK_08_DUB_ENG Язык : English Default : Нет Forced : НетАудио #9: Идентификатор : 10 Формат : AC-3 Формат/Информация : Audio Coding 3 Расширение режима : CM (complete main) Параметр Endianness формата : Big Идентификатор кодека : A_AC3 Продолжительность : 1 ч. 57 м. Вид битрейта : Постоянный Битрейт : 448 Кбит/сек Каналы : 6 каналов Расположение каналов : Front: L C R, Side: L R, LFE Частота : 48,0 КГц Битовая глубина : 16 бит Метод сжатия : С потерями Размер потока : 376 Мбайт (7%) Заголовок : TRACK_09_ORIGINAL_FRE Язык : French Default : Нет Forced : Нет 5,18 Gb 3 5 26 сентября 2016 07:52 Никита / Nikita (1990) BDRip от R. G. Jolly Roger | P .torrent   [Информация о файле (нажмите для просмотра)] Перевод: Профессиональный (многоголосый, закадровый)Кодек: XviD, AVIКачество: BDRipВидео: 720x304, 23.976 fps, 1384 kbps avg, 0.264 bit/pixelЗвук: 48 kHz, AC3 Dolby Digital, 3/2 (L,C,R,l,r) + LFE ch, 384 kbps 1,46 Gb 16 4 26 сентября 2016 07:52 Никита / Nikita (1990) BDRemux 1080p от NovaLan .torrent   [Информация о файле (нажмите для просмотра)] Перевод: Профессиональный многоголосый (Кармен Видео) / Профессиональный двухголосый (П. Гланц, И. Королева) / Профессиональный многоголосый (Амальгама) / Профессиональный многоголосый (ВидеоСервис) / Украинский многоголосый (СТБ) / Авторский одноголосый (Гаврилов, Живов)Кодек: H.264Качество: Blu-Ray Remux 1080pВидео: MPEG-4 AVC, 25889 Кбит/с, 1920x1080, 23.976 кадр/сЗвук: Русский (DTS-HD MA, 6 ch, 1969 Кбит/с), (DTS, 6 ch, 1509 Кбит/с), (AC3, 6 ch, 448 Кбит/с), (AC3, 6 ch, 384 Кбит/с), (AC3, 2 ch, 192 Кбит/с), украинский (AC3, 2 ch, 256 Кбит/с), английский (DTS-HD MA, 6 ch, 2835 Кбит/с), французский (DTS-HD MA, 6 ch, 3603 Кбит/с)Субтитры: Русские (2 варианта), английскиеВидео: Идентификатор : 1 Формат : AVC Формат/Информация : Advanced Video Codec Профиль формата : [email protected] Параметр CABAC формата : Да Параметр ReFrames формата : 2 кадра Идентификатор кодека : V_MPEG4/ISO/AVC Продолжительность : 1 ч. 57 м. Вид битрейта : Переменный Битрейт : 26,4 Мбит/сек Ширина : 1920 пикселей Высота : 1080 пикселей Соотношение сторон : 16:9 Частота кадров : 23,976 кадра/сек Цветовое пространство : YUV Субдискретизация насыщенности : 4:2:0 Битовая глубина : 8 бит Тип развёртки : Прогрессивная Бит/(Пиксели*Кадры) : 0.530 Размер потока : 21,6 Гбайт (70%) Заголовок : La Femme Nikita 1990 - NovaLan Default : Да Forced : НетАудио #1: Идентификатор : 2 Формат : DTS Формат/Информация : Digital Theater Systems Профиль формата : MA / Core Идентификатор кодека : A_DTS Продолжительность : 1 ч. 57 м. Вид битрейта : Переменный Битрейт : 1203 Кбит/сек / 1152 Кбит/сек Каналы : 6 каналов Расположение каналов : Front: L C R, Side: L R, LFE Частота : 48,0 КГц Битовая глубина : 16 бит Метод сжатия : Без потерь / Lossy Язык : Russian Default : Да Forced : НетАудио #2: Идентификатор : 3 Формат : DTS Формат/Информация : Digital Theater Systems Идентификатор кодека : A_DTS Продолжительность : 1 ч. 57 м. Вид битрейта : Постоянный Битрейт : 1510 Кбит/сек Каналы : 6 каналов Расположение каналов : Front: L C R, Side: L R, LFE Частота : 48,0 КГц Битовая глубина : 24 бит Метод сжатия : С потерями Размер потока : 1,24 Гбайт (4%) Язык : Russian Default : Нет Forced : НетАудио #3: Идентификатор : 4 Формат : AC-3 Формат/Информация : Audio Coding 3 Расширение режима : CM (complete main) Параметр Endianness формата : Big Идентификатор кодека : A_AC3 Продолжительность : 1 ч. 57 м. Вид битрейта : Постоянный Битрейт : 448 Кбит/сек Каналы : 6 каналов Расположение каналов : Front: L C R, Side: L R, LFE Частота : 48,0 КГц Битовая глубина : 16 бит Метод сжатия : С потерями Размер потока : 376 Мбайт (1%) Язык : Russian Default : Нет Forced : НетАудио #4: Идентификатор : 5 Формат : AC-3 Формат/Информация : Audio Coding 3 Расширение режима : CM (complete main) Параметр Endianness формата : Big Идентификатор кодека : A_AC3 Продолжительность : 1 ч. 57 м. Вид битрейта : Постоянный Битрейт : 192 Кбит/сек Каналы : 2 канала Расположение каналов : Front: L R Частота : 48,0 КГц Битовая глубина : 16 бит Метод сжатия : С потерями Размер потока : 161 Мбайт (1%) Язык : Russian Default : Нет Forced : НетАудио #5: Идентификатор : 6 Формат : AC-3 Формат/Информация : Audio Coding 3 Расширение режима : CM (complete main) Параметр Endianness формата : Big Идентификатор кодека : A_AC3 Продолжительность : 1 ч. 57 м. Вид битрейта : Постоянный Битрейт : 384 Кбит/сек Каналы : 6 каналов Расположение каналов : Front: L C R, Side: L R, LFE Частота : 48,0 КГц Битовая глубина : 16 бит Метод сжатия : С потерями Размер потока : 322 Мбайт (1%) Язык : Russian Default : Нет Forced : НетАудио #6: Идентификатор : 7 Формат : AC-3 Формат/Информация : Audio Coding 3 Расширение режима : CM (complete main) Параметр Endianness формата : Big Идентификатор кодека : A_AC3 Продолжительность : 1 ч. 57 м. Вид битрейта : Постоянный Битрейт : 448 Кбит/сек Каналы : 6 каналов Расположение каналов : Front: L C R, Side: L R, LFE Частота : 48,0 КГц Битовая глубина : 16 бит Метод сжатия : С потерями Размер потока : 376 Мбайт (1%) Язык : Russian Default : Нет Forced : НетАудио #7: Идентификатор : 8 Формат : AC-3 Формат/Информация : Audio Coding 3 Расширение режима : CM (complete main) Параметр Endianness формата : Big Идентификатор кодека : A_AC3 Продолжительность : 1 ч. 57 м. Вид битрейта : Постоянный Битрейт : 256 Кбит/сек Каналы : 2 канала Расположение каналов : Front: L R Частота : 48,0 КГц Битовая глубина : 16 бит Метод сжатия : С потерями Размер потока : 215 Мбайт (1%) Язык : Ukrainian Default : Нет Forced : НетАудио #8: Идентификатор : 9 Формат : DTS Формат/Информация : Digital Theater Systems Профиль формата : MA / Core Идентификатор кодека : A_DTS Продолжительность : 1 ч. 57 м. Вид битрейта : Переменный Битрейт : 3391 Кбит/сек / 1510 Кбит/сек Каналы : 6 каналов Расположение каналов : Front: L C R, Side: L R, LFE Частота : 48,0 КГц Битовая глубина : 24 бит Метод сжатия : Без потерь / Lossy Язык : English Default : Нет Forced : НетАудио #9: Идентификатор : 10 Формат : DTS Формат/Информация : Digital Theater Systems Профиль формата : MA / Core Идентификатор кодека : A_DTS Продолжительность : 1 ч. 57 м. Вид битрейта : Переменный Битрейт : 2578 Кбит/сек / 1510 Кбит/сек Каналы : 6 каналов Расположение каналов : Front: L C R, Side: L R, LFE Частота : 48,0 КГц Битовая глубина : 24 бит Метод сжатия : Без потерь / Lossy Язык : French Default : Нет Forced : Нет 30,74 Gb 3 2 26 сентября 2016 07:52 Никита / Nikita (1990) BDRip-AVC от Leonardo and Scarabey | P .torrent   [Информация о файле (нажмите для просмотра)] Перевод: Профессиональный (многоголосый закадровый)Формат: MKVВидео кодек: MPEG-4 AVC Аудио кодек: AACВидео: AVC, 960x408 (2.35:1) at 23.976 fps, AVC at 3268 kbps avg, 0.340 bit/pixelАудио: AAC LC-SBR, 2ch, 48 kHz, 80 kbps - многоголосый закадровыйСубтитры: Русские, английские 2,75 Gb 6 1 26 сентября 2016 07:52 Никита / Nikita (1990) BDRip 1080p .torrent   [Информация о файле (нажмите для просмотра)] Перевод: Профессиональный (многоголосый закадровый) + Профессиональный (многоголосый закадровый) Амальгама + Профессиональный (двухголосый, закадровый) Видео Сервис + Авторский (одноголосый, закадровый) Юрий Живов + ОригиналКодек: x264Качество: BDRip 1080p (источник: Voland_ / Blu-ray Disc / 1080p)Видео: 1920х816 (2.35:1), 9848 Kbps, 23.976 fps, 0.262 bit/pixelАудио #1: 48.0 kHz, AC3 Dolby Digital, 3/2 (L,C,R,l,r) + LFE ch, 640 kbps [Многоголосый]Аудио #2: 48.0 kHz, AC3 Dolby Digital, 3/2 (L,C,R,l,r) + LFE ch, 448 kbps [Многоголосый, Амальгама]Аудио #3: 48.0 kHz, AC3 Dolby Digital, 2/0 (L,R) ch, 192 kbps [Двухголосый, Видео Сервис]Аудио #4: 48.0 kHz, AC3 Dolby Digital, 3/2 (L,C,R,l,r) + LFE ch, 448 kbps [Авторский, Ю. Живов]Аудио #5: 48.0 kHz, AC3 Dolby Digital, 3/2 (L,C,R,l,r) + LFE ch, 640 kbps [Французский]Субтитры: Русские, английские 10 Gb 3 1 26 сентября 2016 07:52 Никита / Nikita (1990) BDRip [720p] от HQ-ViDEO. .torrent   [Информация о файле (нажмите для просмотра)] Субтитры: Русские, Английские. 5,58 Gb 3 3 26 сентября 2016 07:52 Никита / Nikita (1990) BDRip-AVC .torrent   [Информация о файле (нажмите для просмотра)] Перевод: 1.Русский, многоголосый закадровый №1 2.Русский, многоголосый закадровый №2 3.Авторский (Одноголосный - Живов) 4.Английский (дубляж). + Французский (оригинал)Формат: MKVКодек: H.264Качество: BDRip-AVCВидео: 1024x432 (2.35:1), 23.976 fps, 1 527 KbpsЗвук: 1.AAC, 48 KHz, 6ch, 238 kbps 2.MP3, 44 KHz, 2ch, 112 kbps 3.AAC, 48 КHz, 6ch, 229kbps (Живов) 4.AAC, 48 КHz, 6ch, 228kbps (Английский - дубляж) 5.AAC, 48 KHz, 6ch, 246 kbpsСубтитры: русские (отключаемые) 2,12 Gb 3 3 26 сентября 2016 07:52 Никита / Nikita (1990) BDRip 720p -Brux .torrent   [Информация о файле (нажмите для просмотра)] Перевод: профессиональный (многоголосый)Формат: MKVКодек: MPEG-4 AVCКачество: BDRip 720p (BluRay)Видео: 1280х544,4673 Кб/c,23.976 кадр/сЗвук: АС3,6 ch, 448 Кб/с 4,28 Gb 5 5 26 сентября 2016 07:52 Никита / Nikita (1990) BDRip от HELLYWOOD .torrent   [Информация о файле (нажмите для просмотра)] Перевод: Профессиональный (многоголосый закадровый), Профессиональный (одноголосый)+ Оригинальная дорожкаФормат: AVIКачество: BDRip(источник: Blu-ray1080p)Видео: 720x304 (2.37:1), 23.976 fps, XviD build 50, 1826 kbps avg, 0.35 bit/pixelАудио #1: 48 kHz, AC3 Dolby Digital, 3/2 (L,C,R,l,r) + LFE ch, 448.00 kbps avg(Многоголосый закадровый, Амальгама) RussianАудио #2: 48 kHz, AC3 Dolby Digital, 3/2 (L,C,R,l,r) + LFE ch, 384.00 kbps avg(Оригинальная дорожка )Аудио #4: 48 kHz, AC3 Dolby Digital, 3/2 (L,C,R,l,r) + LFE ch, 448.00 kbps avg(Одноголосый закадровый, Ю. Живов) Russian (Отдельно)Аудио #5: 48 kHz, AC3 Dolby Digital, 3/2 (L,C,R,l,r) + LFE ch, 256.00 kbps avg(Многоголосый закадровый, СТБ) Ukrainian (Отдельно) 2,76 Gb 3 4 26 сентября 2016 07:52 Никита / Nikita (1990) DVDRip от AndrewWhite .torrent   [Информация о файле (нажмите для просмотра)] Перевод: Профессиональный (многоголосый, закадровый)Кодек: XviDКачество: DVDRipВидео: 720x304, 23.97fps, 1681 Кбит/секЗвук: Rus DTS 6ch 768kbps 2,06 Gb 5 2 26 сентября 2016 07:52 Никита / Nikita (1990) BDRip от HQCLUB .torrent   [Информация о файле (нажмите для просмотра)] Перевод: Профессиональный (двухголосый, закадровый,П. Гланц, И. Королева) + Оригинальная французская дорожка + Профессиональный (авторский одноголосый, Ю. Живов) (отдельно) + Профессиональный (многоголосый, закадровый) R5/«Амальгама» (отдельно) + Профессиональный (многоголосый, закадровый) R5/«ВидеоСервис» (отдельно) + Английская дорожка (отдельно)Субтитры: Русские, английские (внешние .srt)Формат: AVIКачество: BDRip (источник: by Sunny / Blu-ray Remux / 1080p)Видео: 720x304 (2.37:1), 23.976 fps, XviD build 50 ~1891 kbps avg, 0.36 bit/pixelАудио #1: 48 kHz, AC3 Dolby Digital, 3/2 (L,C,R,l,r) + LFE ch, ~384.00 kbps avgАудио #2: 48 kHz, AC3 Dolby Digital, 3/2 (L,C,R,l,r) + LFE ch, ~384.00 kbps avgАудио #3: 48 kHz, AC3 Dolby Digital, 3/2 (L,C,R,l,r) + LFE ch, ~448 kbps avg (отдельно)Аудио #4: 48 kHz, AC3 Dolby Digital, 3/2 (L,C,R,l,r) + LFE ch, ~448 kbps avg (отдельно)Аудио #5: 448 kHz, AC3 Dolby Digital, 2 ch, ~192.00 kbps avg (отдельно)Аудио #6: 48 kHz, AC3 Dolby Digital, 3/2 (L,C,R,l,r) + LFE ch, ~448 kbps avg (отдельно) 3,44 Gb 4 2 26 сентября 2016 07:52 Никита / Nikita (1990) BDRip от RP4 CHG .torrent   [Информация о файле (нажмите для просмотра)] Перевод: Профессиональный (многоголосый, закадровый) (Гланц + Королёва)Субтитры: 891,12 Mb 3 1 26 сентября 2016 07:52 Никита / Nikita (1990) BDRip от HQ-ViDEO .torrent   2,18 Gb 3 3

gig-torrent.net

Скачать фильм Никита через торрент в хорошем качестве бесплатно BDRip-AVC

Раздают: 1 [ 0 KB/s ]
Размер: 2.32 GB | Добавлен: 1 год 6 мес. назад | Торрент скачан:57 раз
Реклама Дарим 3000 рублей за регистрацию, не упусти свой шанс получить шикарный бонус!!!

22-04-2016 10:32 Никита Скачать торрент  

Никита / Nikita Год выпуска: 1990Страна: Франция, ИталияЖанр: боевик, триллер

Продолжительность: 01:57:07Перевод: Профессиональный (многоголосый) (Amalgama)Субтитры: русские, Режиссер: Люк Бессон В ролях: Анн Парийо (Nikita), Марк Дюре (Rico), Патрик Фонтана (Coyotte), Ален Латьер (Zap), Лаура Черон (La punk), Жак Буде (Le pharmacien), Хелен Алигер (La pharmacienne), Пьер-Ален Де Гарригес (Flic pharmacie), Патрик Перез (Flic pharmacie), Бруно Рандон (Flic pharmacie), Винсент Скименти (Flic pharmacie), Ролан Бланш (Flic interrogatoire)Описание: Никита, молоденькая девушка, под действием наркотиков вместе с друзьями совершает ограбление и убийство. После суда приговор не приводится в исполнение, а Никиту отправляют в школу специальных агентов.Ее больше нет, она становится секретным агентом без прошлого и будущего...Рейтинг: Качество: BDRip-AVC /60fpsФормат: MKVВидео кодек: AVCАудио кодек:AC3Видео: AVC, 1024x432 (2.35:1), 2400 kbps, 60 fps, 0,090 bppАудио: русский / AC3 / 5.1 / 48 kHz / 384 kbps / 16 bit | (Amalgama)

x264 [info]: frame I:2236 Avg QP:15.82 size: 70718x264 [info]: frame P:128523 Avg QP:18.44 size: 11840x264 [info]: frame B:290859 Avg QP:22.39 size: 1633x264 [info]: consecutive B-frames: 5.5% 11.6% 19.1% 11.5% 52.3%

GeneralUnique ID : 222484020653810968501559953389972085926 (0xA760DD1EE1FFD154809624BCC9C3DCA6)Complete name : E:\Nikita.1990.BDRip-AVC.60fps.mkvFormat : MatroskaFormat version : Version 4 / Version 2File size : 2.32 GiBDuration : 1h 57mnOverall bit rate : 2 841 KbpsMovie name : Никита / Nikita (1990) BDRip-AVC | 60fpsEncoded date : UTC 2016-04-22 09:48:49Writing application : mkvmerge v6.2.0 ('Promised Land') built on Apr 28 2013 12:22:01Writing library : libebml v1.3.0 + libmatroska v1.4.0

VideoID : 1Format : AVCFormat/Info : Advanced Video CodecFormat profile : [email protected] settings, CABAC : YesFormat settings, ReFrames : 4 framesCodec ID : V_MPEG4/ISO/AVCDuration : 1h 57mnBit rate : 2 400 KbpsWidth : 1 024 pixelsHeight : 432 pixelsDisplay aspect ratio : 2.35:1Frame rate : 60.000 fpsColor space : YUVChroma subsampling : 4:2:0Bit depth : 8 bitsScan type : ProgressiveBits/(Pixel*Frame) : 0.090Stream size : 1.96 GiB (84%)Title : slaventi-69 ( R.G. HD-Films | 60 fps )Writing library : x264 core 130 r2273 b3065e6Encoding settings : cabac=1 / ref=4 / deblock=1:0:0 / analyse=0x1:0x111 / me=umh / subme=9 / psy=1 / psy_rd=1.00:0.00 / mixed_ref=1 / me_range=28 / chroma_me=1 / trellis=2 / 8x8dct=0 / cqm=0 / deadzone=21,11 / fast_pskip=1 / chroma_qp_offset=-2 / threads=10 / lookahead_threads=1 / sliced_threads=0 / nr=0 / decimate=1 / interlaced=0 / bluray_compat=0 / constrained_intra=0 / bframes=4 / b_pyramid=2 / b_adapt=2 / b_bias=0 / direct=1 / weightb=1 / open_gop=0 / weightp=2 / keyint=250 / keyint_min=25 / scenecut=40 / intra_refresh=0 / rc_lookahead=40 / rc=crf / mbtree=1 / crf=16.5 / qcomp=0.60 / qpmin=0 / qpmax=69 / qpstep=4 / ip_ratio=1.40 / aq=1:1.00Language : EnglishDefault : YesForced : No

AudioID : 2Format : AC-3Format/Info : Audio Coding 3Mode extension : CM (complete main)Codec ID : A_AC3Duration : 1h 57mnBit rate mode : ConstantBit rate : 384 KbpsChannel(s) : 6 channelsChannel positions : Front: L C R, Side: L R, LFESampling rate : 48.0 KHzBit depth : 16 bitsCompression mode : LossyStream size : 322 MiB (14%)Title : MVO (Amalgama)Language : RussianDefault : YesForced : No

TextID : 3Format : UTF-8Codec ID : S_TEXT/UTF8Codec ID/Info : UTF-8 Plain TextLanguage : RussianDefault : NoForced : No

           Просьба к переливающим на другие сайты, в оформлении указывайте пожалуйста авторство рипа slaventi-69 Скачать Никита через торрент http://i77.fastpic.ru/big/2016/0422/35/de721bbb6ec75c3a861cb1922684b335.jpg Скачать фильм Никита через торрент бесплантно в хорошем качестве Описание: Никита, молоденькая девушка, под действием наркотиков вместе с друзьями совершает ограбление и убийство. После суда приговор не ... 2016-04-22 10:32 10 10 6

Loading...

Loading...

Рекламный пират

Дорогой пользователь! Огромная просьба, поблагодарите релизера, оцените раздачу и оставьте свои комментарий, если Вы скачали Никита через торрент бесплатно! Внесите свою лепту в развитие PiratBit!

Комментировать посты могут только пользователи прошедшие не сложную регистрацию

Никита через торрент Скачать бесплатно Никита Никита скачать торрент Никита смотреть онлайн Cкачать фильм Никита бесплатно Никита скачать торрент в хорошем качестве Никита смотреть онлайн бесплатно в хорошем качестве

Вы не можете начинать темыВы не можете отвечать на сообщенияВы не можете редактировать свои сообщенияВы не можете удалять свои сообщенияВы не можете голосовать в опросахВы не можете прикреплять файлы к сообщениямВы можете скачивать файлы

piratbit.ru

( 1997)

: SD

: XVID,~967 kb/s,576 x 432,0,21 b/px,23,98 fps

1: : 128 kb/s ,48000 Hz, 3 - ,

  • nikita/1season/Nikita.1x14.Gambit.DVDrip.Rus-Eng.avi
  • nikita/1season/Nikita.1x07.Treason.DVDrip.Rus-Eng.avi
  • nikita/1season/Nikita.1x13.Recruit.DVDrip.Rus-Eng.avi
  • nikita/1season/Nikita.1x11.Rescue.DVDrip.Rus-Eng.avi
  • nikita/1season/Nikita.1x19.Voices.DVDrip.Rus-Eng.avi
  • nikita/1season/Nikita.1x03.Simone.DVDrip.Rus-Eng.avi
  • nikita/1season/Nikita.1x05.Mother.DVDrip.Rus-Eng.avi
  • nikita/1season/Nikita.1x12.Innocent.DVDrip.Rus-Eng.avi
  • nikita/1season/Nikita.1x02.Friend.DVDrip.Rus-Eng.avi
  • nikita/1season/Nikita.1x15.Obsessed.DVDrip.Rus-Eng.avi
  • nikita/1season/Nikita.1x08.Escape.DVDrip.Rus-Eng.avi
  • nikita/1season/Nikita.1x09.Gray.DVDrip.Rus-Eng.avi
  • nikita/1season/Nikita.1x10.Choice.DVDrip.Rus-Eng.avi
  • nikita/1season/Nikita.1x04.Charity.DVDrip.Rus-Eng.avi
  • nikita/1season/Nikita.1x17.War.DVDrip.Rus-Eng.avi
  • nikita/1season/Nikita.1x16.Noise.DVDrip.Rus-Eng.avi
  • nikita/1season/Nikita.1x18.Missing.DVDrip.Rus-Eng.avi
  • nikita/1season/Nikita.1x01.Nikita.DVDrip.Rus-Eng.avi
  • nikita/1season/Nikita.1x21.Verdict.DVDrip.Rus-Eng.avi
  • nikita/1season/Nikita.1x22.Mercy.DVDrip.Rus-Eng.avi
  • nikita/1season/Nikita.1x06.Love.DVDrip.Rus-Eng.avi
  • nikita/1season/Nikita.1x20.Brainwash.DVDrip.Rus-Eng.avi
  • nikita/2season/Nikita.2x08.Darkness.Visible.DVDrip.Rus-Eng.avi
  • nikita/2season/Nikita.2x14.Double.Date.DVDrip.Rus-Eng.avi
  • nikita/2season/Nikita.2x11.Psychic.Pilgrim.DVDrip.Rus-Eng.avi
  • nikita/2season/Nikita.2x05.New.Regime.DVDrip.Rus-Eng.avi
  • nikita/2season/Nikita.2x09.Open.Heart.DVDrip.Rus-Eng.avi
  • nikita/2season/Nikita.2x16.Old.Habits.DVDrip.Rus-Eng.avi
  • nikita/2season/Nikita.2x13.Not.Was.DVDrip.Rus-Eng.avi
  • nikita/2season/Nikita.2x22.End.Game(2).DVDrip.Rus-Eng.avi
  • nikita/2season/Nikita.2x18.Off.Profile.DVDrip.Rus-Eng.avi
  • nikita/2season/Nikita.2x10.First.Mission.DVDrip.Rus-Eng.avi
  • nikita/2season/Nikita.2x20.In.Between.DVDrip.Rus-Eng.avi
  • nikita/2season/Nikita.2x21.Adrians.Garden(1).DVDrip.Rus-Eng.avi
  • nikita/2season/Nikita.2x03.Third.Person.DVDrip.Rus-Eng.avi
  • nikita/2season/Nikita.2x15.Fuzzy.Logic.DVDrip.Rus-Eng.avi
  • nikita/2season/Nikita.2x07.Half-Life.DVDrip.Rus-Eng.avi
  • nikita/2season/Nikita.2x01.Hard.Landing.DVDrip.Rus-Eng.avi
  • nikita/2season/Nikita.2x17.Inside.Out.DVDrip.Rus-Eng.avi
  • nikita/2season/Nikita.2x12.Soul.Sacrifice.DVDrip.Rus-Eng.avi
  • nikita/2season/Nikita.2x19.Last.Night.DVDrip.Rus-Eng.avi
  • nikita/2season/Nikita.2x06.Mandatory.Refusal.DVDrip.Rus-Eng.avi
  • nikita/2season/Nikita.2x02.Spec.Ops.Rus-Eng.avi
  • nikita/2season/Nikita.2x04.Approaching.Zero.DVDrip.Rus-Eng.avi
  • nikita/3season/Nikita.3x03.Opening.Night.Jitters.DVDrip.Rus-Eng.avi
  • nikita/3season/Nikita.3x01.Looking.For.Michael.DVDrip.Rus-Eng.avi
  • nikita/3season/Nikita.3x19.Any.Means.Necessary.DVDrip.Rus-Eng.avi
  • nikita/3season/Nikita.3x17.All.Good.Things.DVDrip.Rus-Eng.avi
  • nikita/3season/Nikita.3x07.Cat.And.Mouse.DVDrip.Rus-Eng.avi
  • nikita/3season/Nikita.3x10.Under.the.Influence.DVDrip.Rus-Eng.avi
  • nikita/3season/Nikita.3x06.Love.And.Country.DVDrip.Rus-Eng.avi
  • nikita/3season/Nikita.3x02.Someone.Else's.Shadow.DVDrip.Rus-Eng.avi
  • nikita/3season/Nikita.3x21.Playing.with.Fire.DVDrip.Rus-Eng.avi
  • nikita/3season/Nikita.3x15.Before.I.Sleep.DVDrip.Rus-Eng.avi
  • nikita/3season/Nikita.3x12.Threshold.of.Pain.DVDrip.Rus-Eng.avi
  • nikita/3season/Nikita.3x20.Three.Eyed.Turtle.DVDrip.Rus-Eng.avi
  • nikita/3season/Nikita.3x09.Slipping.into.Darkness..DVDrip.Rus-Eng.avi
  • nikita/3season/Nikita.3x13.Beyond.the.Pale.DVDrip.Rus-Eng.avi
  • nikita/3season/Nikita.3x05.Imitation.Of.Death.DVDrip.Rus-Eng.avi
  • nikita/3season/Nikita.3x18.Third.Party.Ripoff.DVDrip.Rus-Eng.avi
  • nikita/3season/Nikita.3x11.Walk.on.By.DVDrip.Rus-Eng.avi
  • nikita/3season/Nikita.3x22.On.Borrowed.Time.DVDrip.Rus-Eng.avi
  • nikita/3season/Nikita.3x04.Gates.Of.Hell.DVDrip.Rus-Eng.avi
  • nikita/3season/Nikita.3x08.Outside.the.Box.DVDrip.Rus-Eng.avi
  • nikita/3season/Nikita.3x14.Hand.to.Hand.DVDrip.Rus-Eng.avi
  • nikita/3season/Nikita.3x16.I.Remember.Paris.DVDrip.Rus-Eng.avi
  • nikita/4season/Nikita.4x22.Four.Light.Years.Farther.DVDRip.Rus-Eng.avi
  • nikita/4season/Nikita.4x18.Toys.In.The.Basement.DVDRip.Rus-Eng.avi
  • nikita/4season/Nikita.4x21.Up.The.Rabbit.Hole.DVDRip.Rus-Eng.avi
  • nikita/4season/Nikita.4x09.Down.A.Crooked.Path.DVDRip.Rus-Eng.avi
  • nikita/4season/Nikita.4x03.View.Of.The.Garden.DVDRip.Rus-Eng.avi
  • nikita/4season/Nikita.4x04.Into.The.Looking.Glass.DVDRip.Rus-Eng.avi
  • nikita/4season/Nikita.4x08.No.One.Lives.Forever.DVDRip.Rus-Eng.avi
  • nikita/4season/Nikita.4x19.Time.Out.Of.Mind.DVDRip.Rus-Eng.avi
  • nikita/4season/Nikita.4x01.Getting.Out.Of.Reverse.DVDRip.Rus-Eng.avi
  • nikita/4season/Nikita.4x11.Time.To.Be.Heroes.DVDRip.Rus-Eng.avi
  • nikita/4season/Nikita.4x15.Abort.Fail.Retry.Terminate.DVDRip.Rus-Eng.avi
  • nikita/4season/Nikita.4x10.He.Came.From.Four.DVDRip.Rus-Eng.avi
  • nikita/4season/Nikita.4x13.Kiss.The.Past.Goodbye.DVDRip.Rus-Eng.avi
  • nikita/4season/Nikita.4x05.Man.In.The.Middle.DVDRip.Rus-Eng.avi
  • nikita/4season/Nikita.4x12.Hell.Hath.No.Fury.DVDRip.Rus-Eng.avi
  • nikita/4season/Nikita.4x17.Sleeping.With.The.Enemy.DVDRip.Rus-Eng.avi
  • nikita/4season/Nikita.4x07.Sympathy.For.The.Devil.DVDRip.Rus-Eng.avi
  • nikita/4season/Nikita.4x20.Face.In.The.Mirror.DVDRip.Rus-Eng.avi
  • nikita/4season/Nikita.4x14.Line.In.The.Sand.DVDRip.Rus-Eng.avi
  • nikita/4season/Nikita.4x16.Catch.A.Falling.Star.DVDRip.Rus-Eng.avi
  • nikita/4season/Nikita.4x02.There.Are.No.Missions.DVDRip.Rus-Eng.avi
  • nikita/4season/Nikita.4x06.Love.Honor.&.Cherish.DVDRip.Rus-Eng.avi
  • nikita/5season/Nikita.5x02.A.Girl.Who.Wasn't.There.DVDRip.Rus-Eng.avi
  • nikita/5season/Nikita.5x01.Deja.Vu.All.Over.Again.DVDRip.Rus-Eng.avi
  • nikita/5season/Nikita.5x03.In.Through.The.Out.Door.DVDRip.Rus-Eng.avi
  • nikita/5season/Nikita.5x04.All.The.World's.A.Stage.DVDRip.Rus-Eng.avi
  • nikita/5season/Nikita.5x07.Let.No.Man.Put.Asunder.DVDRip.Rus-Eng.avi
  • nikita/5season/Nikita.5x05.The.Man.Behind.The.Curtain.DVDRip.Rus-Eng.avi
  • nikita/5season/Nikita.5x06.The.Evil.That.Men.Do.DVDRip.Rus-Eng.avi
  • nikita/5season/Nikita.5x08.A.Time.For.Every.Purpose.DVDRip.Rus-Eng.avi

filmix.me

Её звали Никита торрент скачать

Её звали Никита / La Femme Nikita / Сезон: 1-5 / Серии: 1-96 из 96 (Jay Firestone и Jamie Paul Rock) [1997-2001, Канада, Боевик, DVDRip-AVC] DVO (НТВ) + Original66.51 GBЕе звали Никита (1-5 сезоны: 1-96 серии из 96) / La Femme Nikita / 1997-2001 / ПМ / DVDRip / 36.78 ГБ36.78 GBЕё звали Никита / Никита / La Femme Nikita / Nikita (Люк Бессон / Luc Besson) [1990, Франция, Италия, боевик, триллер, драма, BDRip] MVO (ТРК "Петербург - 5 канал") + DVO (к/с им. М.Горького)2.12 GBЕё звали Никита (Никита) / La femme Nikita (Nikita) / 1990 / ПМ / BDRip / 1.46 ГБ1.46 GBНикита / Ее звали Никита / Nikita / La Femme Nikita (Люк Бессон / Luc Besson) [1990, Франция, Италия, триллер, драма, мелодрама, криминал, BDRip-AVC] MVO Sub rus + original fre1.65 GBЕе звали Никита / Никита / La Femme Nikita / Nikita (Люк Бессон / Luc Besson) [1990, Франция, Италия, боевик, драма, криминал, триллер, HDRip] MVO (Канал «Петербург-5»)1.45 GBЕё звали Никита / La femme Nikita / Сезон: 1-5 / Серии: 1-96 (96) (Рене Боньер / Rene Bonniere) [1997-2001, Канада, Боевик, драма, DVDRemux] AVO (Визгунов) + MVO (НТВ, РЕН-ТВ, ТВ3) + Original + Subs176.3 GBЕё звали Никита / La Femme Nikita / Сезон: 4 / Серии: 01-11 (22) (Jay Firestone и Jamie Paul Rock) [2000, США, Боевик, DVDRip]4.19 GBЕё звали Никита / La Femme Nikita / Сезон: 1-5 из 5 / Серии: 1-96 из 96 (Джей Файрстоун, Джэми Пол Рок) [1997-2001, Канада, боевик, драма, DVDRip] MVO (НТВ / Рен-ТВ)67.64 GB(Soundtrack) La Femme Nikita / Её звали Никита (Mark Snow & VA) - 1998, FLAC (tracks+.cue), lossless471.8 MBЕё звали Никита (Никита) / La femme Nikita (Nikita) / 1990 / 3 x ПМ, ПД, АП (Гаврилов, Живов), СТ / Blu-Ray Remux (1080p) / 30.74 ГБ30.74 GBЕе звали Никита / La femme Nikita [S01-05] (1997-2001) DVDRip36.78 GBЕё звали Никита / La Femme Nikita / Сезон: 4 / Серии: 12-22 (22) (Jay Firestone и Jamie Paul Rock) [2000, США, Боевик, DVDRip]4.19 GBЕё звали Никита (Никита) / La femme Nikita (Nikita) / 1990 / ПМ, ПД / BDRip / 2.12 ГБ2.12 GBЕё звали Никита (Никита) / La femme Nikita (Nikita) / 1990 / 2 x ПМ, ПД, АП (Живов), СТ / BDRip (1080p) / 10 ГБ10 GBЕё звали Никита / La Femme Nikita / Сезон: 2 / Серии: 12-22 (22) (Jay Firestone и Jamie Paul Rock) [1998, США, Боевик, DVDRip]4.24 GBЕё звали Никита / La Femme Nikita / Сезон: 2 / Серии: 01-11 (22) (Jay Firestone и Jamie Paul Rock) [1998, США, Боевик, DVDRip]4.24 GBЕё звали Никита / La Femme Nikita / Сезон: 5 / Серии: 1-8 (8) (Jay Firestone и Jamie Paul Rock) [2001, США, Боевик, DVDRip]3.01 GBЕё звали Никита (1-5 сезоны: 1-96 серии из 96) / La Femme Nikita / 1997-2001 / ПД (НТВ) / DVDRip / 66.51 ГБ66.51 GBЕё звали Никита (Никита) / La femme Nikita (Nikita) / 1990 / 3 x ПМ, ПД, АП (Гаврилов, Живов), СТ / BDRip (AVC) / 5.18 ГБ5.18 GBЕё звали Никита / La Femme Nikita Сезон 3 Серии 01-22 (22) (1999) DVDRip (HQ.Edition x264) (НТВ)15.6 GBЕё звали Никита / La Femme Nikita / Сезон: 3 / Серии: 12-22 (22) (Jay Firestone и Jamie Paul Rock) [1999, США, Боевик, DVDRip]4.2 GBЕё звали Никита / La Femme Nikita Сезон 5 Серии 01-08 (08) (2001) DVDRip (HQ.Edition x264) (НТВ)5.65 GBЕё звали Никита / La Femme Nikita / Сезон: 3 / Серии: 01-11 (22) (Jay Firestone и Jamie Paul Rock) [1999, США, Боевик, DVDRip]4.21 GBЕё звали Никита / La Femme Nikita (Люк Бессон / Luc Besson) [1990, Франция, Италия, боевик, триллер, мелодрама, драма, криминал, BDRip 720p]9.64 GBЕё звали Никита / La Femme Nikita (Люк Бессон / Luc Besson) [1990, Франция, Италия, боевик, триллер, мелодрама, драма, криминал, BDRip 1080p]12.33 GBЕё звали Никита / La Femme Nikita Сезон 2 Серии 01-22 (22) (1998) DVDRip (HQ.Edition x264) (НТВ)15.7 GBЕё звали Никита / La Femme Nikita (Люк Бессон / Luc Besson) [1990, Франция, Италия, боевик, триллер, мелодрама, драма, криминал, Blu-ray disc (custom) 1080p]28.86 GBЕё звали Никита / La Femme Nikita / Сезон: 1 / Серии: 12-22 (22) (Jay Firestone и Jamie Paul Rock) [1997, США, Боевик, DVDRip]4.25 GBЕё звали Никита / La Femme Nikita / Сезон: 1 / Серии: 01-11 (22) (Jay Firestone и Jamie Paul Rock) [1997, США, Боевик, DVDRip]4.25 GBЕё звали Никита / La Femme Nikita Сезон 4 Серии 01-22 (22) (2000) DVDRip (HQ.Edition x264) (НТВ)15.6 GBЕё звали Никита / La Femme Nikita Сезон 1 Серии 01-22 (22) (1997) DVDRip (HQ.Edition x264) (НТВ)15.7 GB(Score) Ее звали Никита / La femme Nikita (Sean Callery) - 2001 [MP3, 128-320]80.1 MB(Score) La Femme Nikita / Её звали Никита (Eric Serra) - 1990, FLAC (tracks+.cue), lossless262.3 MB(OST) VA - Ее звали Никита / La Femme Nikita (1998) [MP3, 320 kbps]168 MBЕё звали Никита / Никита / La Femme Nikita / Nikita (Люк Бессон / Luc Besson) [1990, Франция, Италия, боевик, драма, криминал, триллер, HDRip] AVO (Андрей Гаврилов (ранний))1.45 GBЕё звали Никита / La Femme Nikita (1997-2001) DVDRip [H.264] (сезон 1-5, серии 1-96 из 96) НТВ / ТВ366.5 GBЕё звали Никита / Nikita (Люк Бессон / Luc Besson) [1990, Франция, Италия, Боевик, Драма, Мелодрама, HDRip]752.4 MBЕё звали Никита / La Femme Nikita (Люк Бессон / Luc Besson) [1990, Франция, Италия, боевик, триллер, мелодрама, драма, криминал, BDRemux 1080p]25.55 GBЕе звали Никита / Никита / Nikita / La Femme Nikita (Люк Бессон / Luc Besson) [1990, Франция, Италия, боевик / драма, BDRip]2.19 GBЕё звали Никита (Никита) / La femme Nikita (Nikita) (Люк Бессон/Luc Besson) [1990, Франция, Боевик/драма, DVD9 (Custom)] Special Edition AVO Андрей Гаврилов Sub eng, fre + original fre6.4 GBЕё звали Никита (Никита) / La femme Nikita (Nikita) / 1990 / ПМ, СТ / BDRip (AVC) / 1.45 ГБ1.45 GBЕё звали Никита / Nikita (Люк Бессон / Luc Besson) [1990, Франция, Италия, боевик, триллер, мелодрама, драма, криминал, BDRip-AVC]2.7 GB(Score) Её звали Никита / La Femme Nikita / Nikita (by Eric Serra) - 1990, MP3, 320 kbps124.5 MBЕё звали Никита (Никита) / La femme Nikita (Nikita) / 1990 / ПМ, АП (Живов) / DVD-9 / 7.66 ГБ7.66 GBЕё звали Никита (Никита) / La femme Nikita (Nikita) / 1990 / ПМ / BDRip / 2.18 ГБ2.18 GBЕе звали Никита (1 сезон: 1-22 серии из 22) / La Femme Nikita / 1997-2001 / ПМ / DVDRip / 8.5 ГБ8.5 GBЕе звали Никита (4 сезон: 1-22 серии из 22) / La Femme Nikita / 1997-2001 / ПМ / DVDRip / 8.39 ГБ8.39 GBЕё звали Никита (Никита) / La femme Nikita (Nikita) / 1990 / ПМ, ПД, СТ / BDRip (720p) / 4.68 ГБ4.68 GBЕе звали Никита (2 сезон: 1-22 серии из 22) / La Femme Nikita / 1997-2001 / ПМ / DVDRip / 8.47 ГБ8.47 GB tparser.org – торрент поисковик по популярным торрент трекерам. Находить и скачивать новинки кино в HDRip и BDRip качестве через tparser намного проще! Добро пожаловать на крупный торрент архив фильмов и игр tparser.org. Вам больше не придется искать торренты на основных торрент трекерах в поисках нужной раздачи – мы предлагаем найти и скачать фильмы в хорошем качестве прямо на нашем сайте. Наш сервис поиска торрентов в реальном времени собирает информацию с крупных торрент трекеров и сортирует полученные результаты в удобную таблицу. Скачивайте торренты без ограничений и без всяких регистраций на трекерах. Начните скачивать торрент Её звали Никита прямо сейчас!

tparser.org


Смотрите также