Скачать фильм через торрент бесплатно в хорошем качестве перестрелка


Скачать фильм Перестрелка через торрент в хорошем качестве бесплатно WEB-DLRip

Раздают: 1 [ 0 KB/s ]
Размер: 745 MB | Добавлен: 3 мес. 22 д. назад | Торрент скачан:99 раз
Реклама Дарим 3000 рублей за регистрацию, не упусти свой шанс получить шикарный бонус!!!

03-07-2017 20:55 Перестрелка Скачать торрент  

Перестрелка / Free Fire

Год выпуска: 2016Страна: ВеликобританияЖанр: Боевик, триллерПродолжительность: 01:30:17Перевод: Дубляж [iTunes]Субтитры: отсутствуют

Режиссер: Бен Уитли

В ролях:

Энцо Чиленти, Сэм Райли, Майкл Смайли, Бри Ларсон, Киллиан Мёрфи, Арми Хаммер, Шарлто Копли, Бабу Сизей, Ноа Тейлор, Джек Рейнор

Описание:

Когда подпольная сделка по продаже оружия феерически летит под откос, целый склад превращается в масштабное поле битвы. Слова закончились, и заговорили стволы. Приз в игре на выживание — кейс с большой суммой денег, но унести его не так просто. Здесь вооружены все, каждый сам за себя, а хаос правит бал.

Качество: WEB-DLRipФормат: AVIВидео кодек: XviDАудио кодек: MP3

Видео: XviD, 688x288, 24 fps, 1019 kbpsАудио#1: MP3, 2 ch, 128 kbps

Скачать Перестрелка через торрент http://i93.fastpic.ru/big/2017/0703/21/67664e9ec995ffa1f6fc2e8f7c881a21.jpg Скачать фильм Перестрелка через торрент бесплантно в хорошем качестве Описание: Когда подпольная сделка по продаже оружия феерически летит под откос, целый склад превращается в масштабное поле битвы. Слова ... 2017-07-03 20:55 9.7 10 7

Loading...

Loading...

% Раздел Тема Автор DL S | L
Фильмы без перевода [ 16.59 GB ] Перестрелка / Free Fire [2016 BDRemux] [Оригинал-ENG] smaster Скачать
Фильмы 2016 [DVDrip, WEB-DLRip, HDrip] (DUB, MVO) [ 1.42 GB ] Перестрелка / Free Fire [2016 BDRip] - Twi7ter Скачать
Фильмы (Blu-ray, BD-Remux, HDDVD) [ 16.8 GB ] Перестрелка / Free Fire [2016 BD Remux 1080p] bober100 Скачать
Фильмы 2016 [DVDrip, WEB-DLRip, HDrip] (DUB, MVO) [ 1.75 GB ] Перестрелка / Free Fire [2016 BDRip-AVC] bober100 Скачать
Фильмы [HD 720p, 1080p] (Хороший звук DUB, MVO) [ 7.22 GB ] Перестрелка / Free Fire [2016 BDRip 1080p] bober100 Скачать
Фильмы [HD 720p, 1080p] (Хороший звук DUB, MVO) [ 3.78 GB ] Перестрелка / Free Fire [2016 BDRip 720p] bober100 Скачать
Фильмы 2016 [DVDrip, WEB-DLRip, HDrip] (DUB, MVO) [ 742 MB ] Перестрелка / Free Fire [2016 WEB-DLRip-AVC] bober100 Скачать

Рекламный пират

04-07-2017 02:34 Перестрелка Скачать торрент  

Помнится был фильм Крутые стволы с Кристофером Ламбертом. Один в один.

Дорогой пользователь! Огромная просьба, поблагодарите релизера, оцените раздачу и оставьте свои комментарий, если Вы скачали Перестрелка через торрент бесплатно! Внесите свою лепту в развитие PiratBit!

Комментировать посты могут только пользователи прошедшие не сложную регистрацию

Перестрелка через торрент Скачать бесплатно Перестрелка Перестрелка скачать торрент Перестрелка смотреть онлайн Cкачать фильм Перестрелка бесплатно Перестрелка скачать торрент в хорошем качестве Перестрелка смотреть онлайн бесплатно в хорошем качестве

Вы не можете начинать темыВы не можете отвечать на сообщенияВы не можете редактировать свои сообщенияВы не можете удалять свои сообщенияВы не можете голосовать в опросахВы не можете прикреплять файлы к сообщениямВы можете скачивать файлы

piratbit.ru

Скачать фильм Перестрелка через торрент в хорошем качестве бесплатно BDRip-AVC

ОбщееУникальный идентификатор : 234259765467755794854416263408773190289 (0xB03CCA2A4CD2D68B8B57150E93C35291)Полное имя : D:Free.Fire.2016.BDRip(AVC).OlLanDGroup.mkvФормат : MatroskaВерсия формата : Version 2Размер файла : 1,75 ГбайтПродолжительность : 1 ч. 30 м.Общий поток : 2764 Кбит/секНазвание фильма : Free.Fire.2016 #TorpedoUK#Дата кодирования : UTC 2017-07-10 13:31:56Программа кодирования : mkvmerge v7.8.0 ('River Man') 32bit built on Apr 3 2015 12:11:22Библиотека кодирования : libebml v1.3.1 + libmatroska v1.4.2

ВидеоИдентификатор : 1Формат : AVCФормат/Информация : Advanced Video CodecПрофиль формата : [email protected]Параметр CABAC формата : ДаПараметр ReFrames формата : 10 кадровИдентификатор кодека : V_MPEG4/ISO/AVCПродолжительность : 1 ч. 30 м.Битрейт : 1930 Кбит/секШирина : 1024 пикселяВысота : 428 пикселейСоотношение сторон : 2,40:1Режим частоты кадров : ПостоянныйЧастота кадров : 23,976 (24000/1001) кадра/секЦветовое пространство : YUVСубдискретизация насыщенности : 4:2:0Битовая глубина : 8 битТип развёртки : ПрогрессивнаяБит/(Пиксели*Кадры) : 0.184Размер потока : 1,19 Гбайт (68%)Библиотека кодирования : x264 core 146 r2538 121396cНастройки программы : cabac=1 / ref=10 / deblock=1:-3:-3 / analyse=0x3:0x133 / me=umh / subme=11 / psy=1 / psy_rd=1.00:0.07 / mixed_ref=1 / me_range=48 / chroma_me=1 / trellis=2 / 8x8dct=1 / cqm=0 / deadzone=21,11 / fast_pskip=0 / chroma_qp_offset=-3 / threads=6 / lookahead_threads=1 / sliced_threads=0 / nr=0 / decimate=0 / interlaced=0 / bluray_compat=0 / constrained_intra=0 / bframes=10 / b_pyramid=2 / b_adapt=2 / b_bias=0 / direct=3 / weightb=1 / open_gop=0 / weightp=2 / keyint=240 / keyint_min=23 / scenecut=40 / intra_refresh=0 / rc_lookahead=40 / rc=2pass / mbtree=0 / bitrate=1930 / ratetol=1.0 / qcomp=0.60 / qpmin=0 / qpmax=69 / qpstep=4 / cplxblur=20.0 / qblur=0.5 / vbv_maxrate=50000 / vbv_bufsize=62500 / nal_hrd=none / filler=0 / ip_ratio=1.40 / pb_ratio=1.30 / aq=1:1.00Язык : EnglishDefault : ДаForced : Нет

Аудио #1Идентификатор : 2Формат : AC-3Формат/Информация : Audio Coding 3Расширение режима : CM (complete main)Параметр Endianness формата : BigИдентификатор кодека : A_AC3Продолжительность : 1 ч. 30 м.Вид битрейта : ПостоянныйБитрейт : 384 Кбит/секКаналы : 6 каналовРасположение каналов : Front: L C R, Side: L R, LFEЧастота : 48,0 КГцЧастота кадров : 31,250 кадров/сек (1536 spf)Битовая глубина : 16 битМетод сжатия : С потерямиРазмер потока : 249 Мбайт (14%)Заголовок : iTunesЯзык : RussianDefault : ДаForced : НетStatistics Tags Issue : mkvmerge v13.0.0 ('The Juggler') 64bit 2017-07-09 23:27:57 / mkvmerge v7.8.0 ('River Man') 32bit built on Apr 3 2015 12:11:22 2017-07-10 13:31:56FromStats_BitRate : 384000FromStats_Duration : 01:30:28.480000000FromStats_FrameCount : 169640FromStats_StreamSize : 260567040

Аудио #2Идентификатор : 3Формат : AC-3Формат/Информация : Audio Coding 3Расширение режима : CM (complete main)Параметр Endianness формата : BigИдентификатор кодека : A_AC3Продолжительность : 1 ч. 30 м.Вид битрейта : ПостоянныйБитрейт : 448 Кбит/секКаналы : 6 каналовРасположение каналов : Front: L C R, Side: L R, LFEЧастота : 48,0 КГцЧастота кадров : 31,250 кадров/сек (1536 spf)Битовая глубина : 16 битМетод сжатия : С потерямиРазмер потока : 290 Мбайт (16%)Заголовок : OriginalЯзык : EnglishDefault : НетForced : Нет

ТекстИдентификатор : 4Формат : UTF-8Идентификатор кодека : S_TEXT/UTF8Идентификатор кодека/Информация : UTF-8 Plain TextЗаголовок : SDH (Colored)Язык : EnglishDefault : НетForced : НетStatistics Tags Issue : mkvmerge v13.0.0 ('The Juggler') 64bit 2017-07-09 23:27:57 / mkvmerge v7.8.0 ('River Man') 32bit built on Apr 3 2015 12:11:22 2017-07-10 13:31:56FromStats_BitRate : 110FromStats_Duration : 01:25:09.000000000FromStats_FrameCount : 1463FromStats_StreamSize : 70277

Меню00:00:00.000 : en:Chapter 100:07:31.368 : en:Chapter 200:09:32.655 : en:Chapter 300:15:12.036 : en:Chapter 400:20:35.693 : en:Chapter 500:27:40.867 : en:Chapter 600:32:48.300 : en:Chapter 700:37:54.022 : en:Chapter 800:43:09.795 : en:Chapter 900:48:48.008 : en:Chapter 1000:54:27.639 : en:Chapter 1100:59:18.096 : en:Chapter 1201:05:36.432 : en:Chapter 1301:09:08.102 : en:Chapter 1401:15:16.887 : en:Chapter 1501:22:35.117 : en:Chapter 16

piratbit.ru

Скачать фильм Перестрелка через торрент в хорошем качестве бесплатно 1080p

Размер: 3.47 GB | Добавлен: 4 мес. 22 д. назад | Торрент скачан:102 раза
Реклама Дарим 3000 рублей за регистрацию, не упусти свой шанс получить шикарный бонус!!!

03-06-2017 17:05 Перестрелка Скачать торрент  

Перестрелка / Free Fire Год выхода: 2016Жанр: боевик, триллер, криминалВыпущено: Великобритания, Франция / Film4, Protagonist Pictures, Rook FilmsПродолжительность: 01:31:12Перевод: Дубляж [Line]

Режиссер: Бен Уитли

В ролях: Энцо Чиленти, Сэм Райли, Майкл Смайли, Бри Ларсон, Киллиан Мёрфи, Арми Хаммер, Шарлто Копли, Бабу Сизей, Ноа Тейлор, Джек Рейнор

О фильме: Когда подпольная сделка по продаже оружия феерически летит под откос, целый склад превращается в масштабное поле битвы. Слова закончились, и заговорили стволы. Приз в игре на выживание — кейс с большой суммой денег, но унести его не так просто. Здесь вооружены все, каждый сам за себя, а хаос правит бал.

Качество: WEB-DL 1080pФормат: MKVВидео: AVC, 1912x800, 24 fps,~5061 kbps avgАудио: 48 kHz, AC3 Dolby Digital, 2/0 (L,R) ch, ~384.00 kbps avg

Скачать Перестрелка через торрент http://i95.fastpic.ru/big/2017/0523/84/d0b20c90b557051dc70209769dec8484.jpg Скачать фильм Перестрелка через торрент бесплантно в хорошем качестве О фильме: Когда подпольная сделка по продаже оружия феерически летит под откос, целый склад превращается в масштабное поле битвы. Слова ... 2017-06-03 17:05 9.2 10 6

Loading...

Loading...

% Раздел Тема Автор DL S | L
Фильмы без перевода [ 16.59 GB ] Перестрелка / Free Fire [2016 BDRemux] [Оригинал-ENG] smaster Скачать
Фильмы 2016 [DVDrip, WEB-DLRip, HDrip] (DUB, MVO) [ 1.42 GB ] Перестрелка / Free Fire [2016 BDRip] - Twi7ter Скачать
Фильмы (Blu-ray, BD-Remux, HDDVD) [ 16.8 GB ] Перестрелка / Free Fire [2016 BD Remux 1080p] bober100 Скачать
Фильмы 2016 [DVDrip, WEB-DLRip, HDrip] (DUB, MVO) [ 1.75 GB ] Перестрелка / Free Fire [2016 BDRip-AVC] bober100 Скачать
Фильмы [HD 720p, 1080p] (Хороший звук DUB, MVO) [ 7.22 GB ] Перестрелка / Free Fire [2016 BDRip 1080p] bober100 Скачать
Фильмы [HD 720p, 1080p] (Хороший звук DUB, MVO) [ 3.78 GB ] Перестрелка / Free Fire [2016 BDRip 720p] bober100 Скачать
Фильмы 2016 [DVDrip, WEB-DLRip, HDrip] (DUB, MVO) [ 742 MB ] Перестрелка / Free Fire [2016 WEB-DLRip-AVC] bober100 Скачать

Рекламный пират

03-07-2017 20:19 Перестрелка Скачать торрент  

Дорогой пользователь! Огромная просьба, поблагодарите релизера, оцените раздачу и оставьте свои комментарий, если Вы скачали Перестрелка через торрент бесплатно! Внесите свою лепту в развитие PiratBit!

Комментировать посты могут только пользователи прошедшие не сложную регистрацию

Перестрелка через торрент Скачать бесплатно Перестрелка Перестрелка скачать торрент Перестрелка смотреть онлайн Cкачать фильм Перестрелка бесплатно Перестрелка скачать торрент в хорошем качестве Перестрелка смотреть онлайн бесплатно в хорошем качестве

Вы можете начинать темыВы можете отвечать на сообщенияВы не можете редактировать свои сообщенияВы не можете удалять свои сообщенияВы не можете голосовать в опросахВы не можете прикреплять файлы к сообщениямВы можете скачивать файлы

piratbit.ru

Скачать фильм Перестрелка через торрент в хорошем качестве бесплатно 1080p

GeneralUnique ID : 245981394218944461656851654997883655553 (0xB90E4B14FA3242A29E3BEBABEA6A9581)Complete name : E:\Free.Fire.2017.WEB-DL.1080p.ExKinoRay.mkvFormat : MatroskaFormat version : Version 4 / Version 2File size : 3.36 GiBDuration : 1 h 30 minOverall bit rate : 5 321 kb/sEncoded date : UTC 2017-07-03 19:15:15Writing application : mkvmerge v13.0.0 ('The Juggler') 64bitWriting library : libebml v1.3.4 + libmatroska v1.4.5

VideoID : 1Format : AVCFormat/Info : Advanced Video CodecFormat profile : [email protected] settings, CABAC : YesFormat settings, ReFrames : 5 framesCodec ID : V_MPEG4/ISO/AVCDuration : 1 h 30 minBit rate : 4 447 kb/sWidth : 1 912 pixelsHeight : 800 pixelsDisplay aspect ratio : 2.40:1Frame rate mode : ConstantFrame rate : 24.000 FPSColor space : YUVChroma subsampling : 4:2:0Bit depth : 8 bitsScan type : ProgressiveBits/(Pixel*Frame) : 0.121Stream size : 2.80 GiB (84%)Language : EnglishDefault : YesForced : NoColor range : LimitedColor primaries : BT.709Transfer characteristics : BT.709Matrix coefficients : BT.709

Audio #1ID : 2Format : AC-3Format/Info : Audio Coding 3Mode extension : CM (complete main)Format settings, Endianness : BigCodec ID : A_AC3Duration : 1 h 30 minBit rate mode : ConstantBit rate : 384 kb/sChannel(s) : 6 channelsChannel positions : Front: L C R, Side: L R, LFESampling rate : 48.0 kHzFrame rate : 31.250 FPS (1536 spf)Compression mode : LossyStream size : 248 MiB (7%)Language : RussianDefault : YesForced : No

Audio #2ID : 3Format : AC-3Format/Info : Audio Coding 3Mode extension : CM (complete main)Format settings, Endianness : BigCodec ID : A_AC3Duration : 1 h 30 minBit rate mode : ConstantBit rate : 384 kb/sChannel(s) : 6 channelsChannel positions : Front: L C R, Side: L R, LFESampling rate : 48.0 kHzFrame rate : 31.250 FPS (1536 spf)Compression mode : LossyStream size : 248 MiB (7%)Language : EnglishDefault : NoForced : No

Menu00:00:00.000 : en:100:01:30.000 : en:200:15:09.000 : en:300:27:44.000 : en:400:38:02.000 : en:500:46:41.000 : en:600:57:37.000 : en:701:11:04.000 : en:801:24:31.000 : en:9

piratbit.ru


Смотрите также