Скачать фильм через торрент бесплатно в хорошем качестве перевозчик 3


Скачать фильм Перевозчик 3 через торрент в хорошем качестве бесплатно 720p

ОбщееУникальный идентификатор : 197546653549622040075700227622563253715 (0x949E19FF14A119148A81C000DA188DD3)Полное имя : E:Перевозчик 3.2008.BDRip.720p.h364.Rus.Eng.mkvФормат : MatroskaВерсия формата : Version 1Размер файла : 6,56 ГбайтПродолжительность : 1 ч. 44 м.Общий поток : 9023 Кбит/секДата кодирования : UTC 2009-03-08 19:22:36Программа кодирования : mkvmerge v2.4.2 ('Oh My God') built on Jan 18 2009 17:30:28Библиотека кодирования : libebml v0.7.7 + libmatroska v0.8.1

ВидеоИдентификатор : 1Формат : AVCФормат/Информация : Advanced Video CodecПрофиль формата : [email protected]Параметр CABAC формата : ДаПараметр ReFrames формата : 12 кадровИдентификатор кодека : V_MPEG4/ISO/AVCПродолжительность : 1 ч. 44 м.Битрейт : 6765 Кбит/секШирина : 1280 пикселейВысота : 544 пикселяСоотношение сторон : 2,35:1Режим частоты кадров : ПостоянныйЧастота кадров : 23,976 кадра/секЦветовое пространство : YUVСубдискретизация насыщенности : 4:2:0Битовая глубина : 8 битТип развёртки : ПрогрессивнаяБит/(Пиксели*Кадры) : 0.405Размер потока : 4,78 Гбайт (73%)Библиотека кодирования : x264 core 67 r1120M 8544346Настройки программы : cabac=1 / ref=12 / deblock=1:-3:-3 / analyse=0x3:0x113 / me=umh / subme=9 / psy_rd=1.0:0.0 / mixed_ref=1 / me_range=32 / chroma_me=1 / trellis=0 / 8x8dct=1 / cqm=2 / deadzone=6,4 / chroma_qp_offset=-2 / threads=6 / nr=0 / decimate=0 / mbaff=0 / bframes=3 / b_pyramid=1 / b_adapt=2 / b_bias=0 / direct=3 / wpredb=1 / keyint=240 / keyint_min=24 / scenecut=40 / rc=2pass / bitrate=6765 / ratetol=1.0 / qcomp=0.60 / qpmin=10 / qpmax=51 / qpstep=4 / cplxblur=20.0 / qblur=0.5 / ip_ratio=1.40 / pb_ratio=1.30 / aq=1:1.00Язык : EnglishDefault : ДаForced : Нет

Аудио #1Идентификатор : 2Формат : DTSФормат/Информация : Digital Theater SystemsРежим : 16Параметр Endianness формата : BigИдентификатор кодека : A_DTSПродолжительность : 1 ч. 44 м.Вид битрейта : ПостоянныйБитрейт : 755 Кбит/секКаналы : 6 каналовРасположение каналов : Front: L C R, Side: L R, LFEЧастота : 48,0 КГцБитовая глубина : 24 битМетод сжатия : С потерямиРазмер потока : 562 Мбайт (8%)Заголовок : DTS 5.1 768 kbpsЯзык : RussianDefault : ДаForced : Нет

Аудио #2Идентификатор : 3Формат : DTSФормат/Информация : Digital Theater SystemsРежим : 16Параметр Endianness формата : BigИдентификатор кодека : A_DTSПродолжительность : 1 ч. 44 м.Вид битрейта : ПостоянныйБитрейт : 1509 Кбит/секКаналы : 6 каналовРасположение каналов : Front: L C R, Side: L R, LFEЧастота : 48,0 КГцБитовая глубина : 24 битМетод сжатия : С потерямиРазмер потока : 1,10 Гбайт (17%)Заголовок : DTS 5.1 1536 kbpsЯзык : EnglishDefault : НетForced : Нет

Текст #1Идентификатор : 4Формат : UTF-8Идентификатор кодека : S_TEXT/UTF8Идентификатор кодека/Информация : UTF-8 Plain TextЯзык : RussianDefault : НетForced : Нет

Текст #2Идентификатор : 5Формат : UTF-8Идентификатор кодека : S_TEXT/UTF8Идентификатор кодека/Информация : UTF-8 Plain TextЯзык : EnglishDefault : НетForced : Нет

piratbit.ru

Перевозчик 123 / Transporter 123 [2002 2005 2008 BDRip] DUB скачать через торрент

Размер: 4.36 GB | Добавлен: 7 лет 2 мес. назад | Торрент скачан:1722 раза
Реклама Дарим 3000 рублей за регистрацию, не упусти свой шанс получить шикарный бонус!!!

22-08-2010 23:46 Перевозчик 1,2,3 Скачать торрент  

Перевозчик / The Transporter Год выпуска: 2002Страна: СШАЖанр: Боевик, ТриллерПродолжительность: 01:32:26Перевод: Профессиональный (полное дублирование)Русские субтитры: нетРежиссер: Кори Йюен /Cory YuenВ ролях: Джейсон Стэтхэм /Jaston Statham/, Шу Ки /Shu Qi/, Франсуа Берлинд /Francois Berleand/, Мэтт Шульц /Matt Schulze/, Даг Рэнд /Doug Rand/, Джедд Тэн /Jedd Tan/, Рик Янг /Rick Young/Описание: Зарабатывающий на жизнь перевозкой грузов, бывший спецназовец Фрэнк Мартин выработал для себя свод незыблемых правил: никогда не нарушать условий сделки, никогда не спрашивать имен, никогда не заглядывать в багаж. Но во время выполнения очередной миссии, увесистая сумка, которую он вез американцу по прозвищу Уолл-стрит, начинает шевелиться. Нарушив правило №3, Фрэнк обнаруживает внутри девушку, навлекая на себя крупные неприятности.IMDB: 6.6/10Качество: BDRip [Blu-Ray.Remux.1080]Формат: AVIВидео кодек: XviDАудио кодек: AC3Видео: 720x304 (2.37:1), 23.976 fps, XviD MPEG-4 ~1857 kbps avg, 0.35 bit/pixelАудио: 48 kHz, AC3 Dolby Digital, 3/2 (L,C,R,l,r) + LFE ch, ~384.00 kbps avghttp://multi-up.com/94509Перевозчик 2 / Transporter 2 Год выпуска: 2005Страна: СШАЖанр: Боевик, ТриллерПродолжительность: 01:27:38Перевод: Профессиональный (полное дублирование)Русские субтитры: нетРежиссер: Луи ЛетерьеВ ролях: Джейсон Стетем /Jason Statham/, Эмбер Валлетта /Amber Valletta/, Хантер Клари /Hunter Clary/, Джефф Чейз /Jeff Chase/, Франсуа Берлеан /François Berléand/, Кит Дэвид /Keith David/Описание: Завязав с опасными перевозками, Фрэнк Мартин, известный также как Перевозчик, теперь живет в Майами, работает шофером в богатой семье и старается не ввязываться в неприятности. Но когда детей его хозяина похищают, ему приходится воскресить в памяти былые навыки и приложить все усилия, чтобы вернуть ребят...IMDB: 6.1/10Качество: BDRip [Blu-Ray.Remux.1080]Формат: AVIВидео кодек: XviDАудио кодек: AC3Видео: 720x304 (2.37:1), 23.976 fps, XviD MPEG-4 ~1979 kbps avg, 0.38 bit/pixelАудио: 48 kHz, AC3 Dolby Digital, 3/2 (L,C,R,l,r) + LFE ch, ~384.00 kbps avghttp://multi-up.com/96039Перевозчик 3 / Transporter 3 Год выпуска: 2008Страна: ФранцияЖанр: боевик, триллер, приключения, криминалПродолжительность: 01:43:58Перевод: Профессиональный (полное дублирование)Русские субтитры: нетРежиссер: Оливье Мегатон /Olivier MegatonВ ролях: Джейсон Стэтхэм, Наталья Рудакова, Франсуа Берлеан, Роберт Нэппер, Ерун Краббе, Алекс Коболд, Дэвид Атракчи, Ян Сандберг, Эрик Эбони, Дэвид КамменосОписание: После своих последних приключений в Майами, Фрэнк Мартин решил поменять работу «перевозчика» на спокойную и уединенную жизнь во французской Ривьере. Но его планам не суждено было сбыться, когда к нему обратился бывший солдат из отряда «Дельта» Йонас Джонсон. Он рассказал, что по заказу корпорации «Ecocorp», занимающейся переработкой и утилизацией отходов, похищена Валентина — дочь украинского министра по охране окружающей среды Леонида Фазилева — чтобы путем вымогательства получить официальное разрешение для утилизации ядовитых отходов в Украине.

Теперь задача героя — доставить Валентину через Европу в Одессу. Чтобы обеспечить выполнение задания, Джонсон одевает Фрэнку и Валентине электронные браслеты, которые могут взорваться, если их обладатели удаляются на 20 метров от автомобиля. Выполняя это задание, главному герою придется столкнуться с новыми опасностями, которые связаны не только с его заказом…IMDB: 5.9/10

Качество: BDRipФормат: AVIВидео кодек: XviDАудио кодек: AC3Видео: 720x304 (2.37:1), 23.976 fps, XviD MPEG-4 ~1608 kbps avg, 0.31 bit/pixelАудио: 48 kHz, AC3 Dolby Digital, 3/2 (L,C,R,l,r) + LFE ch, ~384.00 kbps avghttp://multi-up.com/96046 Скачать Перевозчик 1,2,3 через торрент http://s61.radikal.ru/i172/0905/e0/9c15513162b3.jpg Скачать фильм Перевозчик 1,2,3 через торрент бесплантно в хорошем качестве Описание: Зарабатывающий на жизнь перевозкой грузов, бывший спецназовец Фрэнк Мартин выработал для себя свод незыблемых правил: никогда не ... 2010-08-22 23:46 9.4 10 14

Loading...

Loading...

Рекламный пират

22-08-2010 23:57 Перевозчик 1,2,3 Скачать торрент  

супер) качаем :)

23-08-2010 06:37 Перевозчик 1,2,3 Скачать торрент  

Понравилась только 1 часть остальные так УГ)

23-08-2010 07:48 Перевозчик 1,2,3 Скачать торрент  

видел все три части... фильм просто супер

23-08-2010 09:48 Перевозчик 1,2,3 Скачать торрент  

мне дк все понравились, не могу выделить какую то одну... спасибо.

19-03-2011 16:50 Перевозчик 1,2,3 Скачать торрент  

огромное спасибо

11-11-2011 19:54 Перевозчик 1,2,3 Скачать торрент  

спасибо раздающим!!!!!!!!!!!!! :up:

10-12-2011 22:24 Перевозчик 1,2,3 Скачать торрент  

Встаньте на раздачу :(

Дорогой пользователь! Огромная просьба, поблагодарите релизера, оцените раздачу и оставьте свои комментарий, если Вы скачали Перевозчик 1,2,3 через торрент бесплатно! Внесите свою лепту в развитие PiratBit!

Комментировать посты могут только пользователи прошедшие не сложную регистрацию

Перевозчик 1,2,3 через торрент Скачать бесплатно Перевозчик 1,2,3 Перевозчик 1,2,3 скачать торрент Перевозчик 1,2,3 смотреть онлайн Cкачать фильм Перевозчик 1,2,3 бесплатно Перевозчик 1,2,3 скачать торрент в хорошем качестве Перевозчик 1,2,3 смотреть онлайн бесплатно в хорошем качестве

Вы не можете начинать темыВы не можете отвечать на сообщенияВы не можете редактировать свои сообщенияВы не можете удалять свои сообщенияВы не можете голосовать в опросахВы не можете прикреплять файлы к сообщениямВы можете скачивать файлы

piratbit.ru

Наследие через торрент в хорошем качестве бесплатно 1080p

GeneralUnique ID : 211291849996046792192346056018687741938 (0x9EF55480DBF86C75908B6F19AA44CFF2)Complete name : D:\Торенты\The Transporter_Refueled.2015.BDRip.1080p.mkvFormat : MatroskaFormat version : Version 2File size : 7.75 GiBDuration : 1h 32mnOverall bit rate : 12.0 MbpsMovie name : -=WALLEDOL=-Encoded date : UTC 2015-12-14 14:06:22Writing application : mkvmerge v4.0.0 ('The Stars were mine') сборка от Jun 6 2010 16:18:42Writing library : libebml v1.0.0 + libmatroska v1.0.0

VideoID : 1Format : AVCFormat/Info : Advanced Video CodecFormat profile : [email protected] settings, CABAC : YesFormat settings, ReFrames : 5 framesCodec ID : V_MPEG4/ISO/AVCDuration : 1h 32mnBit rate : 10.8 MbpsWidth : 1 920 pixelsHeight : 804 pixelsDisplay aspect ratio : 2.40:1Frame rate : 25.000 fpsColor space : YUVChroma subsampling : 4:2:0Bit depth : 8 bitsScan type : ProgressiveBits/(Pixel*Frame) : 0.280Stream size : 6.77 GiB (87%)Title : The Transporter_Refueled.2015.BDRip.1080pWriting library : x264 core 148 r2638 7599210Encoding settings : cabac=1 / ref=5 / deblock=1:-3:-3 / analyse=0x3:0x133 / me=umh / subme=10 / psy=1 / psy_rd=1.00:0.10 / mixed_ref=1 / me_range=32 / chroma_me=1 / trellis=2 / 8x8dct=1 / cqm=0 / deadzone=21,11 / fast_pskip=0 / chroma_qp_offset=-3 / threads=6 / lookahead_threads=1 / sliced_threads=0 / nr=0 / decimate=1 / interlaced=0 / bluray_compat=0 / constrained_intra=0 / bframes=8 / b_pyramid=2 / b_adapt=2 / b_bias=0 / direct=3 / weightb=1 / open_gop=0 / weightp=2 / keyint=250 / keyint_min=25 / scenecut=40 / intra_refresh=0 / rc=2pass / mbtree=0 / bitrate=10790 / ratetol=1.0 / qcomp=0.60 / qpmin=0 / qpmax=69 / qpstep=4 / cplxblur=20.0 / qblur=0.5 / ip_ratio=1.40 / pb_ratio=1.30 / aq=1:0.70Language : EnglishDefault : NoForced : No

Audio #1ID : 2Format : AC-3Format/Info : Audio Coding 3Mode extension : CM (complete main)Codec ID : A_AC3Duration : 1h 32mnBit rate mode : ConstantBit rate : 640 KbpsChannel(s) : 6 channelsChannel positions : Front: L C R, Side: L R, LFESampling rate : 48.0 KHzBit depth : 16 bitsCompression mode : LossyStream size : 421 MiB (5%)Title : DUBLanguage : RussianDefault : YesForced : Yes

Audio #2ID : 3Format : AC-3Format/Info : Audio Coding 3Mode extension : CM (complete main)Codec ID : A_AC3Duration : 1h 32mnBit rate mode : ConstantBit rate : 640 KbpsChannel(s) : 6 channelsChannel positions : Front: L C R, Side: L R, LFESampling rate : 48.0 KHzBit depth : 16 bitsCompression mode : LossyStream size : 421 MiB (5%)Language : EnglishDefault : NoForced : No

Text #1ID : 4Format : UTF-8Codec ID : S_TEXT/UTF8Codec ID/Info : UTF-8 Plain TextTitle : ForcedLanguage : EnglishDefault : NoForced : No

Text #2ID : 5Format : UTF-8Codec ID : S_TEXT/UTF8Codec ID/Info : UTF-8 Plain TextTitle : FullLanguage : EnglishDefault : NoForced : No

Menu00:00:00.000 : en:Chapter 0100:00:19.040 : en:Chapter 0200:08:47.680 : en:Chapter 0300:19:28.240 : en:Chapter 0400:30:35.320 : en:Chapter 0500:46:11.680 : en:Chapter 0600:55:22.840 : en:Chapter 0701:04:45.200 : en:Chapter 0801:23:26.240 : en:Chapter 09

piratbit.ru

Скачать фильм Перевозчик через торрент в хорошем качестве бесплатно BDRip

Раздают: 1 [ 0 KB/s ]
Размер: 1.46 GB | Добавлен: 2 года 8 мес. назад | Торрент скачан:131 раз
Реклама Дарим 3000 рублей за регистрацию, не упусти свой шанс получить шикарный бонус!!!

18-02-2015 10:43 Перевозчик Скачать торрент  

Перевозчик / The Transporter

Год выпуска: 2002Страна: США,-ФранцияЖанр: Боевик, приключения, детективПродолжительность: 01:32:32Перевод: ДубляжСубтитры: нет

Режиссер: Кори Йюен

В ролях: Джейсон Стэтхэм, Даг Рэнд, Ки Шу, Мэтт Шульц, Рик Янг, Франсуа Берлеан, Тонио Десканвей, Венсан Немет, Жан-Мари Пэрис, Одри Хэмм, Лоран Жюмокур, Кристиан Газио

Описание: Фрэнк Мартин - идеальный перевозчик: любое место назначения, любой груз, никаких вопросов. Залог успеха - в неукоснительном соблюдении трех правил: номер один - никогда не менять условий сделки, номер два - никаких имен, номер три - никогда не заглядывать в багаж. Последний груз, похоже, ничем не отличается от всех прочих. Но когда при его доставке, Фрэнк нарушает правила, он вступает на опасный путь, на котором его ждут страшные тайны и смертельные ловушки...

Качество: BDRipФормат: AVIВидео кодек: XviDАудио кодек: AC3Видео: MPEG-4 ,Xvid (720x304), 1870 Кбит/с, 23.976 кадра/секАудио#1: AC3,6 ch,384 kbps (Rus) 48.0 KHz Дубляж

Тип потока: ВидеоДлительность: 01:32:09Кодек: MPEG-4 VisualКодек/профиль: Advanced [email protected]Кодек/ID: XVIDРазмеры изображения: 720 x 304 (2.35:1)Частота кадров: 23.976 fpsРазмер потока: 1.20 GiB (83%)Битрейт: 1 870 KbpsМетод сжатия: LossyБиблиотека кодирования: XviD 1.2.0.dev47 (UTC 2006-11-01)Цветовое пространство: YUVТип развёртки: ProgressiveКолориметрия: 4:2:0Глубина: 8 bits: Тип потока: Звук #1Длительность: 01:32:09.504Кодек: AC-3Кодек/описание: Audio Coding 3Кодек/ID: 2000Частота дискретизации: 48.0 KHzКаналов: 6 channelsБитрейт: 384 KbpsБитрейт/тип: ConstantРазмер потока: 253 MiB (17%)Глубина: 16 bitsМетод сжатия: Lossy

Скачать Перевозчик через торрент http://pic1.pb.wtf/images/9/rilom.jpg Скачать фильм Перевозчик через торрент бесплантно в хорошем качестве Описание: Фрэнк Мартин - идеальный перевозчик: любое место назначения, любой груз, никаких вопросов. Залог успеха - в неукоснительном ... 2015-02-18 10:43 9.8 10 4

Loading...

Loading...

% Раздел Тема Автор DL S | L
Фильмы 2015 [DVDrip, WEB-DLRip, HDrip] [ 2.18 GB ] Перевозчик: Наследие / The Transporter Refueled [2015 BDRip-AVC] [RUS Transfer] DUB potroks Скачать
Фильмы (Blu-ray, BD-Remux, HDDVD) [ 27.56 GB ] Перевозчик / The Transporter [2002 BD Remux ] Бумер Скачать
Фильмы [HD 720p, 1080p] (Хороший звук DUB, MVO) [ 7.75 GB ] Перевозчик: Наследие / The Transporter Refueled [2015 BDRip 1080p - [ / BD CEE] Ворон Скачать
Фильмы (DVD фильмы) [ 5.29 GB ] Перевозчик: Наследие / The Transporter Refueled [2015 DVD9] R5 voovaz Скачать
Фильмы [HD 720p, 1080p] (Хороший звук DUB, MVO) [ 13.45 GB ] Перевозчик: Наследие / The Transporter Refueled [2015 BDRip 1080p] DUB Ворон Скачать
Фильмы 2015 [DVDrip, WEB-DLRip, HDrip] [ 1.46 GB ] Перевозчик: Наследие / The Transporter Refueled [2015 BDRip [] Twi7ter Скачать
Видео для КПК и Смартфонов [ 433 MB ] Перевозчик: Наследие / The Transporter Refueled [2015 HDRip / КПК / ] Ворон Скачать

Рекламный пират

Дорогой пользователь! Огромная просьба, поблагодарите релизера, оцените раздачу и оставьте свои комментарий, если Вы скачали Перевозчик через торрент бесплатно! Внесите свою лепту в развитие PiratBit!

Комментировать посты могут только пользователи прошедшие не сложную регистрацию

Перевозчик через торрент Скачать бесплатно Перевозчик Перевозчик скачать торрент Перевозчик смотреть онлайн Cкачать фильм Перевозчик бесплатно Перевозчик скачать торрент в хорошем качестве Перевозчик смотреть онлайн бесплатно в хорошем качестве

Вы не можете начинать темыВы не можете отвечать на сообщенияВы не можете редактировать свои сообщенияВы не можете удалять свои сообщенияВы не можете голосовать в опросахВы не можете прикреплять файлы к сообщениямВы можете скачивать файлы

piratbit.ru


Смотрите также