Скачать фильм через торрент бесплатно в хорошем качестве поезд в пусан


Скачать торрент Поезд в Пусан / Train to Busan / Busanhaeng (2016) BDRip 720p от ExKinoRay | D, A

Информация о фильмеНазвание: Поезд в ПусанОригинальное название: BusanhaengГод выхода: 2016Жанр: Триллер, драма, ужасыРежиссер: Сан Хо ЁнВ ролях: Ю Гон, Ю Ми Чон (II), Дон Сок Ма, Су Ан Ким, Ый Сон Ким, У Шик Чхве, Со Хи Ан, Хёк Чжин Чан, Ын Гён Сим, Сок Ён Чон, Мён Син Пак, До Им У, Юль Хо Ким

О фильме:Южную Корею охватывает вспышка зомби-вируса. Отец с маленькой дочерью, проводник с беременной женой и многие другие пытаются добраться до города Пусан. Именно там, как говорят, самое безопасное место в стране, где можно найти защиту от заболевания. Люди садятся на скоростной поезд до Пусана. А поскольку в нём же оказываются заражённые, начинается отчаянная борьба за выживание…

Страна: Корея ЮжнаяПродолжительность: 01:58:09Перевод(ы): #1: Дублированный | iTunes #2: Авторский | Михаил Чадов

ФайлКачество: BDRip 720pВидео: MPEG-4 AVC, 1280x694, 7376 Kbit/s, 23.976 fpsЗвук: Аудио #01: 48 kHz, AC3, 5.1, 384 Kbps | Дублированный | iTunes | RUS |Аудио #02: 48 kHz, DTS, 5.1, 1510 Kbps | Авторский | RUS |Аудио #03: 48 kHz, AC3, 5.1, 640 kbps | Оригинал | KOR |Субтитры: Русские (2x), английские

MI

General Unique ID : 186699769309391625777288211316028411681 (0x8C75115059F3858CB6155112FA430F21) Complete name : F:VideoTrain.to.Busan.2016.D.AVO.BDRip.720p.ExKinoRay.mkv Format : Matroska Format version : Version 4 / Version 2 File size : 8.18 GiB Duration : 1 h 58 min Overall bit rate : 9 912 kb/s Encoded date : UTC 2017-04-07 20:08:23 Writing application : mkvmerge v10.0.0 ('To Drown In You') 64bit Writing library : libebml v1.3.4 + libmatroska v1.4.5

Video ID : 1 Format : AVC Format/Info : Advanced Video Codec Format profile : [email protected] Format settings, CABAC : Yes Format settings, ReFrames : 9 frames Codec ID : V_MPEG4/ISO/AVC Duration : 1 h 58 min Bit rate : 7 376 kb/s Width : 1 280 pixels Height : 694 pixels Display aspect ratio : 1.85:1 Frame rate mode : Constant Frame rate : 23.976 FPS Color space : YUV Chroma subsampling : 4:2:0 Bit depth : 8 bits Scan type : Progressive Bits/(Pixel*Frame) : 0.346 Stream size : 6.09 GiB (74%) Writing library : x264 core 142 r2431+42 c69a006 tMod [[email protected] X86_64] Encoding settings : cabac=1 / ref=9 / deblock=1:-3:-3 / analyse=0x3:0x133 / me=umh / subme=11 / psy=1 / fade_compensate=0.00 / psy_rd=1.10:0.15 / mixed_ref=1 / me_range=64 / chroma_me=1 / trellis=2 / 8x8dct=1 / cqm=0 / deadzone=21,11 / fast_pskip=0 / chroma_qp_offset=-1 / threads=12 / lookahead_threads=3 / sliced_threads=0 / nr=0 / decimate=0 / interlaced=0 / bluray_compat=0 / constrained_intra=0 / fgo=0 / bframes=10 / b_pyramid=2 / b_adapt=2 / b_bias=0 / direct=3 / weightb=1 / open_gop=0 / weightp=2 / keyint=250 / keyint_min=23 / scenecut=40 / intra_refresh=0 / rc=crf / mbtree=0 / crf=16.5000 / qcomp=0.70 / qpmin=0:0:0 / qpmax=69:69:69 / qpstep=4 / ip_ratio=1.40 / pb_ratio=1.30 / aq=1:0.85 / aq-sensitivity=10.00 / aq-factor=1.00:1.00:1.00 / aq2=0 / aq3=0 Language : Korean Default : Yes Forced : No Color range : Limited Matrix coefficients : BT.709

Audio #1 ID : 2 Format : AC-3 Format/Info : Audio Coding 3 Format settings, Endianness : Big Codec ID : A_AC3 Duration : 1 h 58 min Bit rate mode : Constant Bit rate : 384 kb/s Channel(s) : 6 channels Channel positions : Front: L C R, Side: L R, LFE Sampling rate : 48.0 kHz Frame rate : 31.250 FPS (1536 spf) Bit depth : 16 bits Compression mode : Lossy Stream size : 324 MiB (4%) Title : iTunes Language : Russian Service kind : Complete Main Default : Yes Forced : No

Audio #2 ID : 3 Format : DTS Format/Info : Digital Theater Systems Mode : 16 Format settings, Endianness : Big Codec ID : A_DTS Duration : 1 h 58 min Bit rate mode : Constant Bit rate : 1 509 kb/s Channel(s) : 6 channels Channel positions : Front: L C R, Side: L R, LFE Sampling rate : 48.0 kHz Frame rate : 93.750 FPS (512 spf) Bit depth : 24 bits Compression mode : Lossy Stream size : 1.25 GiB (15%) Title : AVO [Chadov] Language : Russian Default : No Forced : No

Audio #3 ID : 4 Format : AC-3 Format/Info : Audio Coding 3 Format settings, Endianness : Big Codec ID : A_AC3 Duration : 1 h 58 min Bit rate mode : Constant Bit rate : 640 kb/s Channel(s) : 6 channels Channel positions : Front: L C R, Side: L R, LFE Sampling rate : 48.0 kHz Frame rate : 31.250 FPS (1536 spf) Bit depth : 16 bits Compression mode : Lossy Stream size : 541 MiB (6%) Title : Original Language : Korean Service kind : Complete Main Default : No Forced : No

Text #1 ID : 5 Format : UTF-8 Codec ID : S_TEXT/UTF8 Codec ID/Info : UTF-8 Plain Text Duration : 1 h 51 min Bit rate : 38 b/s Count of elements : 852 Stream size : 31.7 KiB (0%) Title : Full Language : Russian Default : No Forced : No

Text #2 ID : 6 Format : UTF-8 Codec ID : S_TEXT/UTF8 Codec ID/Info : UTF-8 Plain Text Duration : 1 h 53 min Bit rate : 45 b/s Count of elements : 868 Stream size : 37.8 KiB (0%) Title : Full [Chadov] Language : Russian Default : No Forced : No

Text #3 ID : 7 Format : UTF-8 Codec ID : S_TEXT/UTF8 Codec ID/Info : UTF-8 Plain Text Duration : 1 h 53 min Bit rate : 22 b/s Count of elements : 863 Stream size : 18.6 KiB (0%) Title : Full Language : English Default : No Forced : No

Menu 00:00:00.000 : en:00:00:00.000 00:11:02.537 : en:00:11:02.537 00:19:35.216 : en:00:19:35.216 00:29:38.443 : en:00:29:38.443 00:39:13.518 : en:00:39:13.518 00:51:01.850 : en:00:51:01.850 00:59:30.025 : en:00:59:30.025 01:08:15.091 : en:01:08:15.091 01:20:56.060 : en:01:20:56.060 01:29:58.268 : en:01:29:58.268 01:38:03.544 : en:01:38:03.544 01:49:07.583 : en:01:49:07.583

Релиз от: Автор релиза:

mrutor.org

Скачать фильм Поезд в Пусан через торрент в хорошем качестве бесплатно WEBRip

Раздают: 1 [ 0 KB/s ]
Размер: 747 MB | Добавлен: 1 год 1 мес. назад | Торрент скачан:57 раз
Реклама Дарим 3000 рублей за регистрацию, не упусти свой шанс получить шикарный бонус!!!

Поезд в Пусан / Busanhaeng

Год выхода: 2016Страна: Корея Южная Жанр: ужасы, боевик, триллерДлительность: 01:58:00 час.Перевод: Любительское (многоголосное) [Колобок & XDUB DORAMA] Cубтитры: Отсутствуют

Роли озвучивали: den904, DeadSno & Izanami Перевод: Сергея Скворцова

Режиссер: Ён Сан-хо

В ролях: Кон Ю, Ма Дон-сок, Чон Ю-ми, Ким Су-ан, Ким И-сон, Чхве У-щик, Ан Со-хи, Ким Чхан-хван, Чан Хёк-чин, Чон Сок-ён

Описание: Южную Корею охватывает вспышка зомби-вируса. Отец с маленькой дочерью, проводник с беременной женой и многие другие пытаются добраться до города Пусан. Именно там, как говорят, самое безопасное место в стране, где можно найти защиту от заболевания. Люди садятся на скоростной поезд до Пусана. А поскольку в нём же оказываются заражённые, начинается отчаянная борьба за выживание…

Тех.данные

Качество: WEBRip Формат: AVIВидеокодек: XviDАудиокодек: AC3Видео: 720x400 (1.80:1), 29.970 fps, XviD build 64 ~681 kbps avg, 0.08 bit/pixelАудио: 48 kHz, AC3 Dolby Digital, 2/0 (L,R) ch, ~192 kbps

Скачать Поезд в Пусан через торрент http://pic1.pb.wtf/images/10/qny4f.jpg Скачать фильм Поезд в Пусан через торрент бесплантно в хорошем качестве Описание: Южную Корею охватывает вспышка зомби-вируса. Отец с маленькой дочерью, проводник с беременной женой и многие другие пытаются ... 2016-09-13 09:11 10 10 5

Loading...

Loading...

Рекламный пират

Пандемия какая-то.Зомбо-вирус уже поразил мозги корейских режиссёров.Европу,к слову,тоже не обошёл стороной.Недавно выкладывали европейскую зомбо-муть.Жуть.

ржачный фильм )))

Дорогой пользователь! Огромная просьба, поблагодарите релизера, оцените раздачу и оставьте свои комментарий, если Вы скачали Поезд в Пусан через торрент бесплатно! Внесите свою лепту в развитие PiratBit!

Комментировать посты могут только пользователи прошедшие не сложную регистрацию

Поезд в Пусан через торрент Скачать бесплатно Поезд в Пусан Поезд в Пусан скачать торрент Поезд в Пусан смотреть онлайн Cкачать фильм Поезд в Пусан бесплатно Поезд в Пусан скачать торрент в хорошем качестве Поезд в Пусан смотреть онлайн бесплатно в хорошем качестве

Вы можете начинать темыВы можете отвечать на сообщенияВы не можете редактировать свои сообщенияВы не можете удалять свои сообщенияВы не можете голосовать в опросахВы не можете прикреплять файлы к сообщениямВы можете скачивать файлы

piratbit.ru

Скачать торрент Поезд в Пусан / Train to Busan / Busanhaeng (2016) BDRip 720p от ExKinoRay | D, A

Информация о фильмеНазвание: Поезд в ПусанОригинальное название: BusanhaengГод выхода: 2016Жанр: Триллер, драма, ужасыРежиссер: Сан Хо ЁнВ ролях: Ю Гон, Ю Ми Чон (II), Дон Сок Ма, Су Ан Ким, Ый Сон Ким, У Шик Чхве, Со Хи Ан, Хёк Чжин Чан, Ын Гён Сим, Сок Ён Чон, Мён Син Пак, До Им У, Юль Хо Ким

О фильме:Южную Корею охватывает вспышка зомби-вируса. Отец с маленькой дочерью, проводник с беременной женой и многие другие пытаются добраться до города Пусан. Именно там, как говорят, самое безопасное место в стране, где можно найти защиту от заболевания. Люди садятся на скоростной поезд до Пусана. А поскольку в нём же оказываются заражённые, начинается отчаянная борьба за выживание…

Страна: Корея ЮжнаяПродолжительность: 01:58:09Перевод(ы): #1: Дублированный | iTunes #2: Авторский | Михаил Чадов

ФайлКачество: BDRip 720pВидео: MPEG-4 AVC, 1280x694, 7376 Kbit/s, 23.976 fpsЗвук: Аудио #01: 48 kHz, AC3, 5.1, 384 Kbps | Дублированный | iTunes | RUS |Аудио #02: 48 kHz, DTS, 5.1, 1510 Kbps | Авторский | RUS |Аудио #03: 48 kHz, AC3, 5.1, 640 kbps | Оригинал | KOR |Субтитры: Русские (2x), английские

MI

General Unique ID : 186699769309391625777288211316028411681 (0x8C75115059F3858CB6155112FA430F21) Complete name : F:VideoTrain.to.Busan.2016.D.AVO.BDRip.720p.ExKinoRay.mkv Format : Matroska Format version : Version 4 / Version 2 File size : 8.18 GiB Duration : 1 h 58 min Overall bit rate : 9 912 kb/s Encoded date : UTC 2017-04-07 20:08:23 Writing application : mkvmerge v10.0.0 ('To Drown In You') 64bit Writing library : libebml v1.3.4 + libmatroska v1.4.5

Video ID : 1 Format : AVC Format/Info : Advanced Video Codec Format profile : [email protected] Format settings, CABAC : Yes Format settings, ReFrames : 9 frames Codec ID : V_MPEG4/ISO/AVC Duration : 1 h 58 min Bit rate : 7 376 kb/s Width : 1 280 pixels Height : 694 pixels Display aspect ratio : 1.85:1 Frame rate mode : Constant Frame rate : 23.976 FPS Color space : YUV Chroma subsampling : 4:2:0 Bit depth : 8 bits Scan type : Progressive Bits/(Pixel*Frame) : 0.346 Stream size : 6.09 GiB (74%) Writing library : x264 core 142 r2431+42 c69a006 tMod [[email protected] X86_64] Encoding settings : cabac=1 / ref=9 / deblock=1:-3:-3 / analyse=0x3:0x133 / me=umh / subme=11 / psy=1 / fade_compensate=0.00 / psy_rd=1.10:0.15 / mixed_ref=1 / me_range=64 / chroma_me=1 / trellis=2 / 8x8dct=1 / cqm=0 / deadzone=21,11 / fast_pskip=0 / chroma_qp_offset=-1 / threads=12 / lookahead_threads=3 / sliced_threads=0 / nr=0 / decimate=0 / interlaced=0 / bluray_compat=0 / constrained_intra=0 / fgo=0 / bframes=10 / b_pyramid=2 / b_adapt=2 / b_bias=0 / direct=3 / weightb=1 / open_gop=0 / weightp=2 / keyint=250 / keyint_min=23 / scenecut=40 / intra_refresh=0 / rc=crf / mbtree=0 / crf=16.5000 / qcomp=0.70 / qpmin=0:0:0 / qpmax=69:69:69 / qpstep=4 / ip_ratio=1.40 / pb_ratio=1.30 / aq=1:0.85 / aq-sensitivity=10.00 / aq-factor=1.00:1.00:1.00 / aq2=0 / aq3=0 Language : Korean Default : Yes Forced : No Color range : Limited Matrix coefficients : BT.709

Audio #1 ID : 2 Format : AC-3 Format/Info : Audio Coding 3 Format settings, Endianness : Big Codec ID : A_AC3 Duration : 1 h 58 min Bit rate mode : Constant Bit rate : 384 kb/s Channel(s) : 6 channels Channel positions : Front: L C R, Side: L R, LFE Sampling rate : 48.0 kHz Frame rate : 31.250 FPS (1536 spf) Bit depth : 16 bits Compression mode : Lossy Stream size : 324 MiB (4%) Title : iTunes Language : Russian Service kind : Complete Main Default : Yes Forced : No

Audio #2 ID : 3 Format : DTS Format/Info : Digital Theater Systems Mode : 16 Format settings, Endianness : Big Codec ID : A_DTS Duration : 1 h 58 min Bit rate mode : Constant Bit rate : 1 509 kb/s Channel(s) : 6 channels Channel positions : Front: L C R, Side: L R, LFE Sampling rate : 48.0 kHz Frame rate : 93.750 FPS (512 spf) Bit depth : 24 bits Compression mode : Lossy Stream size : 1.25 GiB (15%) Title : AVO [Chadov] Language : Russian Default : No Forced : No

Audio #3 ID : 4 Format : AC-3 Format/Info : Audio Coding 3 Format settings, Endianness : Big Codec ID : A_AC3 Duration : 1 h 58 min Bit rate mode : Constant Bit rate : 640 kb/s Channel(s) : 6 channels Channel positions : Front: L C R, Side: L R, LFE Sampling rate : 48.0 kHz Frame rate : 31.250 FPS (1536 spf) Bit depth : 16 bits Compression mode : Lossy Stream size : 541 MiB (6%) Title : Original Language : Korean Service kind : Complete Main Default : No Forced : No

Text #1 ID : 5 Format : UTF-8 Codec ID : S_TEXT/UTF8 Codec ID/Info : UTF-8 Plain Text Duration : 1 h 51 min Bit rate : 38 b/s Count of elements : 852 Stream size : 31.7 KiB (0%) Title : Full Language : Russian Default : No Forced : No

Text #2 ID : 6 Format : UTF-8 Codec ID : S_TEXT/UTF8 Codec ID/Info : UTF-8 Plain Text Duration : 1 h 53 min Bit rate : 45 b/s Count of elements : 868 Stream size : 37.8 KiB (0%) Title : Full [Chadov] Language : Russian Default : No Forced : No

Text #3 ID : 7 Format : UTF-8 Codec ID : S_TEXT/UTF8 Codec ID/Info : UTF-8 Plain Text Duration : 1 h 53 min Bit rate : 22 b/s Count of elements : 863 Stream size : 18.6 KiB (0%) Title : Full Language : English Default : No Forced : No

Menu 00:00:00.000 : en:00:00:00.000 00:11:02.537 : en:00:11:02.537 00:19:35.216 : en:00:19:35.216 00:29:38.443 : en:00:29:38.443 00:39:13.518 : en:00:39:13.518 00:51:01.850 : en:00:51:01.850 00:59:30.025 : en:00:59:30.025 01:08:15.091 : en:01:08:15.091 01:20:56.060 : en:01:20:56.060 01:29:58.268 : en:01:29:58.268 01:38:03.544 : en:01:38:03.544 01:49:07.583 : en:01:49:07.583

Релиз от: Автор релиза:

krutor.org

Скачать фильм Поезд в Пусан через торрент в хорошем качестве бесплатно HDRip

Размер: 1.37 GB | Добавлен: 10 мес. назад | Торрент скачан:440 раз
Реклама Дарим 3000 рублей за регистрацию, не упусти свой шанс получить шикарный бонус!!!

17-12-2016 15:43 Поезд в Пусан Скачать торрент  

Поезд в Пусан / Busanhaeng

Год выпуска: 2016Страна: Корея ЮжнаяЖанр: триллер, ужасы, боевикПродолжительность: 01:57:50Перевод: Профессиональный (полное дублирование) чистый звук | Line Субтитры: отсутствуют

Режиссер: Ён Сан-хо

В ролях:

Кон Ю, Ма Дон-сок, Чон Ю-ми, Ким Су-ан, Ким И-сон, Чхве У-щик, Ан Со-хи, Ким Чхан-хван, Чан Хёк-чин, Чон Сок-ён

Описание:

Из-за загадочных вспышек вируса объявлено чрезвычайное положение. Скоростной поезд-экспресс в Пусан стал временным убежищем для тех, кто смог вырваться из охваченного загадочной эпидемией Сеула. Случайные пассажиры не предполагали, что их билет на этот поезд станет счастливым, но вот надолго ли — добро пожаловать на борт и постарайтесь остаться в живых.

Качество: HDRipФормат: AVIВидео кодек: XviDАудио кодек: AC3Видео: 720x384 (1.88:1), 23.976 fps, XviD build 50 ~1458 kbps, 0.22 bit/pixelАудио#1: 48 kHz, AC3 Dolby Digital, 2/0 (L,R) ch, ~192 kbps

Скачать Поезд в Пусан через торрент http://pic1.pb.wtf/images/11/6lpzi.jpg Скачать фильм Поезд в Пусан через торрент бесплантно в хорошем качестве Описание: Из-за загадочных вспышек вируса объявлено чрезвычайное положение. Скоростной поезд-экспресс в Пусан стал временным убежищем для ... 2016-12-17 15:43 9.6 10 24

Loading...

Loading...

Последний раз редактировалось: bober100 (2016-12-17 19:43), всего редактировалось 1 раз

Рекламный пират

17-12-2016 16:36 Поезд в Пусан Скачать торрент  

Во - блин! Оформитель не запарился имена и фамилии актеров колотить? :) Но думаю что Ён Сан-хо, - посмотреть надо. Больно уж чудно режиссер зовется.

17-12-2016 16:57 Поезд в Пусан Скачать торрент  

Фильм ерунда. Одни одинаковые лица. Всё без единого выстрела. Актёры нулевые. 20 мин просмотра и выкл. Чисто моё мнение)

17-12-2016 17:54 Поезд в Пусан Скачать торрент  

Отличный ответ голливуду ! Спецы все весьма на достойном уровне + нормальный сюжет

17-12-2016 19:21 Поезд в Пусан Скачать торрент  

Фильм классный, стоит посмотреть. А на счет лиц, так мы для "узкоглазых", то же все на одно лицо

17-12-2016 19:29 Поезд в Пусан Скачать торрент  

Жанр: риллер, ужасы, боевик ПОПРАВЬ

17-12-2016 19:44 Поезд в Пусан Скачать торрент  

roma 1976 писал(а):

Жанр: риллер, ужасы, боевик ПОПРАВЬ

Спасибо что заметил!!!

17-12-2016 21:00 Поезд в Пусан Скачать торрент  

18-12-2016 06:04 Поезд в Пусан Скачать торрент  

Режиссер: Ён Сан-хоВ ролях: Ён Сан-хо

Pекламный агент PB

18-12-2016 06:05 Поезд в Пусан Скачать торрент  

Режиссер: Ён Сан-хоВ ролях: Ён Сан-хобудто один и тот же актер играет

18-12-2016 07:02 Поезд в Пусан Скачать торрент  

вот он Режиссер: Ён Сан-хо

18-12-2016 14:15 Поезд в Пусан Скачать торрент  

Тупое кино ,снятое тупыми китайцами .!!! Тупо время потеряешь ! СМОТРЕТЬ НЕ СОВЕТУЮ!!!

Где (пилять) видано такие бешеные зомби ,да ещё никого из зомбарей не грохнули .один полный БРЕД!

В титрах забыли указать ; ни один китаец не пострадал!.

19-12-2016 19:54 Поезд в Пусан Скачать торрент  

Вполне себе не плохо . 3,5 балла . Один раз посмотреть можно .

21-12-2016 05:21 Поезд в Пусан Скачать торрент  

Кон Ю, Ма Дон-сок, Чон Ю-ми, Ким Су-ан, Ким И-сон, Чхве У-щик, Ан Со-хи, Ким Чхан-хван, Чан Хёк-чин, Чон Сок-ён

забыли,сунь-кунь-в-чай,вынь-сам-пей

21-12-2016 06:56 Поезд в Пусан Скачать торрент  

Хороший фильм, любителям зомбми) 7\10

Дорогой пользователь! Огромная просьба, поблагодарите релизера, оцените раздачу и оставьте свои комментарий, если Вы скачали Поезд в Пусан через торрент бесплатно! Внесите свою лепту в развитие PiratBit!

Комментировать посты могут только пользователи прошедшие не сложную регистрацию

Поезд в Пусан через торрент Скачать бесплатно Поезд в Пусан Поезд в Пусан скачать торрент Поезд в Пусан смотреть онлайн Cкачать фильм Поезд в Пусан бесплатно Поезд в Пусан скачать торрент в хорошем качестве Поезд в Пусан смотреть онлайн бесплатно в хорошем качестве

Вы можете начинать темыВы можете отвечать на сообщенияВы не можете редактировать свои сообщенияВы не можете удалять свои сообщенияВы не можете голосовать в опросахВы не можете прикреплять файлы к сообщениямВы можете скачивать файлы

piratbit.ru

Скачать фильм Поезд в Пусан через торрент в хорошем качестве бесплатно HDTVRip

Раздают: 4 [ 0 KB/s ]
Размер: 1.37 GB | Добавлен: 10 мес. назад | Торрент скачан:1861 раз
Реклама Дарим 3000 рублей за регистрацию, не упусти свой шанс получить шикарный бонус!!!

10-12-2016 10:11 Поезд в Пусан Скачать торрент  

Поезд в Пусан / Busanhaeng

Год выпуска: 2016Страна: Корея ЮжнаяЖанр: триллер, ужасы, боевикПродолжительность: 01:58:09Перевод: Профессиональный (полное дублирование) чистый звук | LineСубтитры: отсутствуют

Режиссер: Ён Сан-хо

В ролях:

Кон Ю, Ма Дон-сок, Чон Ю-ми, Ким Су-ан, Ким И-сон, Чхве У-щик, Ан Со-хи, Ким Чхан-хван, Чан Хёк-чин, Чон Сок-ён

Описание:

Из-за загадочных вспышек вируса объявлено чрезвычайное положение. Скоростной поезд-экспресс в Пусан стал временным убежищем для тех, кто смог вырваться из охваченного загадочной эпидемией Сеула. Случайные пассажиры не предполагали, что их билет на этот поезд станет счастливым, но вот надолго ли — добро пожаловать на борт и постарайтесь остаться в живых.

Качество: HDTVRipФормат: AVIВидео кодек: XviDАудио кодек: AC3

Видео: 720x384 (1.88:1), 29.970 fps, XviD build 50 ~1454 kbps, 0.19 bit/pixellАудио#1: 48 kHz, AC3 Dolby Digital, 2/0 (L,R) ch, ~192 kbps

Скачать Поезд в Пусан через торрент http://pic1.pb.wtf/images/11/6lpzi.jpg Скачать фильм Поезд в Пусан через торрент бесплантно в хорошем качестве Описание:Из-за загадочных вспышек вируса объявлено чрезвычайное положение. Скоростной поезд-экспресс в Пусан стал временным убежищем для ... 2016-12-10 10:11 9.2 10 63

Loading...

Loading...

Последний раз редактировалось: bober100 (2016-12-10 12:02), всего редактировалось 5 раз(а)

Рекламный пират

10-12-2016 10:24 Поезд в Пусан Скачать торрент  

Как хоть фильм?

10-12-2016 10:25 Поезд в Пусан Скачать торрент  

zra писал(а):

Как хоть фильм?

читал отзывы говорят не плохой

10-12-2016 10:39 Поезд в Пусан Скачать торрент  

bober100 писал(а):

zra писал(а):

Как хоть фильм?

читал отзывы говорят не плохой Да да,я тоже что то такое где то слышал,тебе как?

10-12-2016 10:44 Поезд в Пусан Скачать торрент  

zra, я подожду качества и без казино!

10-12-2016 11:36 Поезд в Пусан Скачать торрент  

Вирус от американцев уже на Корею перекинулся.Пандемия мировая.Скоро и мозги европейских режиссёров поразит.

10-12-2016 14:02 Поезд в Пусан Скачать торрент  

любителям фильмов про зомби понравится

10-12-2016 15:06 Поезд в Пусан Скачать торрент  

10-12-2016 15:52 Поезд в Пусан Скачать торрент  

Че за шум мать его фоновый? Аж вымораживает. Кароче хорошая копия зомбаков из "Война миров Z", приправленная героями и злодеями, перемешанная с соплями и уже бесячим под конец фильма ребенком.

Pекламный агент PB

10-12-2016 18:38 Поезд в Пусан Скачать торрент  

Когда без казино будет?

10-12-2016 19:02 Поезд в Пусан Скачать торрент  

qwertyx писал(а):

Когда без казино будет?

Скоро, очень скоро)

10-12-2016 19:12 Поезд в Пусан Скачать торрент  

Фильм перехвалили. Ожидал чего-то более оригинального. Ну всё-равно посмотрел с интересом.

10-12-2016 20:12 Поезд в Пусан Скачать торрент  

а мне очень понравился...для фанов зомбаков - самое то!!!!

10-12-2016 21:37 Поезд в Пусан Скачать торрент  

11-12-2016 04:09 Поезд в Пусан Скачать торрент  

реально фон какой-то бесячий, как будто на ветре всё время микрофон у них находился, что-то не чистый звук получается.

11-12-2016 17:10 Поезд в Пусан Скачать торрент  

на один раз, любителям зомбарей

11-12-2016 19:40 Поезд в Пусан Скачать торрент  

Нормальный фильм!В стиле Войны Миров Z(зомби такие же)Я думал только америкосы умеют снимать про зомби

Pекламный агент PB

11-12-2016 20:09 Поезд в Пусан Скачать торрент  

отличный фильм ! для любителей зомби , плюс эмоциональная и моральная заправка присутствует ! повеселили коменты про америкосов, это как *о кто то снял фильм про ковбоев не хуже америкосов* ))) ахаах )))

11-12-2016 20:50 Поезд в Пусан Скачать торрент  

Нормальный фильм, в последнее время всё-равно смотреть нечего

12-12-2016 06:19 Поезд в Пусан Скачать торрент  

Отличный фильм. Любителям зомби думаю зайдет)

12-12-2016 21:58 Поезд в Пусан Скачать торрент  

Фильм понравился. Явно более какой то реалистичный что ли.Тольком не ясно что как и от куда,зато отдельный случай о кучке людей очень хорошо снят.Даже некий смысл есть. Не шедевр конечно. Но любителям кинцо про зомби явно понравится.8 гнилых китайцев из 10

13-12-2016 12:49 Поезд в Пусан Скачать торрент  

Отличный динамичный Зомби-экшн! Корейцы меня удивили. И как всегда у них получается выдавить слезу мне и моей жене. спасибо за фильм...

13-12-2016 13:00 Поезд в Пусан Скачать торрент  

SergeyVideoGid,

14-12-2016 19:40 Поезд в Пусан Скачать торрент  

Фильм нормальный, намного лучше америкосовских трешаков. Есть что то от фильма Война миров Z. Любителям понравится.

15-12-2016 15:49 Поезд в Пусан Скачать торрент  

смотреть можно

Pекламный агент PB

Дорогой пользователь! Огромная просьба, поблагодарите релизера, оцените раздачу и оставьте свои комментарий, если Вы скачали Поезд в Пусан через торрент бесплатно! Внесите свою лепту в развитие PiratBit!

Комментировать посты могут только пользователи прошедшие не сложную регистрацию

Поезд в Пусан через торрент Скачать бесплатно Поезд в Пусан Поезд в Пусан скачать торрент Поезд в Пусан смотреть онлайн Cкачать фильм Поезд в Пусан бесплатно Поезд в Пусан скачать торрент в хорошем качестве Поезд в Пусан смотреть онлайн бесплатно в хорошем качестве

Вы можете начинать темыВы можете отвечать на сообщенияВы не можете редактировать свои сообщенияВы не можете удалять свои сообщенияВы не можете голосовать в опросахВы не можете прикреплять файлы к сообщениямВы можете скачивать файлы

piratbit.ru


Смотрите также