Скачать фильм через торрент бесплатно в хорошем качестве синдбад


Скачать торрент Последнее путешествие Синдбада [01-12 из 12] (2007) SATRip-AVC от New-Team бесплатно

Год выпуска: 2007 Страна: Россия Студия: ООО "Студия "Панорама" Жанр: боевик, приключения Продолжительность: 12 серий ~ по 44 мин.

Перевод: не требуется Субтитры: нет Оригинальная аудиодорожка: русский

Режиссер: Егор Абросимов

В ролях: Андрей Смелов, Игорь Иванов, Эдуард Трухменёв, Игорь Челноков, Анатолий Узденский, Алексей Чуев, Александр Стёпин, Ульяна Похлебаева, Роман Рольбин, Галина Чигинская, Денис Портнов, Татьяна Аптикеева, Дмитрий Быковский-Ромашов, Александр Карпухов, Алексей Васильев (II), Олег Алмазов, Татьяна Иванова (III), Яков Кучеревский, Вадим Волков, Евгений Иванов (III), Сергей Фишер, Владимир Артёмов, Дмитрий Мухамадеев, Ольга Долинина, Егор Абросимов, Игорь Николаев (II), Сергей Лысов, Александр Куйкка, Лидия Шабурина, Александр Блок, Михаил Руденко, Алексей Осипов (II), Татьяна Бондаренко (II), Денис Синявский, Азыри Бочоидзе, Вадим Цаллати, Александр Ронис, Андрей Исаев, Габриеле Барткуте...

Описание: В одной из арабских стран при странных обстоятельствах исчезает русская женщина, Елена Озерская, которая работала по контракту в местном госпитале. Родные уже отчаялись разыскать пропавшую, и только ее давний друг и институтский товарищ Баринов еще не потерял надежды. Он нанимает квалифицированного специалиста, имеющего большой опыт решения сложных задач. Этого человека зовут Синдбад. Когда-то он бы вынужден, в силу ряда трагических обстоятельств, покинуть свою родину... Маленький Синдбад пережил страшную трагедию: его родители были зверски убиты на пороге собственного дома. Вынужденный скрываться под разными личинами всю свою жизнь, Синдбад оказывается в Афганистане, где сражается на стороне советских войск. Позже он попадает в Россию, где ему приходится перебиваться случайными заработками, пока заинтересованные лица не разглядели его главный талант: скиталец с арабского Востока обладает удивительным умением находить решение, казалось бы, совершенно безнадежных задач, он может помочь людям, которые попали в беду. Именно для того, чтобы выручить из неприятностей давно пропавшую на чужбине девушку, Синдбад отправляется в свое последнее путешествие - на родину, в Тунис...

Исходник: DVB Качество видео: SATRip-AVC Формат видео: MKV

Видео: 712->760х428 (16:9), 25 fps, h364 ~ 1015 kbps avg, 0.150 bit/pixel Аудио: 48 kHz, Dolby Digital AC3 2.0, 192 kbps

MediaInfo

Общее Полное имя : Poslednee.puteshestvie.Sindbada.2007.SATRip-AVC_[New-team]_by_AVP_Studio4.mkv Формат : Matroska Версия формата : Version 2 Размер файла : 508 Мбайт Продолжительность : 44 м. Общий поток : 1581 Кбит/сек Дата кодирования : UTC 2015-11-09 00:23:04 Программа кодирования : mkvmerge v6.1.0 ('Old Devil') built on Mar 4 2013 09:10:42 Библиотека кодирования : libebml v1.3.0 + libmatroska v1.4.0

Видео Идентификатор : 1 Формат : AVC Формат/Информация : Advanced Video Codec Профиль формата : [email protected] Параметр CABAC формата : Да Параметр ReFrames формата : 10 кадров Идентификатор кодека : V_MPEG4/ISO/AVC Продолжительность : 44 м. Битрейт : 1387 Кбит/сек Ширина : 712 пикселей Высота : 428 пикселей Соотношение сторон : 16:9 Соотношение сторон в оригинале : 16:9 Режим частоты кадров : Постоянный Частота кадров : 25,000 кадров/сек Цветовое пространство : YUV Субдискретизация насыщенности : 4:2:0 Битовая глубина : 8 бит Тип развёртки : Прогрессивная Бит/(Пиксели*Кадры) : 0.182 Размер потока : 436 Мбайт (86%) Библиотека кодирования : x264 core 148 r2597 e86f3a1 Настройки программы : cabac=1 / ref=10 / deblock=1:-2:-1 / analyse=0x3:0x113 / me=umh / subme=10 / psy=1 / psy_rd=1.00:0.00 / mixed_ref=1 / me_range=32 / chroma_me=1 / trellis=2 / 8x8dct=1 / cqm=0 / deadzone=21,11 / fast_pskip=1 / chroma_qp_offset=-2 / threads=6 / lookahead_threads=1 / sliced_threads=0 / nr=0 / decimate=0 / interlaced=0 / bluray_compat=0 / constrained_intra=0 / bframes=8 / b_pyramid=2 / b_adapt=2 / b_bias=0 / direct=3 / weightb=1 / open_gop=0 / weightp=2 / keyint=250 / keyint_min=25 / scenecut=40 / intra_refresh=0 / rc=2pass / mbtree=0 / bitrate=1387 / ratetol=1.0 / qcomp=0.60 / qpmin=0 / qpmax=69 / qpstep=4 / cplxblur=20.0 / qblur=0.5 / ip_ratio=1.40 / pb_ratio=1.30 / aq=1:1.00 Default : Да Forced : Нет

Аудио Идентификатор : 2 Формат : MPEG Audio Версия формата : Version 1 Профиль формата : Layer 2 Идентификатор кодека : A_MPEG/L2 Идентификатор кодека/Подсказка : MP2 Продолжительность : 44 м. Вид битрейта : Постоянный Битрейт : 192 Кбит/сек Каналы : 2 канала Частота : 48,0 КГц Метод сжатия : С потерями Размер потока : 61,7 Мбайт (12%) Default : Да Forced : Нет

m-torrent.org

Золотое путешествие Синдбада 1974 - скачать бесплатно через торрент в хорошем качестве. Без регистрации

Название: Золотое путешествие Синдбада / The Golden Voyage of Sinbad (1973) BDRip от HQCLUB
Качество видео: BDRip (источник: HDCLUB / Blu-Ray Remux / 1080p)
Перевод: профессиональный (многоголосый, закадровый) (Позитив-Мультимедиа) + оригинал (английский)
Формат видео: AVI
Видео: 720x432 (1.67:1), 23.976 fps, XviD build 65 ~2196 kbps avg, 0.29 bit/pixel
Аудио: (MVO.POZITIV) 48 kHz, AC3 Dolby Digital, 3/2 (L,C,R,l,r) + LFE ch, 384.00 kbps avg(ENG) 48 kHz, AC3 Dolby Digital, 3/2 (L,C,R,l,r) + LFE ch, 384.00 kbps avg(DUB.USSR) 48 kHz, AC3 Dolby Digital, 2/0 (L,R) ch, 192.00 kbps avg (отдельно)(DUB.VARUS-VIDEO) 48 kHz, AC3 Dolby Digital, 2/0 (L,R) ch, 192.00 kbps avg (отдельно)(AVO.VOLORASKIY) 48 kHz, AC3 Dolby Digital, 2/0 (L,R) ch, 192.00 kbps avg (отдельно)(AVO.JIVOV) 48 kHz, AC3 Dolby Digital, 3/2 (L,C,R,l,r) + LFE ch, 384.00 kbps avg (отдельно)(AVO.TOVBIN) 48 kHz, AC3 Dolby Digital, 2/0 (L,R) ch, 192.00 kbps avg (отдельно)(UKR.MVO.1.PLUS.1) 48 kHz, AC3 Dolby Digital, 2/0 (L,R) ch, 192.00 kbps avg (отдельно)(UKR.MVO.INTER) 48 kHz, AC3 Dolby Digital, 2/0 (L,R) ch, 192.00 kbps avg (отдельно)
Скачать

Загрузка начнется в течение 5 сек.

2.18 GB

Название: Золотое путешествие Синдбада / The Golden Voyage of Sinbad (1973) BDRemux
Качество видео: BDRemux
Перевод: Дублированный x2, Многоголосый, Авторский x2, Одноголосый
Видео: MPEG-4 AVC/H.264 34889 кбит/с, 1920x1080, 23,976 fps
Аудио: Аудио 1: Русский 48 kHz, AC3, 5.1, 2 канала, 192 kbps |Dub (Киностудия М. Горького)|
Скачать

Загрузка начнется в течение 5 сек.

29.27 GB

Название: Золотое путешествие Синдбада / The Golden Voyage of Sinbad (1973) DVDRip-AVC
Качество видео: DVDRip
Перевод: Профессиональный (полное дублирование, Советский дубляж)[со вставками многоголосного перевода] + Профессиональный (полное дублирование, Варус-Видео) + Профессиональный (многоголосый, закадровый) + Авт
Видео: AVC, 720x464 @ 853x464 (16:9), 1898 kbps, 23.976 fps, 0.237 bpp
Аудио: русский / AC3 / 2.0 / 48 kHz / 192 kbpsрусский / AC3 / 2.0 / 48 kHz / 192 kbpsрусский / AC3 / 2.0 / 48 kHz / 192 kbpsрусский / AC3 / 2.0 / 48 kHz / 192 kbpsанглийский / AC3 / 2.0 / 48 kHz / 192 kbps
Скачать

Загрузка начнется в течение 5 сек.

2.10 GB

Название: Золотое путешествие Синдбада / The Golden Voyage of Sinbad (1974) DVDRip от KINOREAKTOR (Sheikn)
Качество видео: DVDRip
Перевод: Дублированый (Советский дубляж, Варус-Видео) / Профессиональный, многоголосый / Авторский, одноголосый (Юрий Живов)
Видео: XviD 720x400, 1895 Кбит/с
Аудио: ДБ (Советский дубляж) (АС3, 2 ch, 192 Кбит/с) / ДБ (Варус-Видео) (АС3, 2 ch, 192 Кбит/с) / ПМ, АО (Ю. Живов) (АС3, 2 ch, 192 Кбит/с) / Английский (АС3, 2 ch, 192 Кбит/с)
Скачать

Загрузка начнется в течение 5 сек.

2.12 GB

www.kinovit.net

Скачать Странствия Синдбада [все серии] через торрент

Категория: Фильмы 5066 0 Торрент добавлен: 17-04-2015 Рейтинг:

Название: Странствия Синдбада2012 / Приключение, криминал / 1 серия - 45 мин.Страна: РоссияРежиссер: Ким ДружининВ ролях: Андрей Смелов, Яков Кучеревский, Игорь Иванов, Азиз Бейшеналиев, Евгения Игумнова, Олег Гераськин, Максим Брызгалин, Антон Багров, Александр Блок, Владимир Брик, Сергей Лысов, Татьяна Бондаренко, Наталья Калинина, Михаил Левит, Александр Нестеров, Андреа Бартелуччи, Сергей Мардарь, Руслан Нанава, Максим Митяшин

Проходит спустя несколько лет после последней истории с участием Синдбада. Теперь ведет спокойный образ жизни, зарабатывая на пропитание рыболовством. Так все бы и шло, если бы на него не было совершенно покушение, в котором как позже выяснилось был замешан адвокат Раббани, связанный с лидером националистов. Синдбад пытается выяснить каковы планы одного из самых опасных террористов Сиддика-Ходжы.

Странствия Синдбада [все серии] скачать торрент

1-4-йсезонФормат: AVIВидео кодек: XviDАудио кодек: MP3Видео: 704x400, 1549 кб/с Аудио: 2 ch, 48 kHz, 128 kbps 34,50 Gb

скачать

4-йсезонФормат: AVIВидео кодек: XviDАудио кодек: MP3Видео: 704x400, ~1471 кб/с Аудио: 192 кб/с

12,88 Gb

скачать

3-йсезонФормат: AVIВидео кодек: XviDАудио кодек: AC3Видео: 720x400, 25.000 fps, ~1950 Kbps Аудио: 48.0 KHz, 2 ch, 192 Kbps

скачать

2-йсезонФормат: AVIВидео кодек: XviDАудио кодек: AC3Видео: 720x408 (1.76:1), 25 fps, XviD build 64 ~1939 kbps avg, 0.26 bit/pixel Аудио: 48 kHz, AC3 Dolby Digital, 3/2 (L,C,R,l,r) + LFE ch, ~192.00 kbps avg

8,13 Gb

1-йсезон

Формат: AVIВидео кодек: XviDАудио кодек: MP3Видео: 720x416 , 25 fps, XviD ~1335 kbps avg, 0.18 bit/pixel Аудио: 48 kHz, MPEG Layer 3, 2 ch, ~128.00 kbps avg

5,77 Gb

Вы находитесь на странице, где можете совершенно бесплатно скачать фильм Странствия Синдбада [все серии] в хорошем качестве через торрент, в любом формате, который больше всего вам на данный момент подходит. Скачивание осуществляется через торрент, что означает максимально высокую скорость загрузки. Желаем Вам приятного просмотра!. Не забудь поделиться своими впечатлениями после того как посмотришь фильм Странствия Синдбада [все серии].

Информация Посетители, находящиеся в группе Гости, не могут оставлять комментарии к данной публикации.

psp-gu.ru

» . torrent

Vremja.Sindbada/Vremja.Sindbada.18.2013.SATRip.RiperAM.avi 551,45 Mb / (578238464)
Vremja.Sindbada/Vremja.Sindbada.15.2013.SATRip.RiperAM.avi 551,41 Mb / (578193408)
Vremja.Sindbada/Vremja.Sindbada.03.2013.SATRip.RiperAM.avi 550,38 Mb / (577120256)
Vremja.Sindbada/Vremja.Sindbada.14.2013.SATRip.RiperAM.avi 550,33 Mb / (577062912)
Vremja.Sindbada/Vremja.Sindbada.21.2013.SATRip.RiperAM.avi 550,25 Mb / (576974848)
Vremja.Sindbada/Vremja.Sindbada.23.2013.SATRip.RiperAM.avi 550,15 Mb / (576878592)
Vremja.Sindbada/Vremja.Sindbada.20.2013.SATRip.RiperAM.avi 550,04 Mb / (576761856)
Vremja.Sindbada/Vremja.Sindbada.17.2013.SATRip.RiperAM.avi 549,95 Mb / (576667648)
Vremja.Sindbada/Vremja.Sindbada.13.2013.SATRip.RiperAM.avi 549,73 Mb / (576436224)
Vremja.Sindbada/Vremja.Sindbada.24.2013.SATRip.RiperAM.avi 549,72 Mb / (576428032)
Vremja.Sindbada/Vremja.Sindbada.22.2013.SATRip.RiperAM.avi 549,7 Mb / (576405504)
Vremja.Sindbada/Vremja.Sindbada.04.2013.SATRip.RiperAM.avi 549,67 Mb / (576370688)
Vremja.Sindbada/Vremja.Sindbada.05.2013.SATRip.RiperAM.avi 549,59 Mb / (576284672)
Vremja.Sindbada/Vremja.Sindbada.09.2013.SATRip.RiperAM.avi 549,57 Mb / (576262144)
Vremja.Sindbada/Vremja.Sindbada.02.2013.SATRip.RiperAM.avi 549,54 Mb / (576237568)
Vremja.Sindbada/Vremja.Sindbada.12.2013.SATRip.RiperAM.avi 549,5 Mb / (576192512)
Vremja.Sindbada/Vremja.Sindbada.08.2013.SATRip.RiperAM.avi 549,49 Mb / (576178176)
Vremja.Sindbada/Vremja.Sindbada.07.2013.SATRip.RiperAM.avi 549,48 Mb / (576169984)
Vremja.Sindbada/Vremja.Sindbada.06.2013.SATRip.RiperAM.avi 549,37 Mb / (576055296)
Vremja.Sindbada/Vremja.Sindbada.10.2013.SATRip.RiperAM.avi 549,31 Mb / (575997952)
Vremja.Sindbada/Vremja.Sindbada.16.2013.SATRip.RiperAM.avi 549,07 Mb / (575744000)
Vremja.Sindbada/Vremja.Sindbada.19.2013.SATRip.RiperAM.avi 549,03 Mb / (575696896)
Vremja.Sindbada/Vremja.Sindbada.01.2013.SATRip.RiperAM.avi 548,8 Mb / (575455232)
Vremja.Sindbada/Vremja.Sindbada.11.2013.SATRip.RiperAM.avi 547,62 Mb / (574220288)

films-torrent.ru

Скачать фильм Золотое путешествие Синдбада (1973) через торрент

5 июля 2016 06:02 Золотое путешествие Синдбада / The Golden Voyage of Sinbad (1973) BDRip от HQCLUB .torrent   [Информация о файле (нажмите для просмотра)] Перевод: профессиональный (многоголосый, закадровый) (Позитив-Мультимедиа) + оригинал (английский)Субтитры: русские, английские (2 вида)Формат: AVIКачество: BDRip (источник: HDCLUB / Blu-Ray Remux / 1080p)Видео: 720x432 (1.67:1), 23.976 fps, XviD build 65 ~2196 kbps avg, 0.29 bit/pixelАудио #1: (MVO.POZITIV) 48 kHz, AC3 Dolby Digital, 3/2 (L,C,R,l,r) + LFE ch, 384.00 kbps avgАудио #2: (ENG) 48 kHz, AC3 Dolby Digital, 3/2 (L,C,R,l,r) + LFE ch, 384.00 kbps avgАудио #3: (DUB.USSR) 48 kHz, AC3 Dolby Digital, 2/0 (L,R) ch, 192.00 kbps avg (отдельно)Аудио #4: (DUB.VARUS-VIDEO) 48 kHz, AC3 Dolby Digital, 2/0 (L,R) ch, 192.00 kbps avg (отдельно)Аудио #5: (AVO.VOLORASKIY) 48 kHz, AC3 Dolby Digital, 2/0 (L,R) ch, 192.00 kbps avg (отдельно)Аудио #6: (AVO.JIVOV) 48 kHz, AC3 Dolby Digital, 3/2 (L,C,R,l,r) + LFE ch, 384.00 kbps avg (отдельно)Аудио #7: (AVO.TOVBIN) 48 kHz, AC3 Dolby Digital, 2/0 (L,R) ch, 192.00 kbps avg (отдельно)Аудио #8: (UKR.MVO.1.PLUS.1) 48 kHz, AC3 Dolby Digital, 2/0 (L,R) ch, 192.00 kbps avg (отдельно)Аудио #9: (UKR.MVO.INTER) 48 kHz, AC3 Dolby Digital, 2/0 (L,R) ch, 192.00 kbps avg (отдельно) 2,18 Gb 5 4 5 июля 2016 06:02 Золотое путешествие Синдбада / The Golden Voyage of Sinbad (1973) BDRemux .torrent   [Информация о файле (нажмите для просмотра)] Перевод: Дублированный x2, Многоголосый, Авторский x2, ОдноголосыйКодек: MPEG-4 AVC/H.264Качество: BDRemuxВидео: 34889 кбит/с, 1920x1080, 23,976 fpsЗвук: Аудио 1: Русский 48 kHz, AC3, 5.1, 2 канала, 192 kbps |Dub (Киностудия М. Горького)| Аудио 2: Русский 48 kHz, AC3, 5.1, 2 канала, 192 kbps |Dub (Варус- Видео)| Аудио 3: Русский 48 kHz, AC3, 5.1, 2 канала, 192 kbps |Профессиональный многоголосый (Позитив-Мультимедиа)| Аудио 4: Русский 48 kHz, AC3, 5.1, 2 канала, 192 kbps |Авторский одноголосый (Живов)| Аудио 5: Русский 48 kHz, AC3, 5.1, 2 канала, 192 kbps |Авторский одноголосый (Володарский)| Аудио 6: Русский 48 kHz, AC3, 5.1, 2 канала, 192 kbps |Одноголосый (Товбин)| Аудио 7: Английский 48 kHz/24-bit, DTS-HD MA 7.1, ~3872 kbps avg |Original|Субтитры: Русские, Английские Вшитые, отключаемые 29,27 Gb 3 2 5 июля 2016 06:02 Золотое путешествие Синбада / The Golden Voyage of Sinbad (1973) BDRip 1080p от MediaClub | D, P, A .torrent   [Информация о файле (нажмите для просмотра)] Перевод: Профессиональный многоголосый, дублированный, авторскийКачество: BDRip 1080pВидео: MPEG-4 AVC, 15500 Кбит/с, 1792x1080, 23.976 кадр/сАудио #1: Русский (AC3, 2 ch, 192 Кбит/с) / Дублированный (Киностудия М. Горького)Аудио #2: Русский (AC3, 2 ch, 192 Кбит/с) / Дублированный (Варус- Видео)Аудио #3: Русский (AC3, 2 ch, 192 Кбит/с) / Профессиональный многоголосый (Позитив-Мультимедиа)Аудио #4: Русский (AC3, 2 ch, 192 Кбит/с) / Авторский одноголосый (Живов)Аудио #5: Русский (AC3, 2 ch, 192 Кбит/с) / Авторский одноголосый (Володарский)Аудио #6: Русский (AC3, 2 ch, 192 Кбит/с) / Авторский одноголосый (Товбин)Аудио #7: Английский (DTS, 6 ch, 1509 Кбит/с)Субтитры: Русские, английскиеВидео: Идентификатор : 1 Формат : AVC Формат/Информация : Advanced Video Codec Профиль формата : [email protected] Параметр CABAC формата : Да Параметр ReFrames формата : 4 кадра Идентификатор кодека : V_MPEG4/ISO/AVC Продолжительность : 1 ч. 44 м. Битрейт : 15,5 Мбит/сек Ширина : 1792 пикселя Высота : 1080 пикселей Соотношение сторон : 1,659 Режим частоты кадров : Постоянный Частота кадров : 23,976 кадра/сек Цветовое пространство : YUV Субдискретизация насыщенности : 4:2:0 Битовая глубина : 8 бит Тип развёртки : Прогрессивная Бит/(Пиксели*Кадры) : 0.334 Размер потока : 11,1 Гбайт (83%) Заголовок : -=MediaClub-kaspr=- Библиотека кодирования : x264 core 142 r2431+42 c69a006 tMod [[email protected]:2:0 X86_64] Настройки программы : cabac=1 / ref=4 / deblock=1:-3:-3 / analyse=0x3:0x113 / me=umh / subme=11 / psy=1 / fade_compensate=0.00 / psy_rd=1.00:0.20 / mixed_ref=1 / me_range=32 / chroma_me=1 / trellis=2 / 8x8dct=1 / cqm=0 / deadzone=21,11 / fast_pskip=0 / chroma_qp_offset=-3 / threads=12 / lookahead_threads=2 / sliced_threads=0 / nr=0 / decimate=0 / interlaced=0 / bluray_compat=0 / constrained_intra=0 / fgo=0 / bframes=8 / b_pyramid=2 / b_adapt=2 / b_bias=0 / direct=3 / weightb=1 / open_gop=0 / weightp=2 / keyint=240 / keyint_min=23 / scenecut=40 / intra_refresh=0 / rc=2pass / mbtree=0 / bitrate=15500 / ratetol=1.0 / qcomp=0.60 / qpmin=0:0:0 / qpmax=69:69:69 / qpstep=4 / cplxblur=20.0 / qblur=0.5 / ip_ratio=1.40 / pb_ratio=1.30 / aq=4:0.80 / aq-sensitivity=10.00 / aq-factor=1.00:1.00:1.00 / aq2=0 / aq3=0 Default : Да Forced : НетАудио #1: Идентификатор : 2 Формат : AC-3 Формат/Информация : Audio Coding 3 Расширение режима : CM (complete main) Параметр Endianness формата : Big Идентификатор кодека : A_AC3 Продолжительность : 1 ч. 44 м. Вид битрейта : Постоянный Битрейт : 192 Кбит/сек Каналы : 2 канала Расположение каналов : Front: L R Частота : 48,0 КГц Битовая глубина : 16 бит Метод сжатия : С потерями Размер потока : 144 Мбайт (1%) Заголовок : DUB (USSR) Язык : Russian Default : Да Forced : НетАудио #2: Идентификатор : 3 Формат : AC-3 Формат/Информация : Audio Coding 3 Расширение режима : CM (complete main) Параметр Endianness формата : Big Идентификатор кодека : A_AC3 Продолжительность : 1 ч. 44 м. Вид битрейта : Постоянный Битрейт : 192 Кбит/сек Каналы : 2 канала Расположение каналов : Front: L R Частота : 48,0 КГц Битовая глубина : 16 бит Метод сжатия : С потерями Размер потока : 144 Мбайт (1%) Заголовок : Dub (Варус-Видео) Язык : Russian Default : Нет Forced : НетАудио #3: Идентификатор : 4 Формат : AC-3 Формат/Информация : Audio Coding 3 Расширение режима : CM (complete main) Параметр Endianness формата : Big Идентификатор кодека : A_AC3 Продолжительность : 1 ч. 44 м. Вид битрейта : Постоянный Битрейт : 192 Кбит/сек Каналы : 2 канала Расположение каналов : Front: L R Частота : 48,0 КГц Битовая глубина : 16 бит Метод сжатия : С потерями Размер потока : 144 Мбайт (1%) Заголовок : MVO Язык : Russian Default : Нет Forced : НетАудио #4: Идентификатор : 5 Формат : AC-3 Формат/Информация : Audio Coding 3 Расширение режима : CM (complete main) Параметр Endianness формата : Big Идентификатор кодека : A_AC3 Продолжительность : 1 ч. 44 м. Вид битрейта : Постоянный Битрейт : 192 Кбит/сек Каналы : 2 канала Расположение каналов : Front: L R Частота : 48,0 КГц Битовая глубина : 16 бит Метод сжатия : С потерями Размер потока : 144 Мбайт (1%) Заголовок : AVO (Живов) Язык : Russian Default : Нет Forced : НетАудио #5: Идентификатор : 6 Формат : AC-3 Формат/Информация : Audio Coding 3 Расширение режима : CM (complete main) Параметр Endianness формата : Big Идентификатор кодека : A_AC3 Продолжительность : 1 ч. 44 м. Вид битрейта : Постоянный Битрейт : 192 Кбит/сек Каналы : 2 канала Расположение каналов : Front: L R Частота : 48,0 КГц Битовая глубина : 16 бит Метод сжатия : С потерями Размер потока : 144 Мбайт (1%) Заголовок : AVO (Володарский) Язык : Russian Default : Нет Forced : НетАудио #6: Идентификатор : 7 Формат : AC-3 Формат/Информация : Audio Coding 3 Расширение режима : CM (complete main) Параметр Endianness формата : Big Идентификатор кодека : A_AC3 Продолжительность : 1 ч. 44 м. Вид битрейта : Постоянный Битрейт : 192 Кбит/сек Каналы : 2 канала Расположение каналов : Front: L R Частота : 48,0 КГц Битовая глубина : 16 бит Метод сжатия : С потерями Размер потока : 144 Мбайт (1%) Заголовок : AVO (Товбин) Язык : Russian Default : Нет Forced : НетАудио #7: Идентификатор : 8 Формат : DTS Формат/Информация : Digital Theater Systems Режим : 16 Параметр Endianness формата : Big Идентификатор кодека : A_DTS Продолжительность : 1 ч. 44 м. Вид битрейта : Постоянный Битрейт : 1509 Кбит/сек Каналы : 6 каналов Расположение каналов : Front: L C R, Side: L R, LFE Частота : 48,0 КГц Битовая глубина : 24 бит Метод сжатия : С потерями Размер потока : 1,11 Гбайт (8%) Язык : English Default : Нет Forced : Нет 13,32 Gb 3 2 5 июля 2016 06:02 Золотое путешествие Синбада / The Golden Voyage of Sinbad (1973) BDRemux 1080p от MediaClub | D, P, A .torrent   [Информация о файле (нажмите для просмотра)] Перевод: Профессиональный многоголосый, дублированный, авторскийКачество: Blu-ray Remux 1080pВидео: MPEG-4 AVC, 34999 Кбит/с, 1920x1080, 23.976 кадр/сАудио #1: Русский (AC3, 2 ch, 192 Кбит/с) / Дублированный (Киностудия М. Горького)Аудио #2: Русский (AC3, 2 ch, 192 Кбит/с) / Дублированный (Варус- Видео)Аудио #3: Русский (AC3, 2 ch, 192 Кбит/с) / Профессиональный многоголосый (Позитив-Мультимедиа)Аудио #4: Русский (AC3, 2 ch, 192 Кбит/с) / Авторский одноголосый (Живов)Аудио #5: Русский (AC3, 2 ch, 192 Кбит/с) / Авторский одноголосый (Володарский)Аудио #6: Русский (AC3, 2 ch, 192 Кбит/с) / Авторский одноголосый (Товбин)Аудио #7: Английский (DTS-HD MA, 6 ch, 3871 Кбит/с)Субтитры: Русские, английские 31,04 Gb 3 2 5 июля 2016 06:02 Золотое путешествие Синдбада / The Golden Voyage of Sinbad (1973) DVDRip-AVC .torrent   [Информация о файле (нажмите для просмотра)] Перевод: Профессиональный (полное дублирование,Советский дубляж)[со вставками многоголосного перевода] + Профессиональный (полное дублирование, Варус-Видео) + Профессиональный (многоголосый, закадровый) + Авторский (Живов Юрий) + ОригинальныйСубтитры: русские, английские.Качество: DVDRipКонтейнер: MKVВидео: AVC, 720x464 @ 853x464 (16:9), 1898 kbps, 23.976 fps, 0.237 bppАудио №1: русский / AC3 / 2.0 / 48 kHz / 192 kbpsАудио №2: русский / AC3 / 2.0 / 48 kHz / 192 kbpsАудио №3: русский / AC3 / 2.0 / 48 kHz / 192 kbpsАудио №4: русский / AC3 / 2.0 / 48 kHz / 192 kbpsАудио №5: английский / AC3 / 2.0 / 48 kHz / 192 kbps 2,1 Gb 3 3 5 июля 2016 06:02 Золотое путешествие Синдбада / The Golden Voyage Of Sinbad (1974) DVDRip от Flynn82 .torrent   [Информация о файле (нажмите для просмотра)] Перевод: Профессиональный (Многоголосый, закадровый)Субтитры: русские, английские (внешние, srt*)Формат: AVIКачество: DVDRip (DVD-5)Видео: 720x400 (1.80:1), 23.976 fps, XviD build 65 ~1780 kbps avg, 0.26 bit/pixelАудио #1: 48 kHz, AC3 Dolby Digital, 2/0 (L,R) ch, ~192 kbps avg|Russian, Многоголосый|Аудио #2: 48 kHz, AC3 Dolby Digital, 2/0 (L,R) ch, ~192 kbps avg|Russian, СССР| - отдельно на narod.yandex.ruАудио #3: 48 kHz, AC3 Dolby Digital, 2/0 (L,R) ch, ~192 kbps avg|Russian, Варус-Видео| - отдельно на narod.yandex.ruАудио #4: 48 kHz, AC3 Dolby Digital, 2/0 (L,R) ch, ~192 kbps avg|Russian, Ю. Живов| - отдельно на narod.yandex.ruАудио #5: 48 kHz, AC3 Dolby Digital, 2/0 (L,R) ch, ~192 kbps avg|English, Оригинал| - отдельно на narod.yandex.ru 1,45 Gb 4 4 5 июля 2016 06:02 Золотое путешествие Синдбада / The Golden Voyage of Sinbad (1974) DVDRip от KINOREAKTOR (Sheikn) .torrent   [Информация о файле (нажмите для просмотра)] Перевод: Дублированый (Советский дубляж, Варус-Видео) / Профессиональный, многоголосый / Авторский, одноголосый (Юрий Живов)Кодек: XviDКачество: DVDRipВидео: 720x400, 1895 Кбит/сЗвук: ДБ (Советский дубляж) (АС3, 2 ch, 192 Кбит/с) / ДБ (Варус-Видео) (АС3, 2 ch, 192 Кбит/с) / ПМ, АО (Ю. Живов) (АС3, 2 ch, 192 Кбит/с) / Английский (АС3, 2 ch, 192 Кбит/с) 2,12 Gb 3 2 5 июля 2016 06:02 Золотое путешествие Синдбада / The Golden Voyage of Sinbad (1974) DVDRip .torrent   [Информация о файле (нажмите для просмотра)] Перевод: Профессиональный (полное дублирование)Есть отрезки со вставками многоголосного переводаКачество: DVDRipФормат: AVIВидео: XviD; 704x384 (1.83:1), 25 fps, XviD build 50 ~1864 kbps avg, 0.28 bit/pixeАудио: 48 kHz, MPEG Layer 3, 2 ch, ~128.00 kbps avg 1,41 Gb 3 2 5 июля 2016 06:02 Золотое путешествие Синдбада / The Golden Voyage of Sinbad (1974) DVDRip от AndrewWhite .torrent   [Информация о файле (нажмите для просмотра)] Перевод: Профессиональный, многоголосыйКодек: XviDКачество: DVDRipВидео: 720x544 (1.32:1), 23.976 fps, XviD build 50 ~1408 kbps avg, 0.15 bit/pixelЗвук: 48 kHz, AC3 Dolby Digital, 2/0 (L,R) ch, ~448.00 kbps avg 1,37 Gb 4 1 5 июля 2016 06:02 Золотое путешествие Синдбада / The Golden Voyage of Sinbad (1974) DVD5 .torrent   [Информация о файле (нажмите для просмотра)] Перевод: Профессиональный, многоголосыйСубтитры: АнглийскиеФормат: DVD VideoКачество: DVD5Видео: NTSC 4:3 (720x480) VBRАудио: Русский (Dolby AC3, 2 ch, 448 Кбит/с), English (Dolby AC3, 2 ch, 192 Кбит/с) 3,5 Gb 4 3

gig-torrent.net


Смотрите также