Скачать фильм через торрент бесплатно в хорошем качестве спектральный


Скачать фильм Спектральный через торрент в хорошем качестве бесплатно WEBRip

Раздают: 2 [ 0 KB/s ]
Размер: 1.46 GB | Добавлен: 10 мес. назад | Торрент скачан:610 раз
Реклама Дарим 3000 рублей за регистрацию, не упусти свой шанс получить шикарный бонус!!!

11-12-2016 00:30 Спектральный Скачать торрент  

Спектральный / Спектральный анализ / Spectral«A supernatural Close Encounters of the Third Kind»
  • Год выпуска: 2016
  • Страна: США
  • Жанр: фантастика, боевик, триллер
  • Продолжительность: 01:48:17
  • Перевод: Любительский (многоголосый) [@[email protected]]
  • Примечание: Присутствует реклама!
  • Режиссер: Ник Матьё / Nic Mathieu
  • В ролях: Эмили Мортимер (Fran Madison), Клейн Кроуфорд (Sgt. Toll), Макс Мартини (Capt. Sessions), Джеймс Бэдж Дэйл (Clyne), Брюс Гринвуд (General Orland), Райан Роббинс (Sgt. Comstock), Урсула Паркер (Sari), Кори Хардрикт (Alessio), Гонсало Менендес (Captain Marco Cabrera), Луис Одзава Чангчьен (Sgt. Chen), Джимми Экинбола (Sgt. Steve McFadden), Миклош Баньяи (Benson)
  • В Молдавии уже не первый год идёт война. Последнее время в зоне боевых действий стали появляться невидимые невооружённым глазом существа, которые мгновенно убивают вооружённых до зубов обученных профессионалов. Доктор Клайн принимал участие в разработке новейшего оружия, бессильного против этих существ, и теперь ему предстоит выяснить, что они такое и откуда взялись.
  • Рейтинг:
  • Качество: WEBRip
  • Формат: :AVI
  • Видео кодек: XviD
  • Аудио кодек: AC3
  • Видео: 720x304 (2.35:1), 1724 kbps, 23,976 fps, 0,329 bpp
  • Аудио: 2.0 / 48 kHz / 192 kbps GeneralComplete name : G:\Spectral.2016.P.WEB-DLRip.14OOMB.aviFormat : AVIFormat/Info : Audio Video InterleaveFile size : 1.46 GiBDuration : 1 h 48 minOverall bit rate : 1 926 kb/sWriting application : VirtualDubMod 1.5.10.2 (build 2540/release)Writing library : VirtualDubMod build 2540/release

    VideoID : 0Format : MPEG-4 VisualFormat profile : Advanced [email protected] settings, BVOP : 2Format settings, QPel : NoFormat settings, GMC : No warppointsFormat settings, Matrix : CustomCodec ID : XVIDCodec ID/Hint : XviDDuration : 1 h 48 minBit rate : 1 725 kb/sWidth : 720 pixelsHeight : 304 pixelsDisplay aspect ratio : 2.35:1Frame rate : 23.976 (24000/1001) FPSColor space : YUVChroma subsampling : 4:2:0Bit depth : 8 bitsScan type : ProgressiveCompression mode : LossyBits/(Pixel*Frame) : 0.329Stream size : 1.30 GiB (90%)Writing library : XviD 1.2.1 (UTC 2008-12-04)

    AudioID : 1Format : AC-3Format/Info : Audio Coding 3Mode extension : CM (complete main)Format settings, Endianness : BigCodec ID : 2000Duration : 1 h 48 minBit rate mode : ConstantBit rate : 192 kb/sChannel(s) : 2 channelsChannel positions : Front: L RSampling rate : 48.0 kHzFrame rate : 31.250 FPS (1536 spf)Compression mode : LossyStream size : 149 MiB (10%)Alignment : Aligned on interleavesInterleave, duration : 42 ms (1.00 video frame)Interleave, preload duration : 512 ms

    Скриншоты:
  • Скачать Спектральный через торрент http://i85.fastpic.ru/big/2016/1211/14/202448b4af4e9ebab1a642ebbd666314.jpg Скачать фильм Спектральный через торрент бесплантно в хорошем качестве qw.png В Молдавии уже не первый год идёт война. Последнее время в зоне боевых действий стали появляться невидимые невооружённым глазом ... 2016-12-11 00:30 9.1 10 15

    Loading...

    Loading...

    % Раздел Тема Автор DL S | L
    T Фильмы (WEB-DL 720p, 1080p) [ 11.06 GB ] Спектральный / Спектральный анализ / Spectral [2016 WEBRip 1080p] MVO [@[email protected]] -Lexx- Скачать
    T Релизы по Парсеру [Фильмы, Игры, Сериалы и другое...] [ 1.46 GB ] Спектральный / Спектральный анализ / Spectral [2016 WEBRip] MVO [@[email protected]] Sherif Скачать
    T Фильмы 2016 [DVDrip, WEB-DLRip, HDrip] (DUB, MVO) [ 2.05 GB ] Спектральный / Спектральный анализ / Spectral [2016 WEBRip] MVO [@[email protected]] -Lexx- Скачать
    T Фильмы (WEB-DL 720p, 1080p) [ 5.09 GB ] Спектральный / Спектральный анализ / Spectral [2016 WEBRip 720р] MVO [@[email protected]] -Lexx- Скачать
    T Фильмы 2016 [DVDrip, WEB-DLRip, HDrip] (DUB, MVO) [ 747 MB ] Спектральный анализ / Spectral [2016 WEBRip by _Один_777] MVO Один 777 Скачать

    Рекламный пират

    11-12-2016 07:38 Спектральный Скачать торрент  

    11-12-2016 09:11 Спектральный Скачать торрент  

    korotkij писал(а):

    Как фильм то ?

    Действие происходит в МОЛДАВИИ!! какие могут быть вопросы :)

    11-12-2016 10:24 Спектральный Скачать торрент  

    какая Молдавия на кинопоиске описание от дегенератов.

    Цитата:

    Близ Нью-Йорка образовалась воронка, которая служит сверхъестественным существам входом на Землю. Способы борьбы с ними неизвестны, а опасность, которую они представляют для всего человечества, огромна. Рушатся огромные здания, люди запуганы, город на грани паники, которая уже завладела президентом и правящей элитой.

    В этой сложной, почти безнадежной ситуации вся надежда на агентов Национальной безопасности США, бросивших вызов силам зла. Они обещают справиться с угрозой и не позволить существам из потустороннего мира завладеть планетой.

    K-Lexx- писал(а):

    killermax2013, на КиноПоиске правильное описание, там действительно Молдова.

    P.S. Кадр из фильма:

      

    11-12-2016 12:15 Спектральный Скачать торрент  

    Молдавия !!!

    11-12-2016 15:41 Спектральный Скачать торрент  

    Меня фильм очень порадовал. Хороший фантастический боевик с интересным сюжетом, много перестрелок и экшена. Снят довольно красиво. Смотрел с удовольствием.

    11-12-2016 15:51 Спектральный Скачать торрент  

    Нетфликс говна не снимает. )

    Дорогой пользователь! Огромная просьба, поблагодарите релизера, оцените раздачу и оставьте свои комментарий, если Вы скачали Спектральный через торрент бесплатно! Внесите свою лепту в развитие PiratBit!

    Комментировать посты могут только пользователи прошедшие не сложную регистрацию

    Спектральный через торрент Скачать бесплатно Спектральный Спектральный скачать торрент Спектральный смотреть онлайн Cкачать фильм Спектральный бесплатно Спектральный скачать торрент в хорошем качестве Спектральный смотреть онлайн бесплатно в хорошем качестве

    Вы можете начинать темыВы можете отвечать на сообщенияВы не можете редактировать свои сообщенияВы не можете удалять свои сообщенияВы не можете голосовать в опросахВы не можете прикреплять файлы к сообщениямВы можете скачивать файлы

    piratbit.ru

    Скачать фильм Спектральный через торрент в хорошем качестве бесплатно WEBRip

    Раздают: 11 [ 2 KB/s ]
    Размер: 1.46 GB | Добавлен: 7 мес. назад | Торрент скачан:501 раз
    Реклама Дарим 3000 рублей за регистрацию, не упусти свой шанс получить шикарный бонус!!!

    09-03-2017 10:30 Спектральный Скачать торрент  

    Информация о фильмеНазвание: Спектральный анализОригинальное название: SpectralГод выхода: 2016Жанр: фантастика, боевик, триллер

    Режиссер: Ник МатьёВ ролях: Эмили Мортимер, Клейн Кроуфорд, Макс Мартини, Джеймс Бэдж Дэйл, Брюс Гринвуд, Райан Роббинс, Урсула Паркер, Кори Хардрикт, Гонсало Менендес, Луис Одзава Чангчьен

    О фильме: В Молдавии уже не первый год идёт война. Последнее время в зоне боевых действий стали появляться невидимые невооружённым глазом существа, которые мгновенно убивают вооружённых до зубов обученных профессионалов. Доктор Клайн принимал участие в разработке новейшего оружия, бессильного против этих существ, и теперь ему предстоит выяснить, что они такое и откуда взялись.

    Выпущено: СШАПродолжительность: 01:47:33Озвучивание: Любительское (многоголосное) [@[email protected]]

    ФайлФормат: AVI (XviD)Качество: WEBRip Видео: XviD, 720x304, 1550 kbps (0.295 b/px), 23.98 fpsАудио #1: AC3, 192 kbps, 48.0 KHz, 2 ch, - RUSАудио #2: AC3, 192 kbps, 48.0 KHz, 2 ch, - ENG

    РЕКЛАМА ОТСУТСТВУЕТ!

    Скачать Спектральный через торрент http://i82.fastpic.ru/big/2016/1211/4d/914f29d6a5442e9489b6207ba1faf54d.jpg Скачать фильм Спектральный через торрент бесплантно в хорошем качестве О фильме: В Молдавии уже не первый год идёт война. Последнее время в зоне боевых действий стали появляться невидимые невооружённым глазом ... 2017-03-09 10:30 10 10 5

    Loading...

    Loading...

    Рекламный пират

    12-03-2017 10:54 Спектральный Скачать торрент  

    Нормальный фильм. Автору СПС! )

    Дорогой пользователь! Огромная просьба, поблагодарите релизера, оцените раздачу и оставьте свои комментарий, если Вы скачали Спектральный через торрент бесплатно! Внесите свою лепту в развитие PiratBit!

    Комментировать посты могут только пользователи прошедшие не сложную регистрацию

    Спектральный через торрент Скачать бесплатно Спектральный Спектральный скачать торрент Спектральный смотреть онлайн Cкачать фильм Спектральный бесплатно Спектральный скачать торрент в хорошем качестве Спектральный смотреть онлайн бесплатно в хорошем качестве

    Вы не можете начинать темыВы не можете отвечать на сообщенияВы не можете редактировать свои сообщенияВы не можете удалять свои сообщенияВы не можете голосовать в опросахВы не можете прикреплять файлы к сообщениямВы можете скачивать файлы

    piratbit.ru

    Скачать фильм Спектральный через торрент в хорошем качестве бесплатно WEBRip

    Раздают: 5 [ 0 KB/s ]
    Размер: 2.05 GB | Добавлен: 9 мес. назад | Торрент скачан:1687 раз
    Реклама Дарим 3000 рублей за регистрацию, не упусти свой шанс получить шикарный бонус!!!

    11-12-2016 17:22 Спектральный Скачать торрент  

    Спектральный / Спектральный анализ / Spectral Год выпуска: 2016Страна: СШАЖанр: фантастика, боевик, триллерПродолжительность: 01:47:33Перевод: Любительский многоголосый [@[email protected]]Примечание: Релиз без рекламыРежиссер: Ник МатьёВ ролях: Эмили Мортимер (Fran Madison), Клейн Кроуфорд (Sgt. Toll), Макс Мартини (Capt. Sessions), Джеймс Бэдж Дэйл (Clyne), Брюс Гринвуд (General Orland), Райан Роббинс (Sgt. Comstock), Урсула Паркер (Sari), Кори Хардрикт (Alessio), Гонсало Менендес (Captain Marco Cabrera), Луис Одзава Чангчьен (Sgt. Chen), Джимми Экинбола (Sgt. Steve McFadden), Миклош Баньяи (Benson)Описание: В Молдавии уже не первый год идёт война. Последнее время в зоне боевых действий стали появляться невидимые невооружённым глазом существа, которые мгновенно убивают вооружённых до зубов обученных профессионалов. Доктор Клайн принимал участие в разработке новейшего оружия, бессильного против этих существ, и теперь ему предстоит выяснить, что они такое и откуда взялись.Рейтинг: MPAA: PG-13 - Детям до 13 лет просмотр не желателенКачество: WEBRipФормат: AVIВидео: XviD, 720x304 (2.35:1), 1847 kbps, 23,976 fps, 0,352 bppАудио №1: русский / AC3 / 5.1 / 48 kHz / 384 kbps |MVO, @[email protected]|Аудио №2: английский / AC3 / 5.1 / 48 kHz / 384 kbps / ОбщееПолное имя : E:\SpecTraLL.2O16.P.5.1.WEB-DLRip.21OOMB_KOSHARA.aviФормат : AVIФормат/Информация : Audio Video InterleaveРазмер файла : 2,05 ГбайтПродолжительность : 1 ч. 47 м.Общий поток : 2734 Кбит/секПрограмма кодирования : VirtualDubMod 1.5.10.2 (build 2540/release)Библиотека кодирования : VirtualDubMod build 2540/release

    ВидеоИдентификатор : 0Формат : MPEG-4 VisualПрофиль формата : Advanced [email protected]Параметр BVOP формата : 2Параметр QPel формата : НетПараметр GMC формата : Без точки переходаПараметр матрицы формата : ВыборочнаяИдентификатор кодека : XVIDИдентификатор кодека/Подсказка : XviDПродолжительность : 1 ч. 47 м.Битрейт : 1847 Кбит/секШирина : 720 пикселейВысота : 304 пикселяСоотношение сторон : 2,35:1Частота кадров : 23,976 (24000/1001) кадра/секЦветовое пространство : YUVСубдискретизация насыщенности : 4:2:0Битовая глубина : 8 битТип развёртки : ПрогрессивнаяМетод сжатия : С потерямиБит/(Пиксели*Кадры) : 0.352Размер потока : 1,39 Гбайт (68%)Библиотека кодирования : XviD 1.2.1 (UTC 2008-12-04)

    Аудио #1Идентификатор : 1Формат : AC-3Формат/Информация : Audio Coding 3Расширение режима : CM (complete main)Параметр Endianness формата : BigИдентификатор кодека : 2000Продолжительность : 1 ч. 47 м.Вид битрейта : ПостоянныйБитрейт : 384 Кбит/секКаналы : 6 каналовРасположение каналов : Front: L C R, Side: L R, LFEЧастота : 48,0 КГцЧастота кадров : 31,250 кадров/сек (1536 spf)Битовая глубина : 16 битМетод сжатия : С потерямиРазмер потока : 295 Мбайт (14%)Выравнивание : Разделение по промежуткам

    Аудио #2Идентификатор : 2Формат : AC-3Формат/Информация : Audio Coding 3Расширение режима : CM (complete main)Параметр Endianness формата : BigИдентификатор кодека : 2000Продолжительность : 1 ч. 47 м.Вид битрейта : ПостоянныйБитрейт : 384 Кбит/секКаналы : 6 каналовРасположение каналов : Front: L C R, Side: L R, LFEЧастота : 48,0 КГцЧастота кадров : 31,250 кадров/сек (1536 spf)Битовая глубина : 16 битМетод сжатия : С потерямиРазмер потока : 295 Мбайт (14%)Выравнивание : Разделение по промежуткам

    !-Lexx- писал(а):

    Торрент перезалит 27.12.16 в 20:37 МСК, замена на 6 канальный звук.

    Скачать Спектральный через торрент http://i1.imageban.ru/out/2016/12/11/ca0accc89e65f457b0620b35a9c90168.jpg Скачать фильм Спектральный через торрент бесплантно в хорошем качестве Описание: В Молдавии уже не первый год идёт война. Последнее время в зоне боевых действий стали появляться невидимые невооружённым глазом ... 2016-12-27 17:36 9.6 10 73

    Loading...

    Loading...

    Последний раз редактировалось: -Lexx- (2016-12-27 17:36), всего редактировалось 1 раз

    Рекламный пират

    11-12-2016 18:11 Спектральный Скачать торрент  

    Добротная фантастика с интересным сюжетом, снят очень не дурно, графика на уровне. Мне эта картина напомнила анимационный фильм "Последняя фантазия: Духи внутри". С удовольствием посмотрел! Советую

    12-12-2016 14:04 Спектральный Скачать торрент  

    Gigary писал(а):

    Добротная фантастика с интересным сюжетом, снят очень не дурно, графика на уровне. Мне эта картина напомнила анимационный фильм "Последняя фантазия: Духи внутри". С удовольствием посмотрел! Советую Спасибо за совет, забираю!Раздающему, слова благодарности!

    12-12-2016 16:00 Спектральный Скачать торрент  

    Отличный фильм, всем кто любит фантастику смотреть обязательно.

    12-12-2016 16:08 Спектральный Скачать торрент  

    Как не странно а фильм очень даже не чего получился! Мне понравилось

    12-12-2016 19:55 Спектральный Скачать торрент  

    Неплохой фильм. Достоин показа в кинотеатрах, думал, что очередной шлак, ан нет. И да, не Молдову (Молдавию) они хотели показать, а... ну вы поняли что... Но видимо по каким-то соображениям не стали называть вещи своими именами, хотя параллели явные...

    13-12-2016 18:01 Спектральный Скачать торрент  

    Не ожидал, что фильм окажется таким интересным. Спасибо за вечер

    14-12-2016 20:18 Спектральный Скачать торрент  

    по отзывам, думаю надо скачать, но позже когда звук будет получше (да и картинка тоже)но вот по графике не могу согласится что прям хорошая (на уровне десятилетней давности), в том же самом семпле, где лазером лед превращают в воду, это просто ужас если честно.

    15-12-2016 13:00 Спектральный Скачать торрент  

    Фильм реально офигенский !!! Очень понравился !!! Всем рекомендую к просмотру !!!!!!!!!!!!

    Pекламный агент PB

    16-12-2016 11:13 Спектральный Скачать торрент  

    Подозрительно хорошие отзывы - надо посмотреть! Заранее спасибо!

    Юный Чикатилла

    17-12-2016 09:18 Спектральный Скачать торрент  

    Andrew70 писал(а):

    И да, не Молдову (Молдавию) они хотели показать, а... ну вы поняли что...

    Я не понял. Йа тупой =))а что тогда хотели, кого..?

    17-12-2016 17:17 Спектральный Скачать торрент  

    Посмотреть разок можно, автору спс за труды.

    ФедорКузнецов

    27-12-2016 19:25 Спектральный Скачать торрент  

    28-12-2016 10:44 Спектральный Скачать торрент  

    Ну фильм как бы не плохой,но есть абсурдные моменты.Собрать плазменную винтовку из мусора в бункере?Да не вопрос.Вот сейчас тоже комп свои разберу и буду делать плазмаган XD.Доставило))))

    28-12-2016 20:31 Спектральный Скачать торрент  

    Редко пишу комментарии, но этот фильм реально хороший и снят достойно. смотрите не пожалеете!!!

    02-01-2017 20:41 Спектральный Скачать торрент  

    Фильм хороший! Удивлен!

    04-01-2017 13:44 Спектральный Скачать торрент  

    Gigary писал(а):

    Добротная фантастика с интересным сюжетом, снят очень не дурно, графика на уровне. Мне эта картина напомнила анимационный фильм "Последняя фантазия: Духи внутри". С удовольствием посмотрел! Советую Спасибо....Качаю...

    Pекламный агент PB

    04-01-2017 15:13 Спектральный Скачать торрент  

    Andrew70 писал(а):

    Неплохой фильм. Достоин показа в кинотеатрах, думал, что очередной шлак, ан нет. И да, не Молдову (Молдавию) они хотели показать, а... ну вы поняли что... Но видимо по каким-то соображениям не стали называть вещи своими именами, хотя параллели явные...

    Будапешт...

    Юный Чикатилла

    04-01-2017 20:51 Спектральный Скачать торрент  

    Чебураторъ писал(а):

    Будапешт...

    ты про что? Им тут и не пахнет. Хотя место сьёмок в титрах я не смотрел.

    Последний раз редактировалось: Юный Чикатилла (2017-01-05 19:02), всего редактировалось 1 раз

    05-01-2017 04:50 Спектральный Скачать торрент  

    Мда) Фильм про американскую демократию в другой стране, с элементами фантастики в виде новых технологий и духов которые дохнут от железной стружки))) супер отстой ИМХО

    06-01-2017 12:04 Спектральный Скачать торрент  

    Фильм огонь, к просмотру рекомендуется!

    23-01-2017 13:35 Спектральный Скачать торрент  

    Приличный фильм. Сюжет интересный, смотрится легко, бла, бла, и размышлений по поводу мировоззрения и прочей ереси - отсутствуют. Смотреть всем

    23-01-2017 19:12 Спектральный Скачать торрент  

    Смотрел с девушкой. Фильм на один раз, ничего впечатляющего. Те кто часто играют в игры поймут.

    25-01-2017 18:11 Спектральный Скачать торрент  

    25-01-2017 18:13 Спектральный Скачать торрент  

    фигня . просмотрел на перемотке.американские герои солдаты воюют и геройски побеждают спец эфекты копеешные.ерунда фильмец

    Pекламный агент PB

    Дорогой пользователь! Огромная просьба, поблагодарите релизера, оцените раздачу и оставьте свои комментарий, если Вы скачали Спектральный через торрент бесплатно! Внесите свою лепту в развитие PiratBit!

    Комментировать посты могут только пользователи прошедшие не сложную регистрацию

    Спектральный через торрент Скачать бесплатно Спектральный Спектральный скачать торрент Спектральный смотреть онлайн Cкачать фильм Спектральный бесплатно Спектральный скачать торрент в хорошем качестве Спектральный смотреть онлайн бесплатно в хорошем качестве

    Вы не можете начинать темыВы не можете отвечать на сообщенияВы не можете редактировать свои сообщенияВы не можете удалять свои сообщенияВы не можете голосовать в опросахВы не можете прикреплять файлы к сообщениямВы можете скачивать файлы

    piratbit.ru

    Скачать фильм Спектральный через торрент в хорошем качестве бесплатно 1080p

    GeneralUnique ID : 233155726905379450621039385559953166435 (0xAF6828DC8B6E35A7B6E9EAA0AC1DD063)Complete name : E:\SpecTraLL.2O16.P.5.1.WEB-DL.1O8Op_KOSHARA.mkvFormat : MatroskaFormat version : Version 2File size : 11.1 GiBDuration : 1 h 48 minOverall bit rate : 14.7 Mb/sEncoded date : UTC 2016-12-27 14:20:12Writing application : mkvmerge v8.3.0 ('Over the Horizon') 64bitWriting library : libebml v1.3.1 + libmatroska v1.4.2

    VideoID : 1Format : AVCFormat/Info : Advanced Video CodecFormat profile : [email protected] settings, CABAC : YesFormat settings, ReFrames : 5 framesCodec ID : V_MPEG4/ISO/AVCDuration : 1 h 47 minBit rate : 13.9 Mb/sWidth : 1 920 pixelsHeight : 800 pixelsDisplay aspect ratio : 2.40:1Frame rate mode : ConstantFrame rate : 23.976 (24000/1001) FPSColor space : YUVChroma subsampling : 4:2:0Bit depth : 8 bitsScan type : ProgressiveBits/(Pixel*Frame) : 0.379Stream size : 10.5 GiB (95%)Default : NoForced : NoColor range : LimitedMatrix coefficients : BT.709

    Audio #1ID : 2Format : AC-3Format/Info : Audio Coding 3Mode extension : CM (complete main)Format settings, Endianness : BigCodec ID : A_AC3Duration : 1 h 48 minBit rate mode : ConstantBit rate : 384 kb/sChannel(s) : 6 channelsChannel positions : Front: L C R, Side: L R, LFESampling rate : 48.0 kHzFrame rate : 31.250 FPS (1536 spf)Compression mode : LossyStream size : 297 MiB (3%)Language : RussianDefault : YesForced : Yes

    Audio #2ID : 3Format : AC-3Format/Info : Audio Coding 3Mode extension : CM (complete main)Format settings, Endianness : BigCodec ID : A_AC3Duration : 1 h 48 minBit rate mode : ConstantBit rate : 384 kb/sChannel(s) : 6 channelsChannel positions : Front: L C R, Side: L R, LFESampling rate : 48.0 kHzFrame rate : 31.250 FPS (1536 spf)Compression mode : LossyStream size : 297 MiB (3%)Language : EnglishDefault : NoForced : No

    TextID : 4Format : UTF-8Codec ID : S_TEXT/UTF8Codec ID/Info : UTF-8 Plain TextDuration : 1 h 47 minBit rate : 56 b/sCount of elements : 1245Stream size : 44.0 KiB (0%)Language : EnglishDefault : YesForced : No

    piratbit.ru


    Смотрите также