Скачать фильм через торрент бесплатно в хорошем качестве в стиле джаз


Скачать фильм В стиле jazz через торрент в хорошем качестве бесплатно DVDRip

Размер: 1.37 GB | Добавлен: 5 лет 11 мес. назад | Торрент скачан:290 раз
Реклама Дарим 3000 рублей за регистрацию, не упусти свой шанс получить шикарный бонус!!!

17-11-2011 18:34 В стиле jazz Скачать торрент  

В стиле jazz Год выпуска: 2010Страна: РоссияЖанр: Мелодрама, комедияПродолжительность: 01:33:32Перевод: оригиналСубтитры: нетРежиссёр: Станислав ГоворухинВ ролях: Михал Жебровский, Аглая Шиловская, Елена Яковлева, Ольга Красько, Татьяна Устинова, Марат Башаров, Анатолий Белый, Федор Добронравов, Роман Карцев, Анна Самохина...Описание: Это история непростых и в то же время забавных отношений, возникших между мужчиной и тремя женщинами. Герой — успешный молодой человек, обладающий редким мужским обаянием и, соответственно, способностью нравится всем женщинам без исключения, независимо от их возраста и положения в обществе. Героиня — девушка 26-ти лет, с головой ушедшая в работу, разочаровавшаяся в любви, изо дня в день живет по привычной схеме «дом-работа-дом» и уже не мечтает о женском счастье. Казалось бы, между ними должна вспыхнуть «любовь со счастливым концом», но… он знакомится с ее младшей сестрой и ее мамой, все еще настоящей красавицей. Без сомнения, со временем и они оказываются во власти обаяния главного героя. Так к кому же из трех женщин у него настоящие чувства?Качество : DVDRipФормат : AVIВидео кодек: XviD Аудио кодек: АС3Видео: 720x400 (1.80:1), 25 fps, XviD build 50 ~1893 kbps avg, 0.26 bit/pixelАудио: 48 kHz, AC3 Dolby Digital, 2/0 (L,R) ch, ~192 kbps Скачать В стиле jazz через торрент http://i28.fastpic.ru/big/2011/1117/0b/89c7a259137e5207f24b46b9df39240b.jpg Скачать фильм В стиле jazz через торрент бесплантно в хорошем качестве Описание: Это история непростых и в то же время забавных отношений, возникших между мужчиной и тремя женщинами. Герой — успешный молодой ... 2011-11-17 18:34 4.8 10 8

Loading...

Loading...

Рекламный пират

Дорогой пользователь! Огромная просьба, поблагодарите релизера, оцените раздачу и оставьте свои комментарий, если Вы скачали В стиле jazz через торрент бесплатно! Внесите свою лепту в развитие PiratBit!

Комментировать посты могут только пользователи прошедшие не сложную регистрацию

В стиле jazz через торрент Скачать бесплатно В стиле jazz В стиле jazz скачать торрент В стиле jazz смотреть онлайн Cкачать фильм В стиле jazz бесплатно В стиле jazz скачать торрент в хорошем качестве В стиле jazz смотреть онлайн бесплатно в хорошем качестве

Вы не можете начинать темыВы не можете отвечать на сообщенияВы не можете редактировать свои сообщенияВы не можете удалять свои сообщенияВы не можете голосовать в опросахВы не можете прикреплять файлы к сообщениямВы можете скачивать файлы

piratbit.ru

В стиле jazz скачать через торрент » Торрент Кино

День у актрисы не задался с самого утра. Снимая мелкий эпизод с пощечиной, режиссер вывел ее из себя своими упреками. Да тут еще и сценарист начал объяснять, как и что надо играть. Поэтому отыграв очередной дубль, она плюнула на все и поехала домой, благо в этом фильме ей играть больше было нечего. Подходя к дому, она неожиданно оказывается на капоте автомобиля. Меньше всего она ожидала увидеть за рулем того самого сценариста. Вот так и началась очередная история любви в стиле джаз. При просмотре у меня возникли параллели с фильмом «Неадекватные люди». То же самое впечатление от обилия диалогов приносящих нужное приятное удовлетворение. Тот же самый дебют молодой актрисы. В данном случае это Аглая Шиловская. Что-что, а девушка меня удивила, хотя в отличие от Олеринской была напротив: живая и энергичная. Плюсом можно отметить ее вокальные данные и владение музыкальными инструментами. Из старой гвардии мне понравилась игра Яковлевой. Между съемками очередной по счету Каменской и рекламой стирального порошка эта ее роль выглядит козырной картой. Добротно отыграли свои эпизоды Сухоруков, Карцев, Устинова. Сухоруков кстати вылитый Говорухин. Редко я вижу такую актрису как Красько поэтому по первым ощущениям играла она интересно, но задумку режиссера в том чтобы показать ее пятую точку я не понял. Было и так видно что Шиловская на десять лет ее моложе и на десять килограмм тяжелее. Как бы мелодраме не развиваться, как бы комедии не смеяться, но до конфликта в фильме дело все-таки дошло. Ну а как же иначе? Три очаровательные женщины, живущие под одной крышей и такой импозантный красавец мужчина. У каждой из них в душе зазвенели соответствующие струны, только вот правильно распознать их и сказать об этом друг другу они, увы, не смогли.------------------------------------------Удивлена, что на этот фильм так мало положительных рецензий. Было бы неучтиво с моей стороны, беря в расчет то, что фильм мне понравился, не исправить это досадное недоразумение. Если бы я прочла только аннотацию к фильму, то ни в коем случае не стала бы его смотреть. Первое впечатление от описания немного гнетущее. К сожалению, сегодня в нашей стране считается, что фильм может быть успешным, только если поднимет всю 'чернуху', 'бытовуху', 'вскроет гнойные раны'. Именно тогда с полной уверенностью говорят: бестселлер. Да только от такого 'бестселлера' потом тошнит весь день и на ум приходят не очень радужные мысли: 'Неужели все действительно так плохо?'. Поэтому, посмотрев исключительно аннотацию, я бы не стала тратить время на подобное кино. Однако увидев в трейлере актеров и Говорухина в графе режиссер, я определенно решила: оно того стоит. Актеры великолепны. Причем все, что бывает не так часто. Приятный Михал Жебровский с его чарующим голосом. Спасибо, что не сделали из его героя подонка, как это, к сожалению, нередко бывает в подобных случаях. Все было абсолютно цивильно, а дилемма, по существу, чисто теоретическая. Красавица Ольга Красько, которая, несомненно тоже порадовала своим актерским талантом. Правда, иногда раздражала ее чересчур гордая, воспитанная, принципиальная натура. Но все же лучше так: в наше время крайне редко встретишь настоящую Леди. Елена Яковлева. Если честно, не хотелось видеть ее в этой роли. Актриса в последнее время постоянно мелькала в дешевых, на мой взгляд, мелодрамах. Но нет: Яковлева сыграла вполне порядочную, добрую и адекватную женщину. Даже было что-то в ее образе родное. Аглая Шиловская. Присоединяюсь к тем, кто прочит ей большое актерское будущее. Удачи ей! Актеры просто не смогут сыграть плохо у хорошего режиссера. Браво, Станислав Сергеевич! Но знаете, что меня порадовало больше всего? Тексты! Когда наслаждаешься каждым словом, когда видишь, что даже актеры получают удовольствие от того, что говорят, когда понимаешь, что все органично и правильно - это дорогого стоит. Встречаемость таких текстов в кинематографе 1 на тысячу, если не на миллион. И я не преувеличиваю. На последок хочу сказать, что этот фильм хороший аргумент тем, кто утверждает (к сожалению, не без оснований), что в России не снимают хорошее кино. Еще как снимают, господа, еще как!------------------------------------------'Место встречи изменить нельзя' - чушь собачья, написанная двумя 'мальчиками постаревшими в своей песочнице' и совершенно не знающими того послевоенного воровского мира и, ещё более не простого, официального общества и общественного строя. Фильм спасли своим мастерством и популярностью великие актёры. 'В стиле Jazz' - очередной бред сивой кобылы! Однако нанятые борзописцы от кино-кухни не поленились и аккуратно расчленили известный фильм 1940 года 'Сердца четырёх' и из него сварганили 'хлёбово' со всеми атрибутами нашего вивария вплоть до таких мелочей, как голая тёлка в душе и резвящиеся шлюхи на Красной площади. Надо было этот фильм снять в 3D. Вот была бы умора так умора!------------------------------------------После просмотра фильм вызвал у меня смешанные чувства. С одной стороны, непонятное чувство, как будто тебя обманули. Я все ждала того момента, когда же закончится завязка фильма и начнется конфликт, когда я начну сопереживать герою или одной из трех героинь, но этого так и не произошло. Такое ощущение, что половину отснятого при монтаже вырезали, концовка вообще получилась смятая и непонятная. Была неприятно удивлена, что фильм снял Станислав Говорухин, а не какой-нибудь молодой начинающий режиссер. Вот кто-кто, а Станислав Сергеевич умеет и конфликт показать, и характеры персонажей раскрыть! Не получилось! Например, взять персонаж писателя. Он в моих глазах 'разваливается': куда делся умудренный жизнью мужчина с твердым характером в сцене потребления алкоголя в Одессе?! Не верю... На утро он ничего не помнит, как будто ему 20 лет, и он впервые борщ с горилкой запивает пивом с раками. С другой стороны, 'ругать' этот фильм сильно не хочется, ибо остаются добрые, светлые впечатления. Меня подкупили легкая атмосфера фильма, красивая джазовая музыка и немножко романтики. Не рекомендую смотреть тем, кто любить глубокое, умное кино.

torrent-kino.org

Скачать фильм Весь этот джаз (1979) через торрент

7 апреля 2016 10:08 Весь этот джаз / All That Jazz (1979) BDRip от HQCLUB .torrent   [Информация о файле (нажмите для просмотра)] Перевод: Профессиональный (многоголосый, закадровый) DVD + Оригинал (английский)Субтитры: русские, английские (обычные, SDH)Формат: AVIКачество: BDRip (источник:Видео: 704x384 (1.83:1), 23.976 fps, XviD build 65 ~1857 kbps avg, 0.29 bit/pixelАудио #1: 48 kHz, AC3 Dolby Digital, 3/2 (L,C,R,l,r) + LFE ch, ~448 kbps avg (MVO) DVDАудио #2: 48 kHz, AC3 Dolby Digital, 3/0 (L,C,R) ch, ~224 kbps avg (ENG)Аудио #3: 48 kHz, AC3 Dolby Digital, 2/0 (L,R) ch, ~192 kbps avg (MVO.PERVYY.KANAL)(отдельно)Аудио #4: 48 kHz, AC3 Dolby Digital, 2/0 (L,R) ch, ~192 kbps avg (UKR.DVO.1PLUS1)(отдельно)Аудио #5: 48 kHz, AC3 Dolby Digital, 3/2 (L,C,R,l,r) + LFE ch, ~448 kbps avg (UKR.DVO.INTER)(отдельно)Аудио #6: 48 kHz, AC3 Dolby Digital, 2/0 (L,R) ch, ~192 kbps avg (AVO.MIHALEV)(отдельно)Аудио #7: 48 kHz, AC3 Dolby Digital, 2/0 (L,R) ch, ~192 kbps avg (AVO.VOLODARSKIY)(отдельно) 2,18 Gb 7 3 7 апреля 2016 10:08 Весь этот джаз / All That Jazz (1979) HDRip от Rulya74 .torrent   [Информация о файле (нажмите для просмотра)] Перевод: Профессиональный (многоголосый закадровый)Кодек: XviDКачество: HDRipВидео: 720x384 (1.88:1), 23.976 fps, 1925 kbps, 0.290 bit/pixelЗвук: 48 kHz, AC3 Dolby Digital, 3/2 (L,C,R,l,r) + LFE ch, ~448 kbpsВидео: Идентификатор : 0 Формат : MPEG-4 Visual Профиль формата : Advanced [email protected] Параметр BVOP формата : 1 Параметр QPel формата : Нет Параметр GMC формата : Без точки перехода Параметр матрицы формата : Выборочная Идентификатор кодека : XVID Идентификатор кодека/Подсказка : XviD Продолжительность : 2 ч. 3 м. Битрейт : 1925 Кбит/сек Ширина : 720 пикселей Высота : 384 пикселя Соотношение сторон : 1,85:1 Частота кадров : 23,976 кадра/сек Цветовое пространство : YUV Субдискретизация насыщенности : 4:2:0 Битовая глубина : 8 бит Тип развёртки : Прогрессивная Метод сжатия : С потерями Бит/(Пиксели*Кадры) : 0.290 Размер потока : 1,66 Гбайт (81%) Библиотека кодирования : XviD 64 Аудио: Идентификатор : 1 Формат : AC-3 Формат/Информация : Audio Coding 3 Расширение режима : CM (complete main) Параметр Endianness формата : Big Идентификатор кодека : 2000 Продолжительность : 2 ч. 3 м. Вид битрейта : Постоянный Битрейт : 448 Кбит/сек Каналы : 6 каналов Расположение каналов : Front: L C R, Side: L R, LFE Частота : 48,0 КГц Битовая глубина : 16 бит Метод сжатия : С потерями Размер потока : 395 Мбайт (19%) Выравнивание : Разделение по промежуткам Продолжительность промежутка : 42 мс. (1,00 видеокадр) Время предзагрузки промежутка : 500 мс. Заголовок : Профессиональный (многоголосый закадровый)Скриншоты 2,05 Gb 3 1 7 апреля 2016 10:08 Весь этот джаз / All That Jazz (1979) BDRip 720p by msltel | 2 x P, 2 x A .torrent   [Информация о файле (нажмите для просмотра)] Перевод: профессиональный многоголосый, авторскийСубтитры: русские, английскиеКачество: BDRip 720pСравнение с исходникомФормат: MKVВидео: 1280x690, 6636 kbps, 23.976 кадра/с, 0.313 bppАудио 1: русский, AC3, 448 kbps, 6 ch, 48 kHz [профессиональный многоголосый, СРИ DVD ХХ Century Fox]Аудио 2: русский, AC3, 192 kbps, 2 ch, 48 kHz [профессиональный многоголосый, ОРТ]Аудио 3: русский, AC3, 192 kbps, 2 ch, 48 kHz [авторский, Леонид Володарский]Аудио 4: русский, AC3, 192 kbps, 2 ch, 48 kHz [авторский, Алексей Михалёв]Аудио 5: английский, AC3, 448 kbps, 3 ch, 48 kHz [оригинал]Аудио 6: английский, AC3, 192 kbps, 2 ch, 48 kHz [комментарий]Видео: Идентификатор : 1 Формат : AVC Формат/Информация : Advanced Video Codec Профиль формата : [email protected] Параметр CABAC формата : Да Параметр ReFrames формата : 9 кадров Идентификатор кодека : V_MPEG4/ISO/AVC Продолжительность : 2 ч. 3 м. Битрейт : 6636 Кбит/сек Ширина : 1280 пикселей Высота : 690 пикселей Соотношение сторон : 1,85:1 Режим частоты кадров : Постоянный Частота кадров : 23,976 кадра/сек Цветовое пространство : YUV Субдискретизация насыщенности : 4:2:0 Битовая глубина : 8 бит Тип развёртки : Прогрессивная Бит/(Пиксели*Кадры) : 0.313 Размер потока : 5,71 Гбайт (78%) Заголовок : BDRip -- STarankov Библиотека кодирования : x264 core 142 r2431 ac76440 Настройки программы : cabac=1 / ref=9 / deblock=1:-1:-1 / analyse=0x3:0x113 / me=umh / subme=10 / psy=1 / psy_rd=1.00:0.15 / mixed_ref=1 / me_range=32 / chroma_me=1 / trellis=2 / 8x8dct=1 / cqm=0 / deadzone=21,11 / fast_pskip=1 / chroma_qp_offset=-3 / threads=6 / lookahead_threads=1 / sliced_threads=0 / nr=0 / decimate=1 / interlaced=0 / bluray_compat=0 / constrained_intra=0 / bframes=8 / b_pyramid=2 / b_adapt=2 / b_bias=0 / direct=3 / weightb=1 / open_gop=0 / weightp=2 / keyint=230 / keyint_min=23 / scenecut=40 / intra_refresh=0 / rc_lookahead=40 / rc=crf / mbtree=0 / crf=20.0 / qcomp=0.60 / qpmin=0 / qpmax=69 / qpstep=4 / vbv_maxrate=50000 / vbv_bufsize=62500 / crf_max=0.0 / nal_hrd=none / filler=0 / ip_ratio=1.40 / pb_ratio=1.30 / aq=1:1.00 Язык : English Default : Да Forced : Нет DURATION : 02:03:13.428000000 NUMBER_OF_FRAMES : 177265 NUMBER_OF_BYTES : 6285532777 _STATISTICS_WRITING_APP : mkvmerge v7.3.0 ('Nouages') 64bit built on Oct 22 2014 18:53:34 _STATISTICS_WRITING_DATE_UTC : 2014-12-11 17:38:18 _STATISTICS_TAGS : BPS DURATION NUMBER_OF_FRAMES NUMBER_OF_BYTESАудио #1: Идентификатор : 2 Формат : AC-3 Формат/Информация : Audio Coding 3 Расширение режима : CM (complete main) Параметр Endianness формата : Big Идентификатор кодека : A_AC3 Продолжительность : 2 ч. 3 м. Вид битрейта : Постоянный Битрейт : 448 Кбит/сек Каналы : 6 каналов Расположение каналов : Front: L C R, Side: L R, LFE Частота : 48,0 КГц Битовая глубина : 16 бит Метод сжатия : С потерями Размер потока : 395 Мбайт (5%) Заголовок : MVO (СРИ DVD ХХ Century Fox) Язык : Russian Default : Да Forced : НетАудио #2: Идентификатор : 3 Формат : AC-3 Формат/Информация : Audio Coding 3 Расширение режима : CM (complete main) Параметр Endianness формата : Big Идентификатор кодека : A_AC3 Продолжительность : 2 ч. 3 м. Вид битрейта : Постоянный Битрейт : 192 Кбит/сек Каналы : 2 канала Расположение каналов : Front: L R Частота : 48,0 КГц Битовая глубина : 16 бит Метод сжатия : С потерями Размер потока : 169 Мбайт (2%) Заголовок : MVO (OPT) Язык : Russian Default : Нет Forced : НетАудио #3: Идентификатор : 4 Формат : AC-3 Формат/Информация : Audio Coding 3 Расширение режима : CM (complete main) Параметр Endianness формата : Big Идентификатор кодека : A_AC3 Продолжительность : 2 ч. 3 м. Вид битрейта : Постоянный Битрейт : 192 Кбит/сек Каналы : 2 канала Расположение каналов : Front: L R Частота : 48,0 КГц Битовая глубина : 16 бит Метод сжатия : С потерями Размер потока : 169 Мбайт (2%) Заголовок : AVO (Леонид Володарский) Язык : Russian Default : Нет Forced : НетАудио #4: Идентификатор : 5 Формат : AC-3 Формат/Информация : Audio Coding 3 Расширение режима : CM (complete main) Параметр Endianness формата : Big Идентификатор кодека : A_AC3 Продолжительность : 2 ч. 3 м. Вид битрейта : Постоянный Битрейт : 192 Кбит/сек Каналы : 2 канала Расположение каналов : Front: L R Частота : 48,0 КГц Битовая глубина : 16 бит Метод сжатия : С потерями Размер потока : 169 Мбайт (2%) Заголовок : AVO (Алексей Михалёв) Язык : Russian Default : Нет Forced : НетАудио #5: Идентификатор : 6 Формат : AC-3 Формат/Информация : Audio Coding 3 Расширение режима : CM (complete main) Параметр Endianness формата : Big Идентификатор кодека : A_AC3 Продолжительность : 2 ч. 3 м. Вид битрейта : Постоянный Битрейт : 448 Кбит/сек Каналы : 3 канала Расположение каналов : Front: L C R Частота : 48,0 КГц Битовая глубина : 16 бит Метод сжатия : С потерями Размер потока : 395 Мбайт (5%) Заголовок : Original Язык : English Default : Нет Forced : НетАудио #6: Идентификатор : 7 Формат : AC-3 Формат/Информация : Audio Coding 3 Расширение режима : CM (complete main) Параметр Endianness формата : Big Идентификатор кодека : A_AC3 Продолжительность : 2 ч. 3 м. Вид битрейта : Постоянный Битрейт : 192 Кбит/сек Каналы : 2 канала Расположение каналов : Front: L R Частота : 48,0 КГц Битовая глубина : 16 бит Метод сжатия : С потерями Размер потока : 169 Мбайт (2%) Заголовок : Commentary Язык : English Default : Нет Forced : Нет 7,29 Gb 1 3 7 апреля 2016 10:08 Весь этот Джаз / All That Jazz (1979) DVDRip .torrent   [Информация о файле (нажмите для просмотра)] Перевод: Профессиональный (Многоголосый)Кодек: XviDКачество: DVDRipВидео: 1574 Kbps, 624*382 (16/9), 25.000 fpsЗвук: AC3, 192 Kbps, 2 channels, 48.0 KHz 1,46 Gb 21 2

gig-torrent.net

: 194

: 99

: 198

: 101.15 MB

: 0

Jazz

: 2016

: 142

: 236

: 157

: 94.55 MB

: 0

Jazz

: 2017

: 204

: 120

: 263

: 257.32 MB

: 0

Jazz

: 2017

: 285

: 183

: 178

: 221.70 MB

: 0

Jazz

: 2017

: 154

: 208

: 171

: 943.45 MB

: 0

Jazz, Pop

: 2017

: 186

: 228

: 223

: 123.62 MB

: 0

Jazz

: 2017

: 216

: 250

: 151

: 198.15 MB

: 0

Jazz, RnB

: 2017

: 239

: 287

: 240

: 187.59 MB

: 0

Jazz

: 2017

: 153

: 112

: 344

: 183.07 MB

: 0

Jazz

: 2017

: 191

: 227

: 157

: 178.62 MB

: 0

Jazz

: 2017

: 147

: 196

: 344

: 96.54 MB

: 0

Jazz

: 2017

: 219

: 188

: 250

: 108.79 MB

: 0

Jazz

: 2017

: 216

: 145

: 211

: 95.30 MB

: 0

Jazz

: 2017

: 104

: 164

: 158

: 93.03 MB

: 0

Blues, Jazz

: 2017

: 262

: 301

: 196

: 91.73 MB

: 0

Jazz

: 2017

: 66

: 159

: 149

: 116.20 MB

: 0

Jazz

: 2017

: 142

: 191

: 245

: 1.83 GB

: 0

Jazz, Pop

: 2017

: 208

: 129

: 268

: 207.54 MB

: 0

Jazz

: 2017

: 136

: 290

: 340

: 97.14 MB

: 0

Jazz

: 2017

: 171

: 199

: 121

: 89.02 MB

: 0

Jazz

: 2017

dugtor.ru


Смотрите также