Скачать фильм через торрент бесплатно в хорошем качестве земное ядро


Скачать фильм Земное ядро через торрент в хорошем качестве бесплатно HDTVRip

Размер: 742 MB | Добавлен: 5 лет 8 мес. назад | Торрент скачан:222 раза
Реклама Дарим 3000 рублей за регистрацию, не упусти свой шанс получить шикарный бонус!!!

05-02-2012 19:11 Земное ядро Скачать торрент  

Земное ядро / The Core

Год выпуска: 2003Страна: СШАЖанр: фантастика, боевик, триллер, приключенияПродолжительность: 02:14:51Перевод: Профессиональный (полное дублирование)

Режиссер: Джон ЭмиелПродюссер: Шон Бэйли, Дэвид Фостер, Дэвид Б. ХаусхолтерСценарий: Купер Лейн, Джон Роджерс

Бюджет: $60 000 000

детям до 13 лет просмотр не желателенМировой рейтинг IMDB 5.30 (35 959)

В ролях: Аарон Экхарт, Хилари Суэнк, Делрой Линдо, Стенли Туччи, DJ Куаллс, Ричард Дженкинс, Чеки Карио, Брюс Гринвуд, Элфри Вудард, Кристофер Шайер, Владимир Антоник, Марина Тарасова, Виктор Бохон, Владимир Вихров, Андрей Казанцев

Описание: Герой картины, геофизик Джош Кийз, сделал шокирующее открытие: ядро земли перестало вращаться. Электромагнитное поле нашей планеты разрушается, и скоро Земля погибнет!Есть лишь одна надежда: Кийз с командой первоклассных ученых отправится в экспедицию к остановившемуся ядру на уникальном термостойком корабле, чтобы... взорвать ядерный заряд. Этот взрыв должен будет заставить вращаться злополучное ядро, и человечество будет спасено! Путешествие к центру Земли начинается!

Качество: HDTVRipФормат: AVIВидео кодек: XviDАудио кодек: MP3 Видео: 640x272 (2.35:1), 23.976 fps, XviD build 47 ~651 kbps avg, 0.16 bit/pixelАудио#1: 48 kHz, MPEG Layer 3, 2 ch, ~112.00 kbps avg

Скачать Земное ядро через торрент http://s002.youpic.su/pictures/1328475600/6dd6562479639e71d5825a91e73cb108.jpg Скачать фильм Земное ядро через торрент бесплантно в хорошем качестве Описание: Герой картины, геофизик Джош Кийз, сделал шокирующее открытие: ядро земли перестало вращаться. Электромагнитное поле нашей ... 2012-02-05 19:11 5.3 10 3

Loading...

Loading...

Последний раз редактировалось: taygubay (2012-02-06 18:42), всего редактировалось 1 раз

Рекламный пират

05-02-2012 19:26 Земное ядро Скачать торрент  

неверю, что такое возможно!

05-02-2012 19:31 Земное ядро Скачать торрент  

Зачётный фильм! Спасибо))

05-02-2012 19:33 Земное ядро Скачать торрент  

05-02-2012 21:04 Земное ядро Скачать торрент  

Фильм, действительно, интересный! Но снят про то, чего самые супер-пупер учёные не знают, и могут только догадываться. Про Солнце известно больше, чем про недра нашей Земли. Но фильм стоит посмотреть, хотя-бы любителям фантастики, да и не только.Качну в коллекцию, спасибо! ---------------------------------------------Класс! 3 минуты и фильм скачан! Обожаю такие раздачи! Помогу раздать, естественно!

05-02-2012 22:20 Земное ядро Скачать торрент  

Фильм зачетный но из-за такого качества не буду качать(((

06-02-2012 01:10 Земное ядро Скачать торрент  

Идея одновременно и прикольная, и идиотская, и интересная =) В кино на нон-стоп давно ходил =)

Дорогой пользователь! Огромная просьба, поблагодарите релизера, оцените раздачу и оставьте свои комментарий, если Вы скачали Земное ядро через торрент бесплатно! Внесите свою лепту в развитие PiratBit!

Комментировать посты могут только пользователи прошедшие не сложную регистрацию

Земное ядро через торрент Скачать бесплатно Земное ядро Земное ядро скачать торрент Земное ядро смотреть онлайн Cкачать фильм Земное ядро бесплатно Земное ядро скачать торрент в хорошем качестве Земное ядро смотреть онлайн бесплатно в хорошем качестве

Вы не можете начинать темыВы не можете отвечать на сообщенияВы не можете редактировать свои сообщенияВы не можете удалять свои сообщенияВы не можете голосовать в опросахВы не можете прикреплять файлы к сообщениямВы можете скачивать файлы

piratbit.ru

Скачать фильм Земное ядро через торрент в хорошем качестве бесплатно 1080p by msltel] DUB

ОбщееУникальный идентификатор : 201651641393151659995338489111064942120 (0x97B4B185E636A93DAE2CD9DFA7E91628)Полное имя : D:\Video\Земное ядро.2003.BDRip.1080p by msltel.mkvФормат : MatroskaВерсия формата : Version 4 / Version 2Размер файла : 16,8 ГбайтПродолжительность : 2 ч. 14 м.Общий поток : 17,8 Мбит/секНазвание фильма : Rip by msltelДата кодирования : UTC 2017-06-02 04:49:55Программа кодирования : mkvmerge v8.2.0 ('World of Adventure') 64bitБиблиотека кодирования : libebml v1.3.1 + libmatroska v1.4.2

ВидеоИдентификатор : 1Формат : AVCФормат/Информация : Advanced Video CodecПрофиль формата : [email protected]Параметр CABAC формата : ДаПараметр ReFrames формата : 4 кадраИдентификатор кодека : V_MPEG4/ISO/AVCПродолжительность : 2 ч. 14 м.Битрейт : 14,1 Мбит/секШирина : 1920 пикселейВысота : 816 пикселейСоотношение сторон : 2,35:1Режим частоты кадров : ПостоянныйЧастота кадров : 23,976 (24000/1001) кадра/секЦветовое пространство : YUVСубдискретизация насыщенности : 4:2:0Битовая глубина : 8 битТип развёртки : ПрогрессивнаяБит/(Пиксели*Кадры) : 0.376Размер потока : 13,3 Гбайт (79%)Библиотека кодирования : x264 core 146 r2538 121396cНастройки программы : cabac=1 / ref=4 / deblock=1:-3:-2 / analyse=0x3:0x113 / me=umh / subme=11 / psy=1 / psy_rd=1.00:0.15 / mixed_ref=1 / me_range=32 / chroma_me=1 / trellis=2 / 8x8dct=1 / cqm=0 / deadzone=21,11 / fast_pskip=0 / chroma_qp_offset=-3 / threads=6 / lookahead_threads=1 / sliced_threads=0 / nr=0 / decimate=1 / interlaced=0 / bluray_compat=0 / constrained_intra=0 / bframes=8 / b_pyramid=2 / b_adapt=2 / b_bias=0 / direct=1 / weightb=1 / open_gop=0 / weightp=2 / keyint=230 / keyint_min=23 / scenecut=40 / intra_refresh=0 / rc_lookahead=40 / rc=crf / mbtree=0 / crf=18.0 / qcomp=0.60 / qpmin=0 / qpmax=69 / qpstep=4 / vbv_maxrate=62500 / vbv_bufsize=78125 / crf_max=0.0 / nal_hrd=none / filler=0 / ip_ratio=1.40 / pb_ratio=1.30 / aq=1:1.00Язык : EnglishDefault : ДаForced : Нет

Аудио #1Идентификатор : 2Формат : AC-3Формат/Информация : Audio Coding 3Параметр Endianness формата : BigИдентификатор кодека : A_AC3Продолжительность : 2 ч. 14 м.Вид битрейта : ПостоянныйБитрейт : 192 Кбит/секКаналы : 2 каналаРасположение каналов : Front: L RЧастота : 48,0 КГцЧастота кадров : 31,250 кадров/сек (1536 spf)Битовая глубина : 16 битМетод сжатия : С потерямиРазмер потока : 185 Мбайт (1%)Заголовок : DUBЯзык : RussianServiceKind/String : Complete MainDefault : ДаForced : Нет

Аудио #2Идентификатор : 3Формат : AC-3Формат/Информация : Audio Coding 3Параметр Endianness формата : BigИдентификатор кодека : A_AC3Продолжительность : 2 ч. 14 м.Вид битрейта : ПостоянныйБитрейт : 448 Кбит/секКаналы : 6 каналовРасположение каналов : Front: L C R, Side: L R, LFEЧастота : 48,0 КГцЧастота кадров : 31,250 кадров/сек (1536 spf)Битовая глубина : 16 битМетод сжатия : С потерямиРазмер потока : 432 Мбайт (3%)Заголовок : MVOЯзык : RussianServiceKind/String : Complete MainDefault : НетForced : Нет

Аудио #3Идентификатор : 4Формат : DTSФормат/Информация : Digital Theater SystemsРежим : 16Параметр Endianness формата : BigИдентификатор кодека : A_DTSПродолжительность : 2 ч. 14 м.Вид битрейта : ПостоянныйБитрейт : 1509 Кбит/секКаналы : 6 каналовРасположение каналов : Front: L C R, Side: L R, LFEЧастота : 48,0 КГцЧастота кадров : 93,750 кадра/сек (512 spf)Битовая глубина : 24 битМетод сжатия : С потерямиРазмер потока : 1,42 Гбайт (8%)Заголовок : AVO (Юрий Живов)Язык : RussianDefault : НетForced : Нет

Аудио #4Идентификатор : 5Формат : DTSФормат/Информация : Digital Theater SystemsРежим : 16Параметр Endianness формата : BigИдентификатор кодека : A_DTSПродолжительность : 2 ч. 14 м.Вид битрейта : ПостоянныйБитрейт : 1509 Кбит/секКаналы : 6 каналовРасположение каналов : Front: L C R, Side: L R, LFEЧастота : 48,0 КГцЧастота кадров : 93,750 кадра/сек (512 spf)Битовая глубина : 24 битМетод сжатия : С потерямиРазмер потока : 1,42 Гбайт (8%)Заголовок : originalЯзык : EnglishDefault : НетForced : Нет

Текст #1Идентификатор : 6Формат : UTF-8Идентификатор кодека : S_TEXT/UTF8Идентификатор кодека/Информация : UTF-8 Plain TextПродолжительность : 2 ч. 5 м.Битрейт : 89 бит/секElementCount : 1170Размер потока : 81,8 Кбайт (0%)Заголовок : русскиеЯзык : RussianDefault : НетForced : Нет

Текст #2Идентификатор : 7Формат : UTF-8Идентификатор кодека : S_TEXT/UTF8Идентификатор кодека/Информация : UTF-8 Plain TextПродолжительность : 2 ч. 14 м.Битрейт : 62 бит/секElementCount : 1691Размер потока : 61,7 Кбайт (0%)Заголовок : английские (для слабослышащих)Язык : EnglishDefault : НетForced : Нет

Меню00:00:00.000 : :Chapter 0100:07:12.807 : :Chapter 0200:11:09.001 : :Chapter 0300:18:15.260 : :Chapter 0400:27:57.342 : :Chapter 0500:32:53.971 : :Chapter 0600:35:58.489 : :Chapter 0700:40:12.993 : :Chapter 0800:47:26.760 : :Chapter 0900:50:08.463 : :Chapter 1001:01:19.592 : :Chapter 1101:11:50.055 : :Chapter 1201:22:25.899 : :Chapter 1301:29:28.196 : :Chapter 1401:33:43.033 : :Chapter 1501:39:00.643 : :Chapter 1601:44:38.354 : :Chapter 1701:52:21.109 : :Chapter 1801:58:07.246 : :Chapter 1902:03:58.013 : :Chapter 2002:14:57.506 : :Chapter 21

piratbit.ru

Скачать фильм Земное ядро через торрент в хорошем качестве бесплатно HDTVRip

Размер: 742 MB | Добавлен: 5 лет 8 мес. назад | Торрент скачан:222 раза
Реклама Дарим 3000 рублей за регистрацию, не упусти свой шанс получить шикарный бонус!!!

05-02-2012 19:11 Земное ядро Скачать торрент  

Земное ядро / The Core

Год выпуска: 2003Страна: СШАЖанр: фантастика, боевик, триллер, приключенияПродолжительность: 02:14:51Перевод: Профессиональный (полное дублирование)

Режиссер: Джон ЭмиелПродюссер: Шон Бэйли, Дэвид Фостер, Дэвид Б. ХаусхолтерСценарий: Купер Лейн, Джон Роджерс

Бюджет: $60 000 000

детям до 13 лет просмотр не желателенМировой рейтинг IMDB 5.30 (35 959)

В ролях: Аарон Экхарт, Хилари Суэнк, Делрой Линдо, Стенли Туччи, DJ Куаллс, Ричард Дженкинс, Чеки Карио, Брюс Гринвуд, Элфри Вудард, Кристофер Шайер, Владимир Антоник, Марина Тарасова, Виктор Бохон, Владимир Вихров, Андрей Казанцев

Описание: Герой картины, геофизик Джош Кийз, сделал шокирующее открытие: ядро земли перестало вращаться. Электромагнитное поле нашей планеты разрушается, и скоро Земля погибнет!Есть лишь одна надежда: Кийз с командой первоклассных ученых отправится в экспедицию к остановившемуся ядру на уникальном термостойком корабле, чтобы... взорвать ядерный заряд. Этот взрыв должен будет заставить вращаться злополучное ядро, и человечество будет спасено! Путешествие к центру Земли начинается!

Качество: HDTVRipФормат: AVIВидео кодек: XviDАудио кодек: MP3 Видео: 640x272 (2.35:1), 23.976 fps, XviD build 47 ~651 kbps avg, 0.16 bit/pixelАудио#1: 48 kHz, MPEG Layer 3, 2 ch, ~112.00 kbps avg

Скачать Земное ядро через торрент http://s002.youpic.su/pictures/1328475600/6dd6562479639e71d5825a91e73cb108.jpg Скачать фильм Земное ядро через торрент бесплантно в хорошем качестве Описание: Герой картины, геофизик Джош Кийз, сделал шокирующее открытие: ядро земли перестало вращаться. Электромагнитное поле нашей ... 2012-02-05 19:11 5.3 10 3

Loading...

Loading...

Последний раз редактировалось: taygubay (2012-02-06 18:42), всего редактировалось 1 раз

Рекламный пират

05-02-2012 19:26 Земное ядро Скачать торрент  

неверю, что такое возможно!

05-02-2012 19:31 Земное ядро Скачать торрент  

Зачётный фильм! Спасибо))

05-02-2012 19:33 Земное ядро Скачать торрент  

05-02-2012 21:04 Земное ядро Скачать торрент  

Фильм, действительно, интересный! Но снят про то, чего самые супер-пупер учёные не знают, и могут только догадываться. Про Солнце известно больше, чем про недра нашей Земли. Но фильм стоит посмотреть, хотя-бы любителям фантастики, да и не только.Качну в коллекцию, спасибо! ---------------------------------------------Класс! 3 минуты и фильм скачан! Обожаю такие раздачи! Помогу раздать, естественно!

05-02-2012 22:20 Земное ядро Скачать торрент  

Фильм зачетный но из-за такого качества не буду качать(((

06-02-2012 01:10 Земное ядро Скачать торрент  

Идея одновременно и прикольная, и идиотская, и интересная =) В кино на нон-стоп давно ходил =)

Дорогой пользователь! Огромная просьба, поблагодарите релизера, оцените раздачу и оставьте свои комментарий, если Вы скачали Земное ядро через торрент бесплатно! Внесите свою лепту в развитие PiratBit!

Комментировать посты могут только пользователи прошедшие не сложную регистрацию

Земное ядро через торрент Скачать бесплатно Земное ядро Земное ядро скачать торрент Земное ядро смотреть онлайн Cкачать фильм Земное ядро бесплатно Земное ядро скачать торрент в хорошем качестве Земное ядро смотреть онлайн бесплатно в хорошем качестве

Вы не можете начинать темыВы не можете отвечать на сообщенияВы не можете редактировать свои сообщенияВы не можете удалять свои сообщенияВы не можете голосовать в опросахВы не можете прикреплять файлы к сообщениямВы можете скачивать файлы

piratbit.ru

Земное ядро скачать через торрент » Торрент Кино

------------------------------------------От фильма, в котором задействована такая талантливая актриса как Хилари Суэнк ожидала большего... много большего.

Земное ядро - это такая пародия на Армагеддон. Ну, если с последним всё ясно, фильм вышел в прокат на исходе тысячелетия, когда тема конца света была как никогда актуальна, ну, а какие актеры там были задействованы: Брюс Уиллис, Лив Тайлер, Бен Аффлек, Билли Боб Торнтон. С музыкой, опять же Стив Тайлер, для дочурки подсуетился. В общем, Армагеддон - это коктейль, который был просто обречен на коммерческий успех.

С обсуждаемым фильмом всё гораздо проще и скромнее. Сюжет неимоверно закручен, на нас обрушивается столько научных терминов, что даже несведущий зритель понимает, что все это не научная фантастика, а фантазия чистой воды. Ни одна сцена фильма не тронула, будь то уничтожения Вечного города или гибель людей на мосту, всё это было снято как-то безжизненно, не эмоционально, спецэффекты очень уж дешёвенько смотрелись. Из всего актерского состава порадовала только уже названная Хилари Суэнк, да рано погибший Ричард Дженкинс.На музыкальное сопровождение и вовсе внимание не обратила.

После просмотра прошло чуть меньше суток, а фильм уже начинает стираться из памяти. Слабовато для фильма-катастрофы.------------------------------------------------------------------------------------Соглашусь со всеми, кто говорит, что сюжет заезжен, как старая пластинка. Но господа, чего вы хотите от геройского фильма-катастрофы? Нового, как мне кажется, тут уже не изобрести и каждая съемочная команда, согласившаяся снимать очередную встряску человечества, изголяется по-своему: тайфуны, землетрясения, извержения вулканов, падение метеоритов и т. д.

В «Земной коре» пошли по накатанному и ничего не стали выдумывать, только подкорректировали, отчего же, собственно, и будут плясать. В очередной раз гибнет планета и чтобы ее спасти, нужно снарядить экспедицию вглубь земной коры и огромнейшим взрывом заставить заново заработать ядро. Задумка вполне приемлемая, но такого рода фильмы строятся, в первую очередь, на визуальном ряде, который, к сожалению, тут явно подкачал, что явилось существенным минусом.Спецэффекты, конечно, ниже среднего уровня (видимо, весь бюджетик ушел на зарплаты актерам и как раз оставшаяся тысяча, а может и сотня, долларов и пришлась на спецэффекты). Глаза резало на всех масштабных картинках, как обрушение моста в Сан-Франциско или грандиозный взрыв Колизея, все-таки для 2003 года могли сделать что-то поприличней, будь здесь качественная компьютерная работа, реакция на фильм была бы совершенно другой.

Если на спецэффекты особо не смотреть, то получится вполне нормальный фильм и это, я считаю, актерская заслуга (все лица знакомые, некоторые даже очень хорошо знакомы), только это и спасло картину. Отлично прописанные персонажи, диалоги, динамизм, драматичность - все это присутствует в достаточной мере. Кому-то, разумеется, картина покажется наивной, глупой, но она выполнила свою миссию - кого-то заинтересовала и понравилась.Мой итог: смотреть очень даже можно, только немного затянуто начало.------------------------------------------Когда Земля ойкнула...------------------------------------------Как следует из известного анекдота, даже руководство партии и правительства Советского Союза проявляли в свое время известную заботу о собственных космонавтах, милосердно посылая их в экспедицию на Солнце ночью. А вот американские кинематографисты отправили шестерых «терранавтов» с билетом в один конец и совсем в другую сторону. Шестеро смелых без всяких раскачек загрузились в некое авангардное транспортное средство, отдаленно смахивающее на головоломку-змею Эрне Рубика, и помчались к раскаленной сердцевине Земли практически немедленно после того, как было получено штормовое предупреждение о приближении очередного апокалипсиса.

Случилось страшное. Без уважительных, на первый взгляд, причин сердцевина нашей планеты показала себя совершенной гнилушкой и выкинула изрядную подлянку: ядро перестало вращаться, обеспечивая магнитный щит от вредного космического излучения. А излучение это, доложу я вам, препаршивая штука, которая посильнее фаустпатрона будет: выводит из строя обладателей кардиостимуляторов, выжигает всё на своем пути... А стаи рехнувшихся голубей под воздействием новой напасти словно вырвались с сеанса хичкоковского фильма и крушат все на своем пути, в частности, птахи разнесли центр Лондона...

Автор этих строк давно хотел признаться в давней и безнадежной любви к фильмам-катастрофам, в которых есть одна символическая ключевая сцена: разношерстная толпа землян спокойно занимается своими делами, а потом все как один тревожно поднимают головы и напряженно смотрят вверх и вдаль, будто на репродуктор с Левитаном: туда, откуда через пару минут на черных крылах прилетит безносая.

Обычно после подобных интродукций начинается массовый кердык: рушатся города, падают здания, вопят народы мира... Авторы «Ядра Земли» даже на несколько месяцев задержали выход фильма, дорисовывая компьютерные спецэффекты. Кажется, воспаленное воображение Голливуда уже мысленно хотя бы по разу уничтожило все более или менее значимые культурные объекты цивилизации, начиная, естественно, с Белого дома и небоскребов штатовских мегаполисов («День независимости», «Армагеддон», «Удар из космоса» и т. п. лабудень). По понятным причинам центр тяжести разрушений, вызванных остановкой вращения ядра, перенесен в Старый Свет: космический гиперболоид лишь разрезал пополам знаменитый мост Золотые ворота в Сан-Франциско, а потом охотно перекинулся на Европу: в частности, руинами лёг Колизей и другие римские древности, над которыми тщетно пыхтели вандалы и время...

Таким образом, кстати, была подведена идеологическая база и под мультинациональный состав бригады спасителей планеты: американцев большинство, но есть, например, французообразный субъект по имени Серж и прочие товарищи, которым предстоит, пафосно жертвуя собой, приводить в действие тактические ядерные заряды. Терранавты прихватили бомбы, чтобы зрелищно подорвать их в чреве Земли и заново раскрутить её потроха. И поскольку футуристический хай-тек аппарат, на котором наши славные ребята забурились в Землю, монтировался в спешке, предусмотреть абсолютно всё конструкторы не смогли. Перед ними и так стояла предерзкая инженерная задача - слепить машину, которая с честью выдержит миллионы атмосфер давления, миллионы градусов температуры и на борту которой не стыдно будет нарисовать звездно-полосатый. В этой связи сущими мелочами кажутся отдельные технические недоработки вроде того, что приводящие в действие атомные бомбы цепи нашим героям приходится замыкать буквально зубами.

Несмотря на своё тотальное безумие, «Ядро Земли» - это квинтэссенция жанра под условным названием «тикайте, всё пропало!». Кажется, авторы фильма посмотрели всё стоящее, созданное мировым кино, и по крупице смешали в своей ленте. По крайней мере, сцену из советского «Экипажа» они точно упёрли: только Леонид Филатов для проведения текущих ремонтных работ на ходу вылезал в воздухозаборник Ту-154 и противостоял потоку воздуха, а терранавт принял на себя поток раскаленной плазмы, в неё же вскоре и превратившись.

Посмотрев «Ядро», хочется тут же перечитать «Путешествие к центру Земли» Жюля Верна, чтобы привести в порядок пошатнувшееся естественнонаучное мировоззрение. Ведь после таких фильмов безобидные бредни старика Жюля представляются чуть ли не академическим учебником геологии...

torrent-kino.org

Скачать фильм Земное ядро через торрент в хорошем качестве бесплатно 720p by msltel] DUB

ОбщееУникальный идентификатор : 197244104011107512696998900542123981509 (0x9463D527090D03EF8A8B10DEC61EBAC5)Полное имя : D:\Video\Земное ядро.2003.BDRip.720p by msltel.mkvФормат : MatroskaВерсия формата : Version 4 / Version 2Размер файла : 6,00 ГбайтПродолжительность : 2 ч. 14 м.Общий поток : 6370 Кбит/секНазвание фильма : Rip by msltelДата кодирования : UTC 2017-05-31 06:37:26Программа кодирования : mkvmerge v8.2.0 ('World of Adventure') 64bitБиблиотека кодирования : libebml v1.3.1 + libmatroska v1.4.2

ВидеоИдентификатор : 1Формат : AVCФормат/Информация : Advanced Video CodecПрофиль формата : [email protected]Параметр CABAC формата : ДаПараметр ReFrames формата : 9 кадровИдентификатор кодека : V_MPEG4/ISO/AVCПродолжительность : 2 ч. 14 м.Битрейт : 4831 Кбит/секШирина : 1280 пикселейВысота : 544 пикселяСоотношение сторон : 2,35:1Режим частоты кадров : ПостоянныйЧастота кадров : 23,976 (24000/1001) кадра/секЦветовое пространство : YUVСубдискретизация насыщенности : 4:2:0Битовая глубина : 8 битТип развёртки : ПрогрессивнаяБит/(Пиксели*Кадры) : 0.289Размер потока : 4,55 Гбайт (76%)Библиотека кодирования : x264 core 146 r2538 121396cНастройки программы : cabac=1 / ref=9 / deblock=1:-3:-2 / analyse=0x3:0x113 / me=umh / subme=11 / psy=1 / psy_rd=1.00:0.15 / mixed_ref=1 / me_range=32 / chroma_me=1 / trellis=2 / 8x8dct=1 / cqm=0 / deadzone=21,11 / fast_pskip=0 / chroma_qp_offset=-3 / threads=6 / lookahead_threads=1 / sliced_threads=0 / nr=0 / decimate=1 / interlaced=0 / bluray_compat=0 / constrained_intra=0 / bframes=8 / b_pyramid=2 / b_adapt=2 / b_bias=0 / direct=1 / weightb=1 / open_gop=0 / weightp=2 / keyint=230 / keyint_min=23 / scenecut=40 / intra_refresh=0 / rc_lookahead=40 / rc=crf / mbtree=0 / crf=18.2 / qcomp=0.60 / qpmin=0 / qpmax=69 / qpstep=4 / vbv_maxrate=62500 / vbv_bufsize=78125 / crf_max=0.0 / nal_hrd=none / filler=0 / ip_ratio=1.40 / pb_ratio=1.30 / aq=1:1.00Язык : EnglishDefault : ДаForced : Нет

Аудио #1Идентификатор : 2Формат : AC-3Формат/Информация : Audio Coding 3Параметр Endianness формата : BigИдентификатор кодека : A_AC3Продолжительность : 2 ч. 14 м.Вид битрейта : ПостоянныйБитрейт : 192 Кбит/секКаналы : 2 каналаРасположение каналов : Front: L RЧастота : 48,0 КГцЧастота кадров : 31,250 кадров/сек (1536 spf)Битовая глубина : 16 битМетод сжатия : С потерямиРазмер потока : 185 Мбайт (3%)Заголовок : DUBЯзык : RussianServiceKind/String : Complete MainDefault : ДаForced : Нет

Аудио #2Идентификатор : 3Формат : AC-3Формат/Информация : Audio Coding 3Параметр Endianness формата : BigИдентификатор кодека : A_AC3Продолжительность : 2 ч. 14 м.Вид битрейта : ПостоянныйБитрейт : 448 Кбит/секКаналы : 6 каналовРасположение каналов : Front: L C R, Side: L R, LFEЧастота : 48,0 КГцЧастота кадров : 31,250 кадров/сек (1536 spf)Битовая глубина : 16 битМетод сжатия : С потерямиРазмер потока : 432 Мбайт (7%)Заголовок : MVOЯзык : RussianServiceKind/String : Complete MainDefault : НетForced : Нет

Аудио #3Идентификатор : 4Формат : AC-3Формат/Информация : Audio Coding 3Параметр Endianness формата : BigИдентификатор кодека : A_AC3Продолжительность : 2 ч. 14 м.Вид битрейта : ПостоянныйБитрейт : 448 Кбит/секКаналы : 6 каналовРасположение каналов : Front: L C R, Side: L R, LFEЧастота : 48,0 КГцЧастота кадров : 31,250 кадров/сек (1536 spf)Битовая глубина : 16 битМетод сжатия : С потерямиРазмер потока : 432 Мбайт (7%)Заголовок : AVO (Юрий Живов)Язык : RussianServiceKind/String : Complete MainDefault : НетForced : Нет

Аудио #4Идентификатор : 5Формат : AC-3Формат/Информация : Audio Coding 3Параметр Endianness формата : BigИдентификатор кодека : A_AC3Продолжительность : 2 ч. 14 м.Вид битрейта : ПостоянныйБитрейт : 448 Кбит/секКаналы : 6 каналовРасположение каналов : Front: L C R, Side: L R, LFEЧастота : 48,0 КГцЧастота кадров : 31,250 кадров/сек (1536 spf)Битовая глубина : 16 битМетод сжатия : С потерямиРазмер потока : 432 Мбайт (7%)Заголовок : originalЯзык : EnglishServiceKind/String : Complete MainDefault : НетForced : Нет

Текст #1Идентификатор : 6Формат : UTF-8Идентификатор кодека : S_TEXT/UTF8Идентификатор кодека/Информация : UTF-8 Plain TextПродолжительность : 2 ч. 5 м.Битрейт : 89 бит/секElementCount : 1170Размер потока : 81,8 Кбайт (0%)Заголовок : русскиеЯзык : RussianDefault : НетForced : Нет

Текст #2Идентификатор : 7Формат : UTF-8Идентификатор кодека : S_TEXT/UTF8Идентификатор кодека/Информация : UTF-8 Plain TextПродолжительность : 2 ч. 14 м.Битрейт : 62 бит/секElementCount : 1691Размер потока : 61,7 Кбайт (0%)Заголовок : английские (для слабослышащих)Язык : EnglishDefault : НетForced : Нет

Меню00:00:00.000 : :Chapter 0100:07:12.807 : :Chapter 0200:11:09.001 : :Chapter 0300:18:15.260 : :Chapter 0400:27:57.342 : :Chapter 0500:32:53.971 : :Chapter 0600:35:58.489 : :Chapter 0700:40:12.993 : :Chapter 0800:47:26.760 : :Chapter 0900:50:08.463 : :Chapter 1001:01:19.592 : :Chapter 1101:11:50.055 : :Chapter 1201:22:25.899 : :Chapter 1301:29:28.196 : :Chapter 1401:33:43.033 : :Chapter 1501:39:00.643 : :Chapter 1601:44:38.354 : :Chapter 1701:52:21.109 : :Chapter 1801:58:07.246 : :Chapter 1902:03:58.013 : :Chapter 2002:14:57.506 : :Chapter 21

piratbit.ru


Смотрите также