Скачать фильм через торрент как приручить дракона 2 в хорошем качестве


Как приручить дракона 2 2014

Название: Как приручить дракона 2 / How to Train Your Dragon 2 (2014) BDRip 1080p | 3D-Video | HSBS | Лицензия | 60 fps
Качество видео: BDRip 1080
Перевод: Профессиональный (дублированный)
Формат видео: MKV
Видео: AVC 1920x816 (2.35:1), 59.940 fps, AVC, 20.0 Mbps
Аудио: AC3 AC3AC-3, 640 Kbps, 48.0 KHz, 6 ch
Скачать

Загрузка начнется в течение 5 сек.

14.89 GB

Название: Как приручить дракона 2 / How to Train Your Dragon 2 (2014) DVD5 | сжатый
Качество видео: DVD5 (сжатый)
Перевод: полное дублирование
Видео: MPEG2 PAL 16:9 ([email protected]) VBR 5002 Kbps, 25.000 fps
Аудио: Dolby AC3, 6 ch, 48.0 KHz, 448 Kbps [английский]Dolby AC3, 6 ch, 48.0 KHz, 384 Kbps [русский]
Скачать

Загрузка начнется в течение 5 сек.

4.31 GB

Название: Как приручить дракона 2 / How to Train Your Dragon 2 (2014) BDRip 1080p 60FPS by ZHz
Качество видео: BDRip 1080p 60FPS
Перевод: Профессиональный (полное дублирование)
Видео: AVC 1920х816, 16.1 Mbps, 59.940 fps
Аудио: Russian: 48 kHz, DTS, 3/2 (L,C,R,l,r) + LFE ch, ~768.00 kbps avg |Дубляж, Blu-ray EUR|
Скачать

Загрузка начнется в течение 5 сек.

13.36 GB

Название: Как приручить дракона 2 / How to Train Your Dragon 2 (2014) HDRip от Scarabey | D | Лицензия
Качество видео: HDRip
Перевод: Профессиональный (полное дублирование) [Лицензия]
Формат видео: AVI
Видео: 688x288 (2.39:1), 23.976 fps, XviD build 73 ~882 kbps avg, 0.19 bit/pixel
Аудио: 48 kHz, MPEG Layer 3, 2 ch, ~128.00 kbps avg
Скачать

Загрузка начнется в течение 5 сек.

743.23 MB

Название: Как приручить дракона 2 / How to Train Your Dragon 2 (2014) HDRip от Scarabey | D | Лицензия
Качество видео: HDRip
Перевод: Профессиональный (полное дублирование) [Лицензия]
Формат видео: AVI
Видео: 720x304 (2.37:1), 23.976 fps, XviD build 73 ~1637 kbps avg, 0.31 bit/pixel
Аудио: 48 kHz, AC3 Dolby Digital, 3/2 (L,C,R,l,r) + LFE ch, ~448.00 kbps avg
Скачать

Загрузка начнется в течение 5 сек.

1.45 GB

Название: Как приручить дракона 2 / How to Train Your Dragon 2 (2014) BDRip 720p от Leonardo and Scarabey | Лицензия
Качество видео: BDRip 720p Исходник: Blu-ray
Перевод: Профессиональный (полное дублирование) Лицензия [Blu-ray EUR]
Формат видео: MKV Видео кодек: MPEG-4 AVC Аудио кодек: AC3
Видео: AVC, 1280x544 (2.35:1) at 23.976 fps, AVC at 3512 kbps avg, 0.210 bit/pixel
Аудио: Russian; AC3; 448 Kbps; CBR; 6 ch; 16 bit; Dub
Скачать

Загрузка начнется в течение 5 сек.

2.88 GB

Название: Как приручить дракона 2 / How to Train Your Dragon 2 (2014) BDRip-AVC от Leonardo and Scarabey | Лицензия
Качество видео: BDRip-AVC Исходник: Blu-ray
Перевод: Профессиональный (полное дублирование) Лицензия [Blu-ray EUR]
Формат видео: MKV Видео кодек: MPEG-4 AVC Аудио кодек: AC3
Видео: AVC, 1024x436 (2.35:1) at 23.976 fps, AVC at 1599 kbps avg, 0.149 bit/pixel
Аудио: Russian; AC3; 448 Kbps; CBR; 6 ch; 16 bit; Dub
Скачать

Загрузка начнется в течение 5 сек.

1.46 GB

Название: Как приручить дракона 2 / How to Train Your Dragon 2 (2014) ВDRip от Generalfilm | КПК | Лицензия
Качество видео: ВDRip | КПК
Перевод: Дублированное [Лицензия]
Видео: кодек: x264, формат: mp4, размер кадра: 640х272, битрейт: 450 кб/с
Аудио: кодек: AAC LC 2.0, битрейт: 128 кб/с
Скачать

Загрузка начнется в течение 5 сек.

422.61 MB

Название: Как приручить дракона 2 / How to Train Your Dragon 2 (2014) BDRip 1080p от Leonardo and Scarabey | Лицензия
Качество видео: BDRip 1080p Исходник: Blu-ray
Перевод: Профессиональный (полное дублирование) Лицензия [Blu-ray EUR]
Формат видео: MKV Видео кодек: MPEG-4 AVC Аудио кодек: AC3
Видео: AVC, 1920x816 (2.35:1) at 23.976 fps, AVC at 6899 kbps avg, 0.184 bit/pixel
Аудио: Russian; AC3; 448 Kbps; CBR; 6 ch; 16 bit; Dub
Скачать

Загрузка начнется в течение 5 сек.

5.34 GB

Название: Как приручить дракона 2 / How to Train Your Dragon 2 (2014) BDRip-AVC от New-Team | Лицензия
Качество видео: BDRip-AVC |исх. Blu-ray CEE 1080p|
Перевод: Профессиональный (полное дублирование) |Лицензия - Blu-ray CEE|
Видео: 768x326 (2.35:1), 23.976 fps, x264 ~890 kbps avg, 0.148 bit/pixel
Аудио: английский48 KHz / 24 KHz, AAC HE-AAC / LC, 2/0 (L,R) ch, ~64 kbps |Дубляж, Blu-Ray CEE|48 KHz / 24 KHz, AAC HE-AAC / LC, 2/0 (L,R) ch, ~64 kbps |Оригинал|
Скачать

Загрузка начнется в течение 5 сек.

743.89 MB

Название: Как приручить дракона 2 / How to Train Your Dragon 2 (2014) BDRip-AVC от HELLYWOOD | Лицензия
Перевод: Профессиональный (полное дублирование) [лицензия BD EUR]
Формат видео: MKV
Видео: х.264, 960x408 (2,35:1), 23,976 fps, 1859 kbps, 0.198 bit/pixel
Аудио: 48 kHz, AC3 Dolby Digital, 2/0 (L,R,) ch, 192.00 kbps
Скачать

Загрузка начнется в течение 5 сек.

1.46 GB

Название: Как приручить дракона 2 / How to Train Your Dragon 2 (2014) BDRip-AVC от HELLYWOOD | Лицензия
Перевод: Профессиональный (полное дублирование) [лицензия BD EUR]
Формат видео: MKV
Видео: х.264, 1092x464 (2,35:1), 23,976 fps, 3192 kbps, 0.263 bit/pixel
Аудио: 48 kHz, AC3 Dolby Digital, 3/2 (L,C,R,l,r) + LFE ch, 448.00 kbps | RUS48 kHz, AC3 Dolby Digital, 3/2 (L,C,R,l,r) + LFE ch, 448.00 kbps | ENG
Скачать

Загрузка начнется в течение 5 сек.

2.91 GB

Название: Как приручить дракона 2 / How to Train Your Dragon 2 (2014) BDRip от New-Team | Лицензия
Качество видео: BDRip |исх. Blu-ray CEE 1080p|
Перевод: Профессиональный (полное дублирование) |Лицензия - Blu-ray CEE|
Видео: 720x304 (2.35:1), 23.976 fps, XviD 65 ~2153 kbps avg, 0.410 bit/pixel
Аудио: английский48 kHz, AC3 Dolby Digital, 3/2 (L,C,R,l,r) + LFE ch, 448.00 kbps Constant |Дубляж, Blu-Ray CEE|48 kHz, AC3 Dolby Digital, 3/2 (L,C,R,l,r) + LFE ch, 448.00 kbps Constant |Оригинал|
Скачать

Загрузка начнется в течение 5 сек.

2.18 GB

Название: Как приручить дракона 2 / How to Train Your Dragon 2 (2014) BDRip 720p от NNNB | 60 fps
Качество видео: BDRip 720p (исходник Blu-ray Disc)
Перевод: Дублированный
Видео: 1280x544, 5430 Кбит/сек, 59.940 кадр/сек, AVC, x264, [email protected], 2.35:1, 0.130 Бит/[Пиксели*Кадры]
Аудио: AC-3, 448 Кбит/сек, 6 канала(ов), 48,0 КГц - Дублированный / РусскийAC-3, 640 Кбит/сек, 6 канала(ов), 48,0 КГц - Оригинал / Английский
Скачать

Загрузка начнется в течение 5 сек.

4.64 GB

Название: Как приручить дракона 2 / How to Train Your Dragon 2 (2014) BDRip-AVC от HQCLUB | Лицензия
Качество видео: BDRip-AVC (источник: / Blu-ray EUR / 1080p)
Перевод: Профессиональный (полное дублирование), BD EUR + Профессиональный (полное дублирование), украинский
Формат видео: MKV
Видео: 1120x476 (2.35:1), 23.976 fps, MPEG-4 AVC, ~3384 kbps avg, 0.265 bit/pixel
Аудио: английский+ Профессиональный (полное дублирование), украинский48 kHz, AC3 Dolby Digital, 3/2 (L,C,R,l,r) + LFE ch, ~448 kbps avg (DUB)48 kHz, AC3 Dolby Digital, 3/2 (L,C,R,l,r) + LFE ch, ~448 kbps avg (ENG)48 kHz, AC3 Dolby Digital, 3/2 (L,C,R,l,r) + LFE ch, ~448 kbps avg (UKR) (отдельно)
Скачать

Загрузка начнется в течение 5 сек.

3.11 GB

Название: Как приручить дракона 2 / How to Train Your Dragon 2 (2014) BDRip от HQCLUB | Лицензия
Качество видео: BDRip (источник: / Blu-ray EUR / 1080p)
Перевод: Профессиональный (полное дублирование), BD EUR + Профессиональный (полное дублирование), украинский
Формат видео: AVI
Видео: 720x304 (2.37:1), 23.976 fps, XviD build 65 ~2153 kbps avg, 0.41 bit/pixel
Аудио: английский+ Профессиональный (полное дублирование), украинский48 kHz, AC3 Dolby Digital, 3/2 (L,C,R,l,r) + LFE ch, ~448 kbps avg (DUB)48 kHz, AC3 Dolby Digital, 3/2 (L,C,R,l,r) + LFE ch, ~448 kbps avg (ENG)48 kHz, AC3 Dolby Digital, 3/2 (L,C,R,l,r) + LFE ch, ~448 kbps avg (UKR) (отдельно)
Скачать

Загрузка начнется в течение 5 сек.

2.18 GB

Название: Как приручить дракона 2 / How to Train Your Dragon 2 (2014) BDRip от New-Team | Лицензия
Качество видео: BDRip |исх. Blu-ray CEE 1080p|
Перевод: Профессиональный (полное дублирование) |Лицензия - Blu-ray CEE|
Видео: 720x304 (2.35:1), 23.976 fps, XviD 65 ~882 kbps avg, 0.168 bit/pixel
Аудио: 48 kHz, MPEG Layer 3, 2 ch, 128.00 kbps Constant |Дубляж, Blu-Ray CEE|
Скачать

Загрузка начнется в течение 5 сек.

742.82 MB

Название: Как приручить дракона 2 / How To Train Your Dragon 2 (2014) BDRip-AVC от MediaClub | D | Лицензия
Качество видео: BDRip (AVC)
Перевод: Дублированный
Видео: MPEG-4 AVC, 2500 Кбит/с, 1024x436, 23.976 кадр/с
Аудио: Русский (AC3, 6 ch, 448 Кбит/с) / ДублированныйУкраинский (AC3, 6 ch, 448 Кбит/с) / ДублированныйАнглийский (AC3, 6 ch, 448 Кбит/с)
Скачать

Загрузка начнется в течение 5 сек.

2.74 GB

Название: Как приручить дракона 2 / How to Train Your Dragon 2 (2014) BDRip-AVC от ExKinoRay | D | Лицензия
Качество видео: BDRip (AVC)
Перевод: Дублированный (Лицензия)
Видео: MPEG-4 AVC, 2080 Кбит/с, 1024x432
Аудио: Русский, украинский, английский (AС3, 6 ch, 448 Кбит/c)
Скачать

Загрузка начнется в течение 5 сек.

2.44 GB

Название: Как приручить дракона 2 / How to Train Your Dragon 2 (2014) BDRip от New-Team | Лицензия
Качество видео: BDRip |исх. Blu-ray CEE 1080p|
Перевод: Профессиональный (полное дублирование) |Лицензия - Blu-ray CEE|
Видео: 720x304 (2.35:1), 23.976 fps, XviD 65 ~1577 kbps avg, 0.312 bit/pixel
Аудио: 48 kHz, AC3 Dolby Digital, 3/2 (L,C,R,l,r) + LFE ch, 448.00 kbps Constant |Дубляж, Blu-Ray CEE|
Скачать

Загрузка начнется в течение 5 сек.

1.45 GB

Название: Как приручить дракона 2 / How to Train Your Dragon 2 (2014) BDRip 1080p от Neofilm | Лицензия
Качество видео: BDRip 720p
Перевод: Дублированный
Видео: x.264 9551 kb/s, 1920x816, 23.976 fps
Аудио: AC3, 448 kb/s (6Ch)-Дубляж (rus)
Скачать

Загрузка начнется в течение 5 сек.

7.76 GB

Название: Как приручить дракона 2 / How to Train Your Dragon 2 (2014) BDRip 1080p от Ash61 | 3D-Video | halfOU
Качество видео: BDRip (by Ash61)
Перевод: Профессиональный (дублированный)
Видео: x264 AVC / 23,976 fps / 1920х1080p / ~8.50 Mbps
Аудио: AC3 #1 - Русский / AC3 / 48 KHz / 5.1 ch / 640 Kbps (Дубляж - BD 3D Eur)
Скачать

Загрузка начнется в течение 5 сек.

7.44 GB

Название: Как приручить дракона 2 / How To Train Your Dragon 2 (2014) BDRip 1080p от MediaClub | Лицензия
Перевод: Профессиональный (полное дублирование) Blu-Ray EUR
Формат видео: Matroska
Видео: 1920x816 at 23.976 fps, [email protected], ~12.2 Mbps avg
Скачать

Загрузка начнется в течение 5 сек.

10.33 GB

Название: Как приручить дракона 2 / How to Train Your Dragon 2 (2014) BDRip 1080p от ExKinoRay | D | Лицензия
Качество видео: BDRip (1080p)
Перевод: Дублированный
Видео: MPEG-4 AVC, 8888 Кбит/с, 1920x816, 23.976 кадр/с
Аудио: Русский (AC3, 6 ch, 640 Кбит/с), (DTS, 6 ch, 768 Кбит/с), латышский, литовский, эстонский, украинский (AC3, 6 ch, 448 Кбит/с), английский (DTS, 6 ch, 1509 Кбит/с)
Скачать

Загрузка начнется в течение 5 сек.

9.68 GB

Название: Как приручить дракона 2 / How to Train Your Dragon 2 (2014) BDRip 720p от Neofilm
Качество видео: BDRip 720p
Перевод: Дублированный
Видео: x.264 4795 kb/s, 1280x544, 23.976 fps
Аудио: AC3, 448 kb/s (6Ch)-Дубляж (rus)
Скачать

Загрузка начнется в течение 5 сек.

4.37 GB

Название: Как приручить дракона 2 / How to Train Your Dragon 2 (2014) BDRemux 1080p | Лицензия
Качество видео: BDRemux 1080p | Лицензия
Перевод: Дубляж
Видео: H.264 1920x1080, 23293 kbps, 23,976 fps
Аудио: DTS Audio Russian 768 kbps 5.1 / 48 kHz / 768 kbps / 24-bit
Скачать

Загрузка начнется в течение 5 сек.

21.18 GB

Название: Как приручить дракона 2 / How to Train Your Dragon 2 (2014) Blu-Ray 1080p от amazon | D | 3D Video | лицензия
Качество видео: Blu-Ray (1080p)
Перевод: Дублированный [лицензия]
Видео: MPEG-4 AVC, 23293 Кбит/с, 1920x1080, 23.976 кадр/с
Аудио: Русский (DTS, 6 ch, 768 Кбит/с), английский, испанский, французский, португальский, эстонский, латышский,литовский, украинский (AC3, 6 ch, 448 Кбит/с), английский (DTS-HD MA, 8 ch, 5237 Кбит/с)
Скачать

Загрузка начнется в течение 5 сек.

38.48 GB

Название: Как приручить дракона 2 / How to Train Your Dragon 2 (2014) Blu-Ray 1080p от amazon | D | лицензия
Качество видео: Blu-Ray (1080p)
Перевод: Дублированный [лицензия]
Видео: MPEG-4 AVC, 23293 Кбит/с, 1920x1080, 23.976 кадр/с
Аудио: Русский, датский, финский, норвежский, шведский (DTS, 6 ch, 768 Кбит/с), эстонский, латышский, литовский, китайский, украинский (AC3, 6 ch, 448 Кбит/с), английский (DTS-HD MA, 8 ch, 5237 Кбит/с)
Скачать

Загрузка начнется в течение 5 сек.

37.53 GB

Название: Как приручить дракона 2 / How to Train Your Dragon 2 (2014) DVD9 от amazon | D | лицензия
Качество видео: DVD
Перевод: Дублированный [лицензия]
Видео: PAL 16:9 ([email protected]) VBR Auto Letterboxed ~ 6651.27 kbps avg
Аудио: русский (Dolby AC3, 6 ch, 448 kbps)английский (Dolby AC3, 6 ch, 448 kbps)эстонский (Dolby AC3, 6 ch, 448 kbps)латышский (Dolby AC3, 6 ch, 448 kbps)литовский (Dolby AC3, 6 ch, 448 kbps)
Скачать

Загрузка начнется в течение 5 сек.

7.54 GB

Название: Как приручить дракона 2 / How to Train Your Dragon 2 (2014) WEB-DLRip-AVC | iPhone | D iTunes
Качество видео: WEB-DLRip-AVC [480p]
Перевод: Русский дублированный
Видео: H.264 [email protected] (2.35:1) at 23.976 fps, AVC at 1800 kbps
Аудио: 1: АAС 2.0 170 kbps - Русский дублированный (iTunes)
Скачать

Загрузка начнется в течение 5 сек.

1.59 GB

Название: Как приручить дракона 2 / How to Train Your Dragon 2 (2014) WEB-DLRip от Scarabey | D | iTunes
Качество видео: WEB-DLRip
Перевод: Профессиональный (полное дублирование) [iTunes]
Формат видео: AVI
Видео: 688x288 (2.39:1), 23.976 fps, XviD build 73 ~880 kbps avg, 0.19 bit/pixel
Аудио: 48 kHz, MPEG Layer 3, 2 ch, ~128.00 kbps avg
Скачать

Загрузка начнется в течение 5 сек.

743.63 MB

Название: Как приручить дракона 2 / How to Train Your Dragon 2 (2014) WEB-DL 720p | iTunes
Качество видео: WEB-DL 720p
Перевод: Дублированное [iTunes]
Формат видео: MKV
Видео: 3931 kb/s, 1280x540
Аудио: AC3, 384 kb/s (6 ch)
Скачать

Загрузка начнется в течение 5 сек.

3.43 GB

Название: Как приручить дракона 2 / How to Train Your Dragon 2 (2014) WEB-DLRip-AVC от ExKinoRay | iTunes
Качество видео: WEB-DLRip (AVC)
Перевод: Дублированный
Видео: MPEG-4 AVC, 2068 Кбит/с, 1024x432
Аудио: Русский (AC3, 6 ch, 384 Кбит/с), английский (AAC, 2 ch, 160 Кбит/c)
Скачать

Загрузка начнется в течение 5 сек.

1.86 GB

Название: Как приручить дракона 2 / How to Train Your Dragon 2 (2014) WEBRip от Generalfilm | КПК | iTunes
Качество видео: WEBRip | КПК
Перевод: Дублированное [iTunes]
Видео: кодек: x264, формат: mp4, размер кадра: 480х192, битрейт: 350 кб/с
Аудио: кодек: AAC LC 2.0, битрейт: 128 кб/с
Скачать

Загрузка начнется в течение 5 сек.

350.47 MB

Название: Как приручить дракона 2 / How to Train Your Dragon 2 (2014) WEB-DLRip | iTunes
Качество видео: WEB-DLRip [Рип с WEB-DL 720p]
Перевод: Дублированное [iTunes]
Формат видео: AVI (XviD)
Видео: 1648 kb/s, 720x304
Аудио: AC3, 384 kb/s (6 ch)
Скачать

Загрузка начнется в течение 5 сек.

1.46 GB

Название: Как приручить дракона 2 / How to Train Your Dragon 2 (2014) WEB-DLRip от New-Team | iTunes
Качество видео: WEB-DLRip |исх. / WEB-DL 720p|
Перевод: Профессиональный (полное дублирование) |iTunes Russia|
Видео: 720x304 (2.35:1), 23.976 fps, XviD 65 ~1637 kbps avg, 0.312 bit/pixel
Аудио: 48 kHz, AC3 Dolby Digital, 3/2 (L,C,R,l,r) + LFE ch, 384.00 kbps Constant |Дубляж, iTunes|
Скачать

Загрузка начнется в течение 5 сек.

1.45 GB

Название: Как приручить дракона 2 / How to Train Your Dragon 2 (2014) WEB-DLRip | iTunes
Качество видео: WEB-DLRip [Рип с WEB-DL 720p]
Перевод: Дублированное [iTunes]
Формат видео: AVI (XviD)
Видео: 819 kb/s, 640x272
Аудио: AC3, 128 kb/s (2 ch)
Скачать

Загрузка начнется в течение 5 сек.

699.60 MB

Название: Как приручить дракона 2 / How to Train Your Dragon 2 (2014) WEB-DLRip от New-Team | iTunes
Качество видео: WEB-DLRip |исх. / WEB-DL 720p|
Перевод: Профессиональный (полное дублирование) |iTunes Russia|
Видео: 720x304 (2.35:1), 23.976 fps, XviD 65 ~882 kbps avg, 0.168 bit/pixel
Аудио: 48 kHz, MPEG Layer 3, 2 ch, 128.00 kbps Constant |Дубляж, iTunes|
Скачать

Загрузка начнется в течение 5 сек.

744.63 MB

Название: Как приручить дракона 2 / How to Train Your Dragon 2 (2014) WEB-DLRip от Scarabey | D | iTunes
Качество видео: WEB-DLRip
Перевод: Профессиональный (полное дублирование) [iTunes]
Формат видео: AVI
Видео: 720x304 (2.37:1), 23.976 fps, XviD build 73 ~1637 kbps avg, 0.31 bit/pixel
Аудио: 48 kHz, AC3 Dolby Digital, 3/2 (L,C,R,l,r) + LFE ch, ~384 kbps
Скачать

Загрузка начнется в течение 5 сек.

1.45 GB

www.kinovit.net

Как приручить дракона 2 через торрент

Размер: 7.53 GB | Добавлен: 3 года назад | Торрент скачан:219 раз
Реклама Дарим 3000 рублей за регистрацию, не упусти свой шанс получить шикарный бонус!!!

20-10-2014 21:03 Как приручить дракона 2 Скачать торрент  

Как приручить дракона 2 / How to Train Your Dragon 2Год выпуска: 2014Страна: СШАЖанр: мультфильм, фэнтези, комедия, приключения, семейныйПродолжительность: 01:41:55Перевод: |Профессиональный (полное дублирование), Лицензия|Режиссер: Дин ДеБлуа / Dean DeBloisВ ролях: Джей Барушель (Hiccup, озвучка), Кейт Бланшетт (Valka, озвучка), Джерард Батлер (Stoick, озвучка), Крэйг Фергюсон (Gobber, озвучка), Америка Феррера (Astrid, озвучка), Джона Хилл (Snotlout, озвучка), Кристофер Минц-Плассе (Fishlegs, озвучка), ТиДжей Миллер (Tuffnut, озвучка), Кристен Уиг (Ruffnut, озвучка), Джимон Хонсу (Drago, озвучка), Кит Харингтон (Eret, озвучка), Кирон Эллиотт (Hoark the Haggard, озвучка)Описание: С момента примирения викингов и драконов прошло пять лет. Пока Астрид, Сморкала и остальные ребята проводят время, соревнуясь друг с другом в популярных на острове драконьих гонках, Иккинг и Беззубик путешествуют по небу, составляя карту неизвестных мест. Когда одно из их приключений приводит к открытию тайной ледяной пещеры, которая является домом для сотен ранее невиданных диких драконов и таинственного драконьего всадника, два друга оказываются в центре битвы за защиту мира.Рейтинг MPAA: PG - Рекомендуется присутствие родителейКачество: BDRip 1080p|Исходник: Blu-ray EUR 1080p AVC DTS 5.1Формат: MKVВидео кодек: AVCАудио кодек: AC3, DTSВидео: AVC at 9400 Кбит/сек 1920 x 816 (2.353) at 23.976 fpsАудио №1: русский / DTS / 5.1 / 48 kHz / 755 kbps / 24 bit |Дубляж|Аудио №2: украинский / AC3 / 5.1 / 48 kHz / 448 kbps / 16 bit |Украинский дубляж|Оформление: Messa-fanРип: by XLASER

Код:

Формат                                   : MatroskaВерсия формата                           : Version 4 / Version 2Размер файла                             : 7,53 ГбайтПродолжительность                        : 1 ч. 41 м.Общий поток                              : 10,6 Мбит/секНазвание фильма                          : Как приручить дракона 2 (2014)_Rip by XLASERДата кодирования                         : UTC 2014-10-20 07:58:02Программа кодирования                    : mkvmerge v6.8.0 ('Theme for Great Cities') 64bit built on Mar  2 2014 21:34:26Библиотека кодирования                   : libebml v1.3.0 + libmatroska v1.4.1

ВидеоИдентификатор                            : 1Формат                                   : AVCФормат/Информация                        : Advanced Video CodecПрофиль формата                          : [email protected]Параметр CABAC формата                   : ДаПараметр ReFrames формата                : 3 кадраИдентификатор кодека                     : V_MPEG4/ISO/AVCПродолжительность                        : 1 ч. 41 м.Битрейт                                  : 9400 Кбит/секШирина                                   : 1920 пикселейВысота                                   : 816 пикселейСоотношение сторон                       : 2,35:1Режим частоты кадров                     : ПостоянныйЧастота кадров                           : 23,976 кадра/секЦветовое пространство                    : YUVСубдискретизация насыщенности            : 4:2:0Битовая глубина                          : 8 битТип развёртки                            : ПрогрессивнаяБит/(Пиксели*Кадры)                      : 0.250Размер потока                            : 6,53 Гбайт (87%)Заголовок                                : Kak.priruchitj.drakona.2.2014.x264.Blu-Ray.Remux.1080p.gogamel74.ExKinoRayБиблиотека кодирования                   : x264 core 128 r2216M 198a7eaНастройки программы                      : cabac=1 / ref=4 / deblock=1:-3:-3 / analyse=0x3:0x133 / me=umh / subme=9 / psy=1 / psy_rd=1.00:0.20 / mixed_ref=1 / me_range=32 / chroma_me=1 / trellis=1 / 8x8dct=1 / cqm=0 / deadzone=21,11 / fast_pskip=1 / chroma_qp_offset=-3 / threads=3 / lookahead_threads=1 / sliced_threads=0 / nr=0 / decimate=1 / interlaced=0 / bluray_compat=0 / constrained_intra=0 / bframes=6 / b_pyramid=1 / b_adapt=2 / b_bias=0 / direct=3 / weightb=1 / open_gop=0 / weightp=2 / keyint=230 / keyint_min=23 / scenecut=40 / intra_refresh=0 / rc_lookahead=40 / rc=abr / mbtree=1 / bitrate=9400 / ratetol=1.0 / qcomp=0.60 / qpmin=10 / qpmax=51 / qpstep=4 / ip_ratio=1.40 / aq=1:1.00Язык                                     : EnglishDefault                                  : ДаForced                                   : Нет

Аудио #1Идентификатор                            : 2Формат                                   : DTSФормат/Информация                        : Digital Theater SystemsИдентификатор кодека                     : A_DTSПродолжительность                        : 1 ч. 41 м.Вид битрейта                             : ПостоянныйБитрейт                                  : 755 Кбит/секКаналы                                   : 6 каналовРасположение каналов                     : Front: L C R, Side: L R, LFEЧастота                                  : 48,0 КГцБитовая глубина                          : 24 битМетод сжатия                             : С потерямиРазмер потока                            : 550 Мбайт (7%)Заголовок                                : DUB - RUS - BD EUR - DTS, 48 KHz, 6 ch, 768 kbps, 24 bitЯзык                                     : RussianDefault                                  : ДаForced                                   : Да

Аудио #2Идентификатор                            : 3Формат                                   : AC-3Формат/Информация                        : Audio Coding 3Расширение режима                        : CM (complete main)Параметр Endianness формата              : BigИдентификатор кодека                     : A_AC3Продолжительность                        : 1 ч. 41 м.Вид битрейта                             : ПостоянныйБитрейт                                  : 448 Кбит/секКаналы                                   : 6 каналовРасположение каналов                     : Front: L C R, Side: L R, LFEЧастота                                  : 48,0 КГцБитовая глубина                          : 16 битМетод сжатия                             : С потерямиРазмер потока                            : 327 Мбайт (4%)Заголовок                                : DUB - UKR - BD EUR - AC3, 48 KHz, 6 ch, 448 kbps, 16 bitЯзык                                     : UkrainianDefault                                  : НетForced                                   : Нет

  • В трейлере фильма была использована музыка «Beyond the Clouds», написанная музыкальной продакшн-компанией Audiomachine.
  • Это первый фильм студии DreamWorks Animation, в котором было использовано новое программное обеспечение по анимации и освещению. Новые программы, носящие названия «Premo» и «Torch», позволили добиться улучшений в анимации лиц, в ощущении жира, ощущении от покачивания дряблой кожи и от движения кожи по мышцам.
  • Когда Дину ДеБлуа предложили снимать сиквел, он согласился на условиях, что ему можно будет расширить франшизу до трилогии.
  • Основным источником вдохновения при создании этого фильма для Дина ДеБлуа послужил фильм «Звездные войны: Эпизод 5 – Империя наносит ответный удар» (1980).
  • Крис Сандерс, сценарист и режиссер фильма «Как приручить дракона» (2010), в этом фильме отметился лишь как исполнительный продюсер. Сандерс не смог поучаствовать в этом проекте в качестве сценариста и режиссера из-за занятости в работе над фильмом «Семейка Крудс» (2013).
  • В отличие от первого фильма дистрибьютором этого стала студия «20th Century Fox», поскольку в 2012 году DreamWorks Animation отказалась от сотрудничества со студией Paramount Pictures.
  • Рисуя острова своего фэнтези-мира, художники «Как приручить дракона 2» вдохновлялись природой Норвегии.
  • Скачать Как приручить дракона 2 через торрент http://i68.fastpic.ru/big/2014/1019/07/c748503174c9ccab48fa49cb8b6a2e07.jpg Скачать фильм Как приручить дракона 2 через торрент бесплантно в хорошем качестве Описание: С момента примирения викингов и драконов прошло пять лет. Пока Астрид, Сморкала и остальные ребята проводят время, соревнуясь ... 2014-10-20 21:03 9.9 10 10

    Loading...

    Loading...

    Рекламный пират

    Дорогой пользователь! Огромная просьба, поблагодарите релизера, оцените раздачу и оставьте свои комментарий, если Вы скачали Как приручить дракона 2 через торрент бесплатно! Внесите свою лепту в развитие PiratBit!

    Комментировать посты могут только пользователи прошедшие не сложную регистрацию

    Как приручить дракона 2 через торрент Скачать бесплатно Как приручить дракона 2 Как приручить дракона 2 скачать торрент Как приручить дракона 2 смотреть онлайн Cкачать фильм Как приручить дракона 2 бесплатно Как приручить дракона 2 скачать торрент в хорошем качестве Как приручить дракона 2 смотреть онлайн бесплатно в хорошем качестве

    Вы не можете начинать темыВы не можете отвечать на сообщенияВы не можете редактировать свои сообщенияВы не можете удалять свои сообщенияВы не можете голосовать в опросахВы не можете прикреплять файлы к сообщениямВы можете скачивать файлы

    piratbit.ru

    Как приручить дракона 2 через торрент

    Общее Уникальный идентификатор : 194603802427606594628626125558632297038 (0x9267543BE13FFF3C8F462A5A99A2324E) Полное имя : N:\Мультфильмы\Kak.Priruchit'.Drakona.2.2014.DUAL.BDRip.x264.-HELLYWOOD.mkv Формат : Matroska Версия формата : Version 4 / Version 2 Размер файла : 2,91 Гбайт Продолжительность : 1 ч. 41 м. Общий поток : 4090 Кбит/сек Название фильма : How to Train Your Dragon 2 (2014) - HELLYWOOD Дата кодирования : UTC 2014-10-19 09:58:27 Программа кодирования : mkvmerge v5.9.0 ('On The Loose') built on Dec 15 2012 16:39:58 Библиотека кодирования : libebml v1.3.0 + libmatroska v1.4.0

    Видео Идентификатор : 1 Формат : AVC Формат/Информация : Advanced Video Codec Профиль формата : [email protected] Параметр CABAC формата : Да Параметр ReFrames формата : 10 кадров Идентификатор кодека : V_MPEG4/ISO/AVC Продолжительность : 1 ч. 41 м. Битрейт : 3192 Кбит/сек Ширина : 1092 пикселя Высота : 464 пикселя Соотношение сторон : 2,35:1 Режим частоты кадров : Постоянный Частота кадров : 23,976 кадра/сек Цветовое пространство : YUV Субдискретизация насыщенности : 4:2:0 Битовая глубина : 8 бит Тип развёртки : Прогрессивная Бит/(Пиксели*Кадры) : 0.263 Размер потока : 2,22 Гбайт (76%) Заголовок : potroks Библиотека кодирования : x264 core 130 r2273 b3065e6 Настройки программы : cabac=1 / ref=10 / deblock=1:-1:-1 / analyse=0x3:0x133 / me=umh / subme=11 / psy=1 / psy_rd=1.10:0.05 / mixed_ref=1 / me_range=48 / chroma_me=1 / trellis=2 / 8x8dct=1 / cqm=0 / deadzone=21,11 / fast_pskip=0 / chroma_qp_offset=-3 / threads=9 / lookahead_threads=6 / sliced_threads=0 / nr=0 / decimate=0 / interlaced=0 / bluray_compat=0 / constrained_intra=0 / bframes=11 / b_pyramid=2 / b_adapt=2 / b_bias=0 / direct=3 / weightb=1 / open_gop=0 / weightp=2 / keyint=250 / keyint_min=23 / scenecut=40 / intra_refresh=0 / rc_lookahead=60 / rc=2pass / mbtree=0 / bitrate=3192 / ratetol=1.0 / qcomp=0.70 / qpmin=0 / qpmax=69 / qpstep=4 / cplxblur=20.0 / qblur=0.5 / vbv_maxrate=50000 / vbv_bufsize=62500 / nal_hrd=none / ip_ratio=1.35 / pb_ratio=1.25 / aq=1:0.70 Язык : English Default : Да Forced : Нет

    Аудио #1 Идентификатор : 2 Формат : AC-3 Формат/Информация : Audio Coding 3 Расширение режима : CM (complete main) Параметр Endianness формата : Big Идентификатор кодека : A_AC3 Продолжительность : 1 ч. 41 м. Вид битрейта : Постоянный Битрейт : 448 Кбит/сек Каналы : 6 каналов Расположение каналов : Front: L C R, Side: L R, LFE Частота : 48,0 КГц Битовая глубина : 16 бит Метод сжатия : С потерями Размер потока : 327 Мбайт (11%) Default : Да Forced : Нет

    Аудио #2 Идентификатор : 3 Формат : AC-3 Формат/Информация : Audio Coding 3 Расширение режима : CM (complete main) Параметр Endianness формата : Big Идентификатор кодека : A_AC3 Продолжительность : 1 ч. 41 м. Вид битрейта : Постоянный Битрейт : 448 Кбит/сек Каналы : 6 каналов Расположение каналов : Front: L C R, Side: L R, LFE Частота : 48,0 КГц Битовая глубина : 16 бит Метод сжатия : С потерями Размер потока : 327 Мбайт (11%) Default : Нет Forced : Нет

    Текст #1 Идентификатор : 4 Формат : UTF-8 Идентификатор кодека : S_TEXT/UTF8 Идентификатор кодека/Информация : UTF-8 Plain Text Заголовок : форс. Язык : Russian Default : Да Forced : Да

    Текст #2 Идентификатор : 5 Формат : UTF-8 Идентификатор кодека : S_TEXT/UTF8 Идентификатор кодека/Информация : UTF-8 Plain Text Заголовок : полные Язык : Russian Default : Нет Forced : Нет

    Текст #3 Идентификатор : 6 Формат : UTF-8 Идентификатор кодека : S_TEXT/UTF8 Идентификатор кодека/Информация : UTF-8 Plain Text Заголовок : полные Язык : Ukrainian Default : Нет Forced : Нет

    Текст #4 Идентификатор : 7 Формат : UTF-8 Идентификатор кодека : S_TEXT/UTF8 Идентификатор кодека/Информация : UTF-8 Plain Text Заголовок : SDH Язык : English Default : Нет Forced : Нет

    Текст #5 Идентификатор : 8 Формат : UTF-8 Идентификатор кодека : S_TEXT/UTF8 Идентификатор кодека/Информация : UTF-8 Plain Text Заголовок : Full Язык : English Default : Нет Forced : Нет

    Меню 00:00:00.000 : en:(01)00:00:00:000 00:03:27.999 : en:(02)00:03:27:999 00:05:20.695 : en:(03)00:05:20:695 00:07:46.007 : en:(04)00:07:46:007 00:10:16.032 : en:(05)00:10:16:032 00:13:16.337 : en:(06)00:13:16:337 00:16:59.059 : en:(07)00:16:59:059 00:20:01.700 : en:(08)00:20:01:700 00:23:43.255 : en:(09)00:23:43:255 00:27:14.466 : en:(10)00:27:14:466 00:29:21.468 : en:(11)00:29:21:468 00:33:41.936 : en:(12)00:33:41:936 00:37:05.473 : en:(13)00:37:05:473 00:39:06.969 : en:(14)00:39:06:969 00:40:59.165 : en:(15)00:40:59:165 00:45:03.992 : en:(16)00:45:03:992 00:47:16.625 : en:(17)00:47:16:625 00:51:51.525 : en:(18)00:51:51:525 00:54:35.730 : en:(19)00:54:35:730 00:56:15.997 : en:(20)00:56:15:997 01:00:33.171 : en:(21)01:00:33:171 01:04:28.781 : en:(22)01:04:28:781 01:06:34.949 : en:(23)01:06:34:949 01:09:44.138 : en:(24)01:09:44:138 01:14:01.854 : en:(25)01:14:01:854 01:18:35.127 : en:(26)01:18:35:127 01:21:07.153 : en:(27)01:21:07:153 01:22:55.053 : en:(28)01:22:55:053 01:24:30.065 : en:(29)01:24:30:065 01:28:04.654 : en:(30)01:28:04:654 01:31:03.499 : en:(31)01:31:03:499 01:32:21.994 : en:(32)01:32:21:994 01:41:54.858 : en:(33)01:41:54:858

    piratbit.ru

    Как приручить дракона 2 через торрент

    Раздают: 1 [ 0 KB/s ]
    Размер: 1.37 GB | Добавлен: 3 года назад | Торрент скачан:1595 раз
    Реклама Дарим 3000 рублей за регистрацию, не упусти свой шанс получить шикарный бонус!!!

    18-10-2014 01:44 Как приручить дракона 2 Скачать торрент  

    Как приручить дракона 2 / How to Train Your Dragon 2
  • Год выпуска: 2014
  • Страна: США
  • Жанр: мультфильм, фэнтези, комедия, приключения, семейный
  • Продолжительность: 01:41:55
  • Перевод: Дубляж - [Лицензия]
  • Режиссер: Дин ДеБлуа / Dean DeBlois
  • В ролях: Джей Барушель (Hiccup, озвучка), Кейт Бланшетт (Valka, озвучка), Джерард Батлер (Stoick, озвучка), Крэйг Фергюсон (Gobber, озвучка), Америка Феррера (Astrid, озвучка), Джона Хилл (Snotlout, озвучка), Кристофер Минц-Плассе (Fishlegs, озвучка), ТиДжей Миллер (Tuffnut, озвучка), Кристен Уиг (Ruffnut, озвучка), Джимон Хонсу (Drago, озвучка), Кит Харингтон (Eret, озвучка), Кирон Эллиотт (Hoark the Haggard, озвучка)
  • Описание: С момента примирения викингов и драконов прошло пять лет. Пока Астрид, Сморкала и остальные ребята проводят время, соревнуясь друг с другом в популярных на острове драконьих гонках, Иккинг и Беззубик путешествуют по небу, составляя карту неизвестных мест. Когда одно из их приключений приводит к открытию тайной ледяной пещеры, которая является домом для сотен ранее невиданных диких драконов и таинственного драконьего всадника, два друга оказываются в центре битвы за защиту мира.
  • Рейтинг:
  • Качество: HDRip
  • Формат: :AVI
  • Видео кодек: XviD
  • Аудио кодек: AC3
  • Видео: 720x304 (2.35:1), 1462 kbps, 23,976 fps, 0,279 bpp
  • Аудио: 5.1 / 48 kHz / 448 kbps / 16 bit
  • Релиз от: GEKADOL

    Код:

    GeneralComplete name                            : I:\Kak.P1rUch2t.Drak0na.2.2014.D.HDRip.1400MB.aviFormat                                   : AVIFormat/Info                              : Audio Video InterleaveFile size                                : 1.37 GiBDuration                                 : 1h 41mnOverall bit rate                         : 1 920 KbpsWriting application                      : VirtualDubMod 1.5.10.2 (build 2540/release)Writing library                          : VirtualDubMod build 2540/release

    VideoID                                       : 0Format                                   : MPEG-4 VisualFormat profile                           : Advanced [email protected] settings, BVOP                    : 2Format settings, QPel                    : NoFormat settings, GMC                     : No warppointsFormat settings, Matrix                  : Default (MPEG)Codec ID                                 : XVIDCodec ID/Hint                            : XviDDuration                                 : 1h 41mnBit rate                                 : 1 463 KbpsWidth                                    : 720 pixelsHeight                                   : 304 pixelsDisplay aspect ratio                     : 2.35:1Frame rate                               : 23.976 fpsColor space                              : YUVChroma subsampling                       : 4:2:0Bit depth                                : 8 bitsScan type                                : ProgressiveCompression mode                         : LossyBits/(Pixel*Frame)                       : 0.279Stream size                              : 1.04 GiB (76%)Writing library                          : XviD 1.2.1 (UTC 2008-12-04)

    AudioID                                       : 1Format                                   : AC-3Format/Info                              : Audio Coding 3Mode extension                           : CM (complete main)Codec ID                                 : 2000Duration                                 : 1h 41mnBit rate mode                            : ConstantBit rate                                 : 448 KbpsChannel(s)                               : 6 channelsChannel positions                        : Front: L C R, Side: L R, LFESampling rate                            : 48.0 KHzBit depth                                : 16 bitsCompression mode                         : LossyStream size                              : 327 MiB (23%)Alignment                                : Split accross interleavesInterleave, duration                     : 42 ms (1.00 video frame)Interleave, preload duration             : 500 ms

    Скриншоты:
  • Скачать Как приручить дракона 2 через торрент http://i64.fastpic.ru/big/2014/1018/8f/0b1fee38d8ebc96a598d9d44b808918f.jpg Скачать фильм Как приручить дракона 2 через торрент бесплантно в хорошем качестве Описание: С момента примирения викингов и драконов прошло пять лет. Пока Астрид, Сморкала и остальные ребята проводят время, соревнуясь ... 2014-10-18 01:44 9.8 10 36

    Loading...

    Loading...

    Рекламный пират

    Дорогой пользователь! Огромная просьба, поблагодарите релизера, оцените раздачу и оставьте свои комментарий, если Вы скачали Как приручить дракона 2 через торрент бесплатно! Внесите свою лепту в развитие PiratBit!

    Комментировать посты могут только пользователи прошедшие не сложную регистрацию

    Как приручить дракона 2 через торрент Скачать бесплатно Как приручить дракона 2 Как приручить дракона 2 скачать торрент Как приручить дракона 2 смотреть онлайн Cкачать фильм Как приручить дракона 2 бесплатно Как приручить дракона 2 скачать торрент в хорошем качестве Как приручить дракона 2 смотреть онлайн бесплатно в хорошем качестве

    Вы не можете начинать темыВы не можете отвечать на сообщенияВы не можете редактировать свои сообщенияВы не можете удалять свои сообщенияВы не можете голосовать в опросахВы не можете прикреплять файлы к сообщениямВы можете скачивать файлы

    piratbit.ru

    Как приручить дракона 2 через торрент

    Format                                   : MatroskaFormat version                           : Version 2File size                                : 4.64 GiBDuration                                 : 1h 41mnOverall bit rate                         : 6 523 KbpsMovie name                               : Как приручить дракона 2.(2014).BDRip.720p.[envy].[60fps]Encoded date                             : UTC 2014-10-19 14:38:45Writing application                      : mkvmerge v5.8.0 ('No Sleep / Pillow') built on Sep  2 2012 15:37:04Writing library                          : libebml v1.2.3 + libmatroska v1.3.0

    VideoID                                       : 1Format                                   : AVCFormat/Info                              : Advanced Video CodecFormat profile                           : [email protected] settings, CABAC                   : YesFormat settings, ReFrames                : 9 framesCodec ID                                 : V_MPEG4/ISO/AVCDuration                                 : 1h 41mnBit rate                                 : 5 430 KbpsWidth                                    : 1 280 pixelsHeight                                   : 544 pixelsDisplay aspect ratio                     : 2.35:1Frame rate mode                          : ConstantFrame rate                               : 59.880 fpsOriginal frame rate                      : 59.940 fpsColor space                              : YUVChroma subsampling                       : 4:2:0Bit depth                                : 8 bitsScan type                                : ProgressiveBits/(Pixel*Frame)                       : 0.130Stream size                              : 3.78 GiB (81%)Title                                    : Как приручить дракона 2.(2014).BDRip.720p.[envy].[60fps]Writing library                          : x264 core 130 r2273 b3065e6Encoding settings                        : cabac=1 / ref=9 / deblock=1:0:0 / analyse=0x3:0x133 / me=umh / subme=10 / psy=1 / psy_rd=1.00:0.00 / mixed_ref=1 / me_range=32 / chroma_me=1 / trellis=2 / 8x8dct=1 / cqm=0 / deadzone=21,11 / fast_pskip=0 / chroma_qp_offset=-2 / threads=12 / lookahead_threads=2 / sliced_threads=0 / nr=0 / decimate=1 / interlaced=0 / bluray_compat=0 / constrained_intra=0 / bframes=7 / b_pyramid=2 / b_adapt=2 / b_bias=0 / direct=3 / weightb=1 / open_gop=0 / weightp=2 / keyint=250 / keyint_min=25 / scenecut=40 / intra_refresh=0 / rc=2pass / mbtree=0 / bitrate=5430 / ratetol=1.0 / qcomp=0.60 / qpmin=0 / qpmax=69 / qpstep=4 / cplxblur=20.0 / qblur=0.5 / ip_ratio=1.40 / pb_ratio=1.30 / aq=2:1.00Language                                 : EnglishDefault                                  : YesForced                                   : No

    Audio #1ID                                       : 2Format                                   : AC-3Format/Info                              : Audio Coding 3Mode extension                           : CM (complete main)Format settings, Endianness              : BigCodec ID                                 : A_AC3Duration                                 : 1h 41mnBit rate mode                            : ConstantBit rate                                 : 448 KbpsChannel(s)                               : 6 channelsChannel positions                        : Front: L C R, Side: L R, LFESampling rate                            : 48.0 KHzBit depth                                : 16 bitsCompression mode                         : LossyStream size                              : 327 MiB (7%)Title                                    : DubLanguage                                 : RussianDefault                                  : YesForced                                   : No

    Audio #2ID                                       : 3Format                                   : AC-3Format/Info                              : Audio Coding 3Mode extension                           : CM (complete main)Format settings, Endianness              : BigCodec ID                                 : A_AC3Duration                                 : 1h 41mnBit rate mode                            : ConstantBit rate                                 : 640 KbpsChannel(s)                               : 6 channelsChannel positions                        : Front: L C R, Side: L R, LFESampling rate                            : 48.0 KHzBit depth                                : 16 bitsCompression mode                         : LossyStream size                              : 467 MiB (10%)Title                                    : EngLanguage                                 : EnglishDefault                                  : NoForced                                   : No

    Text #1ID                                       : 4Format                                   : UTF-8Codec ID                                 : S_TEXT/UTF8Codec ID/Info                            : UTF-8 Plain TextTitle                                    : fullLanguage                                 : RussianDefault                                  : NoForced                                   : No

    Text #2ID                                       : 5Format                                   : UTF-8Codec ID                                 : S_TEXT/UTF8Codec ID/Info                            : UTF-8 Plain TextTitle                                    : fullLanguage                                 : EnglishDefault                                  : NoForced                                   : No

    Menu00:00:00.000                             : :Chapter 0100:03:27.999                             : :Chapter 0200:05:20.695                             : :Chapter 0300:07:46.007                             : :Chapter 0400:10:16.032                             : :Chapter 0500:13:16.337                             : :Chapter 0600:16:59.059                             : :Chapter 0700:20:01.700                             : :Chapter 0800:23:43.255                             : :Chapter 0900:27:14.466                             : :Chapter 1000:29:21.468                             : :Chapter 1100:33:41.936                             : :Chapter 1200:37:05.473                             : :Chapter 1300:39:06.969                             : :Chapter 1400:40:59.165                             : :Chapter 1500:45:03.992                             : :Chapter 1600:47:16.625                             : :Chapter 1700:51:51.525                             : :Chapter 1800:54:35.730                             : :Chapter 1900:56:15.997                             : :Chapter 2001:00:33.171                             : :Chapter 2101:04:28.781                             : :Chapter 2201:06:34.949                             : :Chapter 2301:09:44.138                             : :Chapter 2401:14:01.854                             : :Chapter 2501:18:35.127                             : :Chapter 2601:21:07.153                             : :Chapter 2701:22:55.053                             : :Chapter 2801:24:30.065                             : :Chapter 2901:28:04.654                             : :Chapter 3001:31:03.499                             : :Chapter 3101:32:21.994                             : :Chapter 32

    piratbit.ru

    Dilogy + Bonus [2010-2014 мультфильм BDRip 1080p / 60 FPS Дубляж] скачать через торрент

    Раздают: 3 [ 0 KB/s ] Качают: 1 [ 0 KB/s ]
    Размер: 30.48 GB | Добавлен: 2 года 11 мес. назад | Торрент скачан:193 раза
    Реклама Дарим 3000 рублей за регистрацию, не упусти свой шанс получить шикарный бонус!!!

    26-10-2014 15:13 Как приручить дракона: Дилогия + Бонус Скачать торрент  

    Название: Как приручить драконаОригинальное название: How to Train Your DragonГод выпуска: 2010Страна: СШАЖанр: мультфильм, фэнтези, комедия, приключения, семейныйПродолжительность: 01:37:51Перевод: ДубляжСубтитры: русские (Полные), английские (Полные)Режиссер: Дин ДеБлуа / Dean DeBlois, Крис Сандерс / Chris SandersВ ролях: Джей Барушель (Hiccup, озвучка), Джерард Батлер (Stoick, озвучка), Крэйг Фергюсон (Gobber, озвучка), Америка Феррера (Astrid, озвучка), Джона Хилл (Snotlout, озвучка), Кристофер Минц-Плассе (Fishlegs, озвучка), ТиДжей Миллер (Tuffnut, озвучка), Кристен Уиг (Ruffnut, озвучка), Робин Аткин Даунс (Ack, озвучка), Филип МакГрэйд (Starkard, озвучка), Кирон Эллиотт (Hoark the Haggard, озвучка), Эшли Дженсен (Phlegma the Fierce, озвучка)Описание: Вы узнаете историю подростка Иккинга, которому не слишком близки традиции его героического племени, много лет ведущего войну с драконами. Мир Иккинга переворачивается с ног на голову, когда он неожиданно встречает дракона Беззубика, который поможет ему и другим викингам увидеть привычный мир с совершенно другой стороны...Рейтингkinopoisk.ru: 8.445 (155 829)imdb.com: 8.20 (337 511)MPAA: PG - Рекомендуется присутствие родителейАвтор рипа:Tiberiumsun69 Качество: BDRip 1080p / 60 FPSФормат: MKVВидео кодек: AVCАудио кодек:AC3Видео: AVC, 1920x816, 14000 kbps, 59,940 fpsАудио №1: русский / AC3 / 5.1 / 48 kHz / 640 kbps / 16 bit |Дубляж| Аудио №2: английский / AC3 / 5.1 / 48 kHz / 640 kbps / 16 bitНавигация по главам: есть GeneralUnique ID : 254537874027156691205997859127853976694 (0xBF7E361B7D50DD76A501E95F0C920C76)Complete name : A:\1080p 60fps\Драконы 1080p 60fps\Как приручить дракона 1 1080p 60fps.mkvFormat : MatroskaFormat version : Version 4 / Version 2File size : 10.4 GiBDuration : 1h 37mnOverall bit rate : 15.3 MbpsEncoded date : UTC 2014-10-26 09:46:19Writing application : mkvmerge v6.9.1 ('Blue Panther') 64bit built on Apr 18 2014 18:23:38Writing library : libebml v1.3.0 + libmatroska v1.4.1

    VideoID : 1Format : AVCFormat/Info : Advanced Video CodecFormat profile : [email protected] settings, CABAC : YesFormat settings, ReFrames : 4 framesCodec ID : V_MPEG4/ISO/AVCDuration : 1h 37mnBit rate : 14.0 MbpsWidth : 1 920 pixelsHeight : 816 pixelsDisplay aspect ratio : 2.35:1Frame rate : 59.940 fpsColor space : YUVChroma subsampling : 4:2:0Bit depth : 8 bitsScan type : ProgressiveBits/(Pixel*Frame) : 0.149Stream size : 9.36 GiB (90%)Writing library : x264 core 130 r2273 b3065e6Encoding settings : cabac=1 / ref=4 / deblock=1:-1:-1 / analyse=0x3:0 / me=umh / subme=9 / psy=1 / psy_rd=1.00:0.00 / mixed_ref=1 / me_range=44 / chroma_me=0 / trellis=2 / 8x8dct=1 / cqm=0 / deadzone=21,11 / fast_pskip=0 / chroma_qp_offset=-2 / threads=12 / lookahead_threads=1 / sliced_threads=0 / nr=0 / decimate=0 / interlaced=0 / bluray_compat=0 / constrained_intra=0 / bframes=5 / b_pyramid=2 / b_adapt=2 / b_bias=0 / direct=3 / weightb=1 / open_gop=0 / weightp=2 / keyint=250 / keyint_min=59 / scenecut=40 / intra_refresh=0 / rc_lookahead=60 / rc=2pass / mbtree=1 / bitrate=14000 / ratetol=1.0 / qcomp=0.80 / qpmin=0 / qpmax=69 / qpstep=4 / cplxblur=20.0 / qblur=0.5 / ip_ratio=1.40 / aq=1:0.80Language : EnglishDefault : YesForced : No

    Audio #1ID : 2Format : AC-3Format/Info : Audio Coding 3Mode extension : CM (complete main)Codec ID : A_AC3Duration : 1h 37mnBit rate mode : ConstantBit rate : 640 KbpsChannel(s) : 6 channelsChannel positions : Front: L C R, Side: L R, LFESampling rate : 48.0 KHzBit depth : 16 bitsCompression mode : LossyStream size : 448 MiB (4%)Title : ДубляжLanguage : RussianDefault : YesForced : No

    Audio #2ID : 3Format : AC-3Format/Info : Audio Coding 3Mode extension : CM (complete main)Codec ID : A_AC3Duration : 1h 37mnBit rate mode : ConstantBit rate : 640 KbpsChannel(s) : 6 channelsChannel positions : Front: L C R, Side: L R, LFESampling rate : 48.0 KHzBit depth : 16 bitsCompression mode : LossyStream size : 448 MiB (4%)Title : ОригиналLanguage : EnglishDefault : NoForced : No

    Text #1ID : 4Format : UTF-8Codec ID : S_TEXT/UTF8Codec ID/Info : UTF-8 Plain TextTitle : ПолныеLanguage : RussianDefault : NoForced : No

    Text #2ID : 5Format : UTF-8Codec ID : S_TEXT/UTF8Codec ID/Info : UTF-8 Plain TextTitle : ПолныеLanguage : EnglishDefault : NoForced : No

    Menu00:00:00.000 : en:00:00:00.00000:08:39.811 : en:00:08:39.81100:11:31.983 : en:00:11:31.98300:15:11.035 : en:00:15:11.03500:21:57.107 : en:00:21:57.10700:27:41.702 : en:00:27:41.70200:33:14.201 : en:00:33:14.20100:39:07.136 : en:00:39:07.13600:43:28.731 : en:00:43:28.73100:47:08.367 : en:00:47:08.36700:49:47.193 : en:00:49:47.19300:59:55.801 : en:00:59:55.80101:04:47.383 : en:01:04:47.38301:09:28.164 : en:01:09:28.16401:12:38.187 : en:01:12:38.18701:23:26.043 : en:01:23:26.04301:28:54.496 : en:01:28:54.496

    Название: Как приручить дракона 2Оригинальное название: How to Train Your Dragon 2Год выпуска: 2014Страна: СШАЖанр: мультфильм, фэнтези, комедия, приключения, семейныйПродолжительность: 01:41:55Перевод: ДубляжСубтитры: русские (Форсированные), русские (Полные), английские (Полные)Режиссер: Дин ДеБлуа / Dean DeBloisВ ролях: Джей Барушель (Hiccup, озвучка), Кейт Бланшетт (Valka, озвучка), Джерард Батлер (Stoick, озвучка), Крэйг Фергюсон (Gobber, озвучка), Америка Феррера (Astrid, озвучка), Джона Хилл (Snotlout, озвучка), Кристофер Минц-Плассе (Fishlegs, озвучка), ТиДжей Миллер (Tuffnut, озвучка), Кристен Уиг (Ruffnut, озвучка), Джимон Хонсу (Drago, озвучка), Кит Харингтон (Eret, озвучка), Кирон Эллиотт (Hoark the Haggard, озвучка)Описание: С момента примирения викингов и драконов прошло пять лет. Пока Астрид, Сморкала и остальные ребята проводят время, соревнуясь друг с другом в популярных на острове драконьих гонках, Иккинг и Беззубик путешествуют по небу, составляя карту неизвестных мест. Когда одно из их приключений приводит к открытию тайной ледяной пещеры, которая является домом для сотен ранее невиданных диких драконов и таинственного драконьего всадника, два друга оказываются в центре битвы за защиту мира.Рейтингkinopoisk.ru: 8.247 (41 558)imdb.com: 8.10 (93 083)MPAA: PG - Рекомендуется присутствие родителейАвтор рипа:Tiberiumsun69 Качество: BDRip 1080p / 60 FPSФормат: MKVВидео кодек: AVCАудио кодек:AC3, DTSВидео: AVC, 1920x816, 14000 kbps, 59,940 fpsАудио №1: русский / AC3 / 5.1 / 48 kHz / 640 kbps / 16 bit |Дубляж| Аудио №2: английский / AC3 / 5.1 / 48 kHz / 640 kbps / 16 bitАудио №3: русский / DTS / 5.1 / 48 kHz / 755 kbps / 24 bit |Дубляж| Навигация по главам: есть GeneralUnique ID : 232956296733365890840794231309926952858 (0xAF41C031E3667A3FB727E07527106F9A)Complete name : A:\1080p 60fps\Драконы 1080p 60fps\Как приручить дракона 2 1080p 60fps.mkvFormat : MatroskaFormat version : Version 4 / Version 2File size : 11.4 GiBDuration : 1h 41mnOverall bit rate : 16.0 MbpsEncoded date : UTC 2014-10-26 09:25:38Writing application : mkvmerge v6.9.1 ('Blue Panther') 64bit built on Apr 18 2014 18:23:38Writing library : libebml v1.3.0 + libmatroska v1.4.1

    VideoID : 1Format : AVCFormat/Info : Advanced Video CodecFormat profile : [email protected] settings, CABAC : YesFormat settings, ReFrames : 4 framesCodec ID : V_MPEG4/ISO/AVCDuration : 1h 41mnBit rate : 14.0 MbpsWidth : 1 920 pixelsHeight : 816 pixelsDisplay aspect ratio : 2.35:1Frame rate : 59.940 fpsColor space : YUVChroma subsampling : 4:2:0Bit depth : 8 bitsScan type : ProgressiveBits/(Pixel*Frame) : 0.149Stream size : 9.75 GiB (85%)Writing library : x264 core 130 r2273 b3065e6Encoding settings : cabac=1 / ref=4 / deblock=1:-1:-1 / analyse=0x3:0 / me=umh / subme=9 / psy=1 / psy_rd=1.00:0.00 / mixed_ref=1 / me_range=44 / chroma_me=0 / trellis=2 / 8x8dct=1 / cqm=0 / deadzone=21,11 / fast_pskip=0 / chroma_qp_offset=-2 / threads=12 / lookahead_threads=1 / sliced_threads=0 / nr=0 / decimate=0 / interlaced=0 / bluray_compat=0 / constrained_intra=0 / bframes=5 / b_pyramid=2 / b_adapt=2 / b_bias=0 / direct=3 / weightb=1 / open_gop=0 / weightp=2 / keyint=250 / keyint_min=59 / scenecut=40 / intra_refresh=0 / rc_lookahead=60 / rc=2pass / mbtree=1 / bitrate=14000 / ratetol=1.0 / qcomp=0.80 / qpmin=0 / qpmax=69 / qpstep=4 / cplxblur=20.0 / qblur=0.5 / ip_ratio=1.40 / aq=1:0.80Language : EnglishDefault : YesForced : No

    Audio #1ID : 2Format : AC-3Format/Info : Audio Coding 3Mode extension : CM (complete main)Codec ID : A_AC3Duration : 1h 41mnBit rate mode : ConstantBit rate : 640 KbpsChannel(s) : 6 channelsChannel positions : Front: L C R, Side: L R, LFESampling rate : 48.0 KHzBit depth : 16 bitsCompression mode : LossyStream size : 467 MiB (4%)Title : ДубляжLanguage : RussianDefault : YesForced : No

    Audio #2ID : 3Format : AC-3Format/Info : Audio Coding 3Mode extension : CM (complete main)Codec ID : A_AC3Duration : 1h 41mnBit rate mode : ConstantBit rate : 640 KbpsChannel(s) : 6 channelsChannel positions : Front: L C R, Side: L R, LFESampling rate : 48.0 KHzBit depth : 16 bitsCompression mode : LossyStream size : 467 MiB (4%)Title : ОригиналLanguage : EnglishDefault : NoForced : No

    Audio #3ID : 4Format : DTSFormat/Info : Digital Theater SystemsCodec ID : A_DTSDuration : 1h 41mnBit rate mode : ConstantBit rate : 755 KbpsChannel(s) : 6 channelsChannel positions : Front: L C R, Side: L R, LFESampling rate : 48.0 KHzBit depth : 24 bitsCompression mode : LossyStream size : 550 MiB (5%)Title : ДубляжLanguage : RussianDefault : NoForced : No

    Text #1ID : 5Format : UTF-8Codec ID : S_TEXT/UTF8Codec ID/Info : UTF-8 Plain TextTitle : ФорсированныеLanguage : RussianDefault : YesForced : No

    Text #2ID : 6Format : UTF-8Codec ID : S_TEXT/UTF8Codec ID/Info : UTF-8 Plain TextTitle : ПолныеLanguage : RussianDefault : NoForced : No

    Text #3ID : 7Format : UTF-8Codec ID : S_TEXT/UTF8Codec ID/Info : UTF-8 Plain TextTitle : ПолныеLanguage : EnglishDefault : NoForced : No

    Menu00:00:00.000 : en:Chapter 0100:03:27.999 : en:Chapter 0200:05:20.695 : en:Chapter 0300:07:46.007 : en:Chapter 0400:10:16.032 : en:Chapter 0500:13:16.337 : en:Chapter 0600:16:59.059 : en:Chapter 0700:20:01.700 : en:Chapter 0800:23:43.255 : en:Chapter 0900:27:14.466 : en:Chapter 1000:29:21.468 : en:Chapter 1100:33:41.936 : en:Chapter 1200:37:05.473 : en:Chapter 1300:39:06.969 : en:Chapter 1400:40:59.165 : en:Chapter 1500:45:03.992 : en:Chapter 1600:47:16.625 : en:Chapter 1700:51:51.525 : en:Chapter 1800:54:35.730 : en:Chapter 1900:56:15.997 : en:Chapter 2001:00:33.171 : en:Chapter 2101:04:28.781 : en:Chapter 2201:06:34.949 : en:Chapter 2301:09:44.138 : en:Chapter 2401:14:02.146 : en:Chapter 2501:18:35.127 : en:Chapter 2601:21:07.153 : en:Chapter 2701:22:55.053 : en:Chapter 2801:24:30.065 : en:Chapter 2901:28:04.654 : en:Chapter 3001:31:03.499 : en:Chapter 3101:32:21.994 : en:Chapter 32

    Название: Легенда о КостоломеОригинальное название: Legend of the Boneknapper DragonГод выпуска: 2010Страна: СШАЖанр: мультфильм, короткометражка, фэнтезиПродолжительность: 00:16:33Перевод: ДубляжСубтитры: русские (Полные), английские (Полные)Режиссер: Джон Пуглиси / John PuglisiВ ролях: Джей Барушель (Hiccup, озвучка), Джерард Батлер (Stoick, озвучка), Крэйг Фергюсон (Gobber, озвучка), Америка Феррера (Astrid, озвучка), Джона Хилл (Snotlout, озвучка), Кристофер Минц-Плассе (Fishlegs, озвучка), ТиДжей Миллер (Tuffnut, озвучка), Кристен Уиг (Ruffnut, озвучка), Джон Ди Маджио (Gobber's Father, озвучка, в титрах не указан), Кевин Майкл Ричардсон (Thor, озвучка, в титрах не указан)Описание: Иккинг и юные Викинги отправляются в путешествие со своим наставником Плевакой, чтобы помочь ему победить своего заклятого врага - легендарного дракона Костолома.Рейтингkinopoisk.ru: 7.215 (3160)imdb.com: 7.00 (1263)Автор рипа:Tiberiumsun69 Качество: BDRip 1080p / 60 FPSФормат: MKVВидео кодек: AVCАудио кодек:AC3Видео: AVC, 1920x1080, 14000 kbps, 59,940 fpsАудио №1: русский / AC3 / 2.0 / 48 kHz / 224 kbps / 16 bit |Дубляж| Аудио №2: английский / AC3 / 5.1 / 48 kHz / 640 kbps / 16 bit GeneralUnique ID : 193935262789663570565584980027042231429 (0x91E692AF56224E9990304AC4D780F485)Complete name : A:\1080p 60fps\Драконы 1080p 60fps\Бонус\Легенда о Костоломе 1080p 60fps.mkvFormat : MatroskaFormat version : Version 4 / Version 2File size : 1.71 GiBDuration : 16mn 33sOverall bit rate : 14.7 MbpsEncoded date : UTC 2014-10-26 10:22:20Writing application : mkvmerge v6.9.1 ('Blue Panther') 64bit built on Apr 18 2014 18:23:38Writing library : libebml v1.3.0 + libmatroska v1.4.1

    VideoID : 1Format : AVCFormat/Info : Advanced Video CodecFormat profile : [email protected] settings, CABAC : YesFormat settings, ReFrames : 4 framesCodec ID : V_MPEG4/ISO/AVCDuration : 16mn 33sBit rate : 14.0 MbpsWidth : 1 920 pixelsHeight : 1 080 pixelsDisplay aspect ratio : 16:9Frame rate : 59.940 fpsColor space : YUVChroma subsampling : 4:2:0Bit depth : 8 bitsScan type : ProgressiveBits/(Pixel*Frame) : 0.113Stream size : 1.57 GiB (92%)Writing library : x264 core 130 r2273 b3065e6Encoding settings : cabac=1 / ref=4 / deblock=1:-1:-1 / analyse=0x3:0 / me=umh / subme=9 / psy=1 / psy_rd=1.00:0.00 / mixed_ref=1 / me_range=44 / chroma_me=0 / trellis=2 / 8x8dct=1 / cqm=0 / deadzone=21,11 / fast_pskip=0 / chroma_qp_offset=-2 / threads=12 / lookahead_threads=1 / sliced_threads=0 / nr=0 / decimate=0 / interlaced=0 / bluray_compat=0 / constrained_intra=0 / bframes=5 / b_pyramid=2 / b_adapt=2 / b_bias=0 / direct=3 / weightb=1 / open_gop=0 / weightp=2 / keyint=250 / keyint_min=59 / scenecut=40 / intra_refresh=0 / rc_lookahead=60 / rc=2pass / mbtree=1 / bitrate=14000 / ratetol=1.0 / qcomp=0.80 / qpmin=0 / qpmax=69 / qpstep=4 / cplxblur=20.0 / qblur=0.5 / ip_ratio=1.40 / aq=1:0.80Language : EnglishDefault : YesForced : No

    Audio #1ID : 2Format : AC-3Format/Info : Audio Coding 3Mode extension : CM (complete main)Codec ID : A_AC3Duration : 16mn 33sBit rate mode : ConstantBit rate : 224 KbpsChannel(s) : 2 channelsChannel positions : Front: L RSampling rate : 48.0 KHzBit depth : 16 bitsCompression mode : LossyStream size : 26.5 MiB (2%)Title : ДубляжLanguage : RussianDefault : YesForced : No

    Audio #2ID : 3Format : AC-3Format/Info : Audio Coding 3Mode extension : CM (complete main)Codec ID : A_AC3Duration : 16mn 33sBit rate mode : ConstantBit rate : 640 KbpsChannel(s) : 6 channelsChannel positions : Front: L C R, Side: L R, LFESampling rate : 48.0 KHzBit depth : 16 bitsCompression mode : LossyStream size : 75.8 MiB (4%)Title : ОригиналLanguage : EnglishDefault : NoForced : No

    Text #1ID : 4Format : UTF-8Codec ID : S_TEXT/UTF8Codec ID/Info : UTF-8 Plain TextTitle : ПолныеLanguage : RussianDefault : NoForced : No

    Text #2ID : 5Format : UTF-8Codec ID : S_TEXT/UTF8Codec ID/Info : UTF-8 Plain TextTitle : ПолныеLanguage : EnglishDefault : NoForced : No

    Название: Книга драконовОригинальное название: Book of DragonsГод выпуска: 2011Страна: СШАЖанр: мультфильм, короткометражка, фэнтези, комедияПродолжительность: 00:17:38Перевод: ДубляжСубтитры: русские (Полные), английские (Полные)Режиссер: Стив Хикнер / Steve HicknerВ ролях: Джей Барушель (Hiccup, озвучка), Крэйг Фергюсон (Gobber, озвучка), Америка Феррера (Astrid, озвучка), Кристофер Минц-Плассе (Fishlegs, озвучка), Джим Каммингс (Bork, озвучка), Тресс МакНилл (Bork's Wife, озвучка)Описание: Иккинг, Астрид, Беззубик и Плевака поведают легенды из Книги Драконов и раскроют секреты о новых, никогда-ранее-не-виданных драконах.Рейтингkinopoisk.ru: 6.635 (2177)imdb.com: 6.20 (755)Автор рипа:Tiberiumsun69 Качество: BDRip 1080p / 60 FPSФормат: MKVВидео кодек: AVCАудио кодек:AC3Видео: AVC, 1920x1080, 14000 kbps, 59,940 fpsАудио №1: русский / AC3 / 2.0 / 48 kHz / 224 kbps / 16 bit |Дубляж| Аудио №2: английский / AC3 / 5.1 / 48 kHz / 640 kbps / 16 bit GeneralUnique ID : 200326521733380670117248658515021766130 (0x96B57C1463D33BEBBD3979A9C5B39DF2)Complete name : A:\1080p 60fps\Драконы 1080p 60fps\Бонус\Книга Драконов 1080p 60fps.mkvFormat : MatroskaFormat version : Version 4 / Version 2File size : 1.83 GiBDuration : 17mn 38sOverall bit rate : 14.8 MbpsEncoded date : UTC 2014-10-26 10:14:09Writing application : mkvmerge v6.9.1 ('Blue Panther') 64bit built on Apr 18 2014 18:23:38Writing library : libebml v1.3.0 + libmatroska v1.4.1

    VideoID : 1Format : AVCFormat/Info : Advanced Video CodecFormat profile : [email protected] settings, CABAC : YesFormat settings, ReFrames : 4 framesCodec ID : V_MPEG4/ISO/AVCDuration : 17mn 38sBit rate : 14.0 MbpsWidth : 1 920 pixelsHeight : 1 080 pixelsDisplay aspect ratio : 16:9Frame rate : 59.940 fpsColor space : YUVChroma subsampling : 4:2:0Bit depth : 8 bitsScan type : ProgressiveBits/(Pixel*Frame) : 0.113Stream size : 1.69 GiB (92%)Writing library : x264 core 130 r2273 b3065e6Encoding settings : cabac=1 / ref=4 / deblock=1:-1:-1 / analyse=0x3:0 / me=umh / subme=9 / psy=1 / psy_rd=1.00:0.00 / mixed_ref=1 / me_range=44 / chroma_me=0 / trellis=2 / 8x8dct=1 / cqm=0 / deadzone=21,11 / fast_pskip=0 / chroma_qp_offset=-2 / threads=12 / lookahead_threads=1 / sliced_threads=0 / nr=0 / decimate=0 / interlaced=0 / bluray_compat=0 / constrained_intra=0 / bframes=5 / b_pyramid=2 / b_adapt=2 / b_bias=0 / direct=3 / weightb=1 / open_gop=0 / weightp=2 / keyint=250 / keyint_min=59 / scenecut=40 / intra_refresh=0 / rc_lookahead=60 / rc=2pass / mbtree=1 / bitrate=14000 / ratetol=1.0 / qcomp=0.80 / qpmin=0 / qpmax=69 / qpstep=4 / cplxblur=20.0 / qblur=0.5 / ip_ratio=1.40 / aq=1:0.80Language : EnglishDefault : YesForced : No

    Audio #1ID : 2Format : AC-3Format/Info : Audio Coding 3Mode extension : CM (complete main)Codec ID : A_AC3Duration : 17mn 38sBit rate mode : ConstantBit rate : 224 KbpsChannel(s) : 2 channelsChannel positions : Front: L RSampling rate : 48.0 KHzBit depth : 16 bitsCompression mode : LossyStream size : 28.3 MiB (2%)Title : ДубляжLanguage : RussianDefault : YesForced : No

    Audio #2ID : 3Format : AC-3Format/Info : Audio Coding 3Mode extension : CM (complete main)Codec ID : A_AC3Duration : 17mn 38sBit rate mode : ConstantBit rate : 640 KbpsChannel(s) : 6 channelsChannel positions : Front: L C R, Side: L R, LFESampling rate : 48.0 KHzBit depth : 16 bitsCompression mode : LossyStream size : 80.8 MiB (4%)Title : ОригиналLanguage : EnglishDefault : NoForced : No

    Text #1ID : 4Format : UTF-8Codec ID : S_TEXT/UTF8Codec ID/Info : UTF-8 Plain TextTitle : ПолныеLanguage : RussianDefault : NoForced : No

    Text #2ID : 5Format : UTF-8Codec ID : S_TEXT/UTF8Codec ID/Info : UTF-8 Plain TextTitle : ПолныеLanguage : EnglishDefault : NoForced : No

    Название: Драконы: Подарок ночной фурииОригинальное название: Dragons: Gift of the Night FuryГод выпуска: 2011Страна: СШАЖанр: мультфильм, короткометражка, фэнтези, приключения, семейныйПродолжительность: 00:22:12Перевод: ДубляжСубтитры: русские (Полные), английские (Полные)Режиссер: Том Оуэнс / Tom OwensВ ролях: Джей Барушель (Hiccup Horrendous Haddock III / озвучка), Джерард Батлер (Stoick the Vast / озвучка), Крэйг Фергюсон (Gobber the Belch / озвучка), Америка Феррера (Astrid Hofferson / озвучка), Джона Хилл (Snotlout / озвучка), Кристофер Минц-Плассе (Fishlegs / озвучка), ТиДжей Миллер (Tuffnut / озвучка), Кристен Уиг (Ruffnut / озвучка), Бриджит Хоффман (Female Viking / озвучка), Питер Лавин (Viking 1 / озвучка), Нил Диксон (Viking 2 / озвучка), Йен Рускин (Viking 3 / озвучка)Описание: Беззубик снова помогает Иккингу стать героем, когда они отправляются в полёт и открывают остров, полный драконов, которых прежде никто ещё не видел. Драконы имеют в запасе немало сюрпризов для Иккинга, Астрид и остальных викингов.Рейтингkinopoisk.ru: 8.095 (6670)imdb.com: 7.60 (3008)Автор рипа:Tiberiumsun69 Качество: BDRip 1080p / 60 FPSФормат: MKVВидео кодек: AVCАудио кодек:AC3Видео: AVC, 1920x1080, 14000 kbps, 59,940 fpsАудио №1: русский / AC3 / 2.0 / 48 kHz / 224 kbps / 16 bit |Дубляж| Аудио №2: английский / AC3 / 5.1 / 48 kHz / 640 kbps / 16 bit GeneralUnique ID : 236351194512986166987765966421318889084 (0xB1CF95940EABB0ECA7B8DD6438E2EE7C)Complete name : A:\1080p 60fps\Драконы 1080p 60fps\Бонус\Драконы Подарок Ночной Фурии 1080p 60fps.mkvFormat : MatroskaFormat version : Version 4 / Version 2File size : 2.30 GiBDuration : 22mn 12sOverall bit rate : 14.9 MbpsEncoded date : UTC 2014-10-26 10:05:40Writing application : mkvmerge v6.9.1 ('Blue Panther') 64bit built on Apr 18 2014 18:23:38Writing library : libebml v1.3.0 + libmatroska v1.4.1

    VideoID : 1Format : AVCFormat/Info : Advanced Video CodecFormat profile : [email protected] settings, CABAC : YesFormat settings, ReFrames : 4 framesCodec ID : V_MPEG4/ISO/AVCDuration : 22mn 12sBit rate : 14.0 MbpsWidth : 1 920 pixelsHeight : 1 080 pixelsDisplay aspect ratio : 16:9Frame rate : 59.940 fpsColor space : YUVChroma subsampling : 4:2:0Bit depth : 8 bitsScan type : ProgressiveBits/(Pixel*Frame) : 0.113Stream size : 2.12 GiB (92%)Writing library : x264 core 130 r2273 b3065e6Encoding settings : cabac=1 / ref=4 / deblock=1:-1:-1 / analyse=0x3:0 / me=umh / subme=9 / psy=1 / psy_rd=1.00:0.00 / mixed_ref=1 / me_range=44 / chroma_me=0 / trellis=2 / 8x8dct=1 / cqm=0 / deadzone=21,11 / fast_pskip=0 / chroma_qp_offset=-2 / threads=12 / lookahead_threads=1 / sliced_threads=0 / nr=0 / decimate=0 / interlaced=0 / bluray_compat=0 / constrained_intra=0 / bframes=5 / b_pyramid=2 / b_adapt=2 / b_bias=0 / direct=3 / weightb=1 / open_gop=0 / weightp=2 / keyint=250 / keyint_min=59 / scenecut=40 / intra_refresh=0 / rc_lookahead=60 / rc=2pass / mbtree=1 / bitrate=14000 / ratetol=1.0 / qcomp=0.80 / qpmin=0 / qpmax=69 / qpstep=4 / cplxblur=20.0 / qblur=0.5 / ip_ratio=1.40 / aq=1:0.80Language : EnglishDefault : YesForced : No

    Audio #1ID : 2Format : AC-3Format/Info : Audio Coding 3Mode extension : CM (complete main)Codec ID : A_AC3Duration : 22mn 12sBit rate mode : ConstantBit rate : 224 KbpsChannel(s) : 2 channelsChannel positions : Front: L RSampling rate : 48.0 KHzBit depth : 16 bitsCompression mode : LossyStream size : 35.6 MiB (2%)Title : ДубляжLanguage : RussianDefault : YesForced : No

    Audio #2ID : 3Format : AC-3Format/Info : Audio Coding 3Mode extension : CM (complete main)Codec ID : A_AC3Duration : 22mn 12sBit rate mode : ConstantBit rate : 640 KbpsChannel(s) : 6 channelsChannel positions : Front: L C R, Side: L R, LFESampling rate : 48.0 KHzBit depth : 16 bitsCompression mode : LossyStream size : 102 MiB (4%)Title : ОригиналLanguage : EnglishDefault : NoForced : No

    Text #1ID : 4Format : UTF-8Codec ID : S_TEXT/UTF8Codec ID/Info : UTF-8 Plain TextTitle : ПолныеLanguage : RussianDefault : NoForced : No

    Text #2ID : 5Format : UTF-8Codec ID : S_TEXT/UTF8Codec ID/Info : UTF-8 Plain TextTitle : ПолныеLanguage : EnglishDefault : NoForced : No

    Название: Драконы: Гонки бесстрашных. НачалоОригинальное название: Dragons: Dawn of the Dragon RacersГод выпуска: 2014Страна: СШАЖанр: мультфильм, короткометражка, комедия, приключения, семейныйПродолжительность: 00:26:37Перевод: ДубляжСубтитры: русские (Полные), английские (Полные)Режиссер: Джон Санфорд / John Sanford, Илэйн Боган / Elaine BoganВ ролях: Джей Барушель (озвучка), Америка Феррера (озвучка), Кристофер Минц-Плассе (озвучка), ТиДжей Миллер (озвучка), Нолан Норт (озвучка), Крис Эджерли (озвучка), Зак Перлман (озвучка)Описание: Поиски пропавшей овцы превращаются в соревнование между Иккингом и его друзьями за титул первого чемпиона драконьих гонок Олуха. Это история о расцвете драконьих гонок, и о том, как они стали самым популярным видом спорта на Олухе.РейтингАвтор рипа:Tiberiumsun69 Качество: BDRip 1080p / 60 FPSФормат: MKVВидео кодек: AVCАудио кодек:AC3Видео: AVC, 1920x1080, 14000 kbps, 59,940 fpsАудио №1: русский / AC3 / 5.1 / 48 kHz / 448 kbps / 16 bit |Дубляж| Аудио №2: английский / AC3 / 5.1 / 48 kHz / 448 kbps / 16 bit GeneralUnique ID : 202216346512433658148016761407955045324 (0x982173A290862CC58728CC4435288BCC)Complete name : A:\1080p 60fps\Драконы 1080p 60fps\Бонус\Драконы Гонки бесстрашных. Начало 1080p 60fps.mkvFormat : MatroskaFormat version : Version 4 / Version 2File size : 2.77 GiBDuration : 26mn 37sOverall bit rate : 14.9 MbpsEncoded date : UTC 2014-10-26 09:57:25Writing application : mkvmerge v6.9.1 ('Blue Panther') 64bit built on Apr 18 2014 18:23:38Writing library : libebml v1.3.0 + libmatroska v1.4.1

    VideoID : 1Format : AVCFormat/Info : Advanced Video CodecFormat profile : [email protected] settings, CABAC : YesFormat settings, ReFrames : 4 framesCodec ID : V_MPEG4/ISO/AVCDuration : 26mn 37sBit rate : 14.0 MbpsWidth : 1 920 pixelsHeight : 1 080 pixelsDisplay aspect ratio : 16:9Frame rate : 59.940 fpsColor space : YUVChroma subsampling : 4:2:0Bit depth : 8 bitsScan type : ProgressiveBits/(Pixel*Frame) : 0.113Stream size : 2.55 GiB (92%)Writing library : x264 core 130 r2273 b3065e6Encoding settings : cabac=1 / ref=4 / deblock=1:-1:-1 / analyse=0x3:0 / me=umh / subme=9 / psy=1 / psy_rd=1.00:0.00 / mixed_ref=1 / me_range=44 / chroma_me=0 / trellis=2 / 8x8dct=1 / cqm=0 / deadzone=21,11 / fast_pskip=0 / chroma_qp_offset=-2 / threads=12 / lookahead_threads=1 / sliced_threads=0 / nr=0 / decimate=0 / interlaced=0 / bluray_compat=0 / constrained_intra=0 / bframes=5 / b_pyramid=2 / b_adapt=2 / b_bias=0 / direct=3 / weightb=1 / open_gop=0 / weightp=2 / keyint=250 / keyint_min=59 / scenecut=40 / intra_refresh=0 / rc_lookahead=60 / rc=2pass / mbtree=1 / bitrate=14000 / ratetol=1.0 / qcomp=0.80 / qpmin=0 / qpmax=69 / qpstep=4 / cplxblur=20.0 / qblur=0.5 / ip_ratio=1.40 / aq=1:0.80Language : EnglishDefault : YesForced : No

    Audio #1ID : 2Format : AC-3Format/Info : Audio Coding 3Mode extension : CM (complete main)Codec ID : A_AC3Duration : 26mn 37sBit rate mode : ConstantBit rate : 448 KbpsChannel(s) : 6 channelsChannel positions : Front: L C R, Side: L R, LFESampling rate : 48.0 KHzBit depth : 16 bitsCompression mode : LossyStream size : 85.3 MiB (3%)Title : ДубляжLanguage : RussianDefault : YesForced : No

    Audio #2ID : 3Format : AC-3Format/Info : Audio Coding 3Mode extension : CM (complete main)Codec ID : A_AC3Duration : 26mn 37sBit rate mode : ConstantBit rate : 448 KbpsChannel(s) : 6 channelsChannel positions : Front: L C R, Side: L R, LFESampling rate : 48.0 KHzBit depth : 16 bitsCompression mode : LossyStream size : 85.3 MiB (3%)Title : ОригиналLanguage : EnglishDefault : NoForced : No

    Text #1ID : 4Format : UTF-8Codec ID : S_TEXT/UTF8Codec ID/Info : UTF-8 Plain TextTitle : ПолныеLanguage : RussianDefault : NoForced : No

    Text #2ID : 5Format : UTF-8Codec ID : S_TEXT/UTF8Codec ID/Info : UTF-8 Plain TextTitle : ПолныеLanguage : EnglishDefault : NoForced : No

    Просьба к переливающим на другие сайты, в оформлении указывайте пожалуйста авторство рипа - Tiberiumsun69Поблагодарить релизера! Скачать Как приручить дракона: Дилогия + Бонус через торрент http://i65.fastpic.ru/big/2014/1026/ac/0ff6d2bd683333dd45219f0986492eac.png Скачать фильм Как приручить дракона: Дилогия + Бонус через торрент бесплантно в хорошем качестве Описание: Вы узнаете историю подростка Иккинга, которому не слишком близки традиции его героического племени, много лет ведущего войну с ... 2014-10-26 15:13 10 10 32

    Loading...

    Loading...

    Рекламный пират

    26-10-2014 15:55 Как приручить дракона: Дилогия + Бонус Скачать торрент  

    Совет!Не убирайте деблок в минус на мультфильмах и на тех фильмах где резкие переходы RGB! Лучше оставлять по 0:0 или в плюс. Максимум до 2.

    Цитата:

    deblock=1:-1:-1

    Если бы вы кодировали в 10bit, тогда да.. но у вас же 8bit...Также в качестве эксперимента попробуйте HAVC кодек увидите разницу. ))))

    26-10-2014 16:03 Как приручить дракона: Дилогия + Бонус Скачать торрент  

    еnvy писал(а):

    Совет!Не убирайте деблок в минус на мультфильмах и на тех фильмах где резкие переходы RGB! Лучше оставлять по 0:0 или в плюс. Максимум до 2.

    Цитата:

    deblock=1:-1:-1

    Если бы вы кодировали в 10bit, тогда да.. но у вас же 8bit...Также в качестве эксперимента попробуйте HAVC кодек увидите разницу. ))))Не у каждого есть поддержка 10 битного видео.-1-1 посоветовал один из модераторов.

    Но попробовать 10 бит разок другой стоит. :hmmm

    26-10-2014 16:23 Как приручить дракона: Дилогия + Бонус Скачать торрент  

    еnvy, эм...можно нескромный вопрос?

    еnvy писал(а):

    резкие переходы RGB

    что вы под этим подразумеваете?

    26-10-2014 16:23 Как приручить дракона: Дилогия + Бонус Скачать торрент  

    26-10-2014 16:28 Как приручить дракона: Дилогия + Бонус Скачать торрент  

    Messa-fan писал(а):

    что вы под этим подразумеваете?

    Это когда яркий (#ff0000) красный или другой цвет (GB) выглядит квадратиками...

    04-01-2015 23:37 Как приручить дракона: Дилогия + Бонус Скачать торрент  

    Я просто обожаю эти мультфильмы))) :ng:

    01-07-2017 17:26 Как приручить дракона: Дилогия + Бонус Скачать торрент  

    Встаньте на раздачу народ.Скорости вообще нет.

    Дорогой пользователь! Огромная просьба, поблагодарите релизера, оцените раздачу и оставьте свои комментарий, если Вы скачали Как приручить дракона: Дилогия + Бонус через торрент бесплатно! Внесите свою лепту в развитие PiratBit!

    Комментировать посты могут только пользователи прошедшие не сложную регистрацию

    Как приручить дракона: Дилогия + Бонус через торрент Скачать бесплатно Как приручить дракона: Дилогия + Бонус Как приручить дракона: Дилогия + Бонус скачать торрент Как приручить дракона: Дилогия + Бонус смотреть онлайн Cкачать фильм Как приручить дракона: Дилогия + Бонус бесплатно Как приручить дракона: Дилогия + Бонус скачать торрент в хорошем качестве Как приручить дракона: Дилогия + Бонус смотреть онлайн бесплатно в хорошем качестве

    Вы не можете начинать темыВы не можете отвечать на сообщенияВы не можете редактировать свои сообщенияВы не можете удалять свои сообщенияВы не можете голосовать в опросахВы не можете прикреплять файлы к сообщениямВы можете скачивать файлы

    piratbit.ru

    Скачать Как приручить дракона 2 через торрент

    Категория: Фильмы 2395 0 Торрент добавлен: 19-04-2015 Рейтинг:

    2014 / комедия, мультфильм, семейный, приключениеВыпущено: СШАРежиссер: Дин ДеБлуаВ ролях: Джей Барушель, Джерард Батлер, Кит Харингтон, Джона Хилл, Кристен Уиг, Кристофер Минц-Плассе, Америка Феррера, Крэйг Фергюсон, ТиДжей Миллер

    Перемирие викингов и драконов длится уже целых пять лет. Астрид с остальными друзьями живут спокойно и соревнуются между собой в драконьих гонках, а в это время Иккинг с Беззубиком рассекают небесные просторы в надежде найти что-то особенное. И вот их путешествие принесло свои плоды, они обнаружили некую ледяную пещеру, в которой, оказалось, проживают тысячи драконов неизвестной породы и среди них есть загадочный всадник и после этой находки двое друзей вступают в схватку, и сейчас на кону оказалась судьба всего мира.

     

    Трейлер к мультфильму Как приручить дракона 2

     

    Как приручить дракона 2 скачать торрент

    Кодек: H.264Качество: BDRemux 1080p | ЛицензияВидео: 1920x1080, 23293 kbps, 23,976 fpsЗвук: DTS Audio Russian 768 kbps 5.1 / 48 kHz / 768 kbps / 24-bit, Дубляж

    21,18 Gb

    торрент удален

    3D

    Качество: BDRip (by Ash61)Контейнер: MKVФормат 3D: Half OverUnder / Вертикальная анаморфная стереопараПорядок ракурсов: левый ракурс первыйВидео: AVC / 23,976 fps / 1920х1080p / ~8.50 MbpsАудио: Русский / AC3 / 48 KHz / 5.1 ch / 640 Kbps (Дубляж - BD 3D Eur)

    7,44 Gb

    торрент удален

    Кодек: x.264Качество: BDRip 1080pВидео: 9551 kb/s, 1920x816, 23.976 fpsЗвук: AC3, 448 kb/s (6Ch)-Дубляж (rus)

    торрент удален

    Качество видео: HDRipФормат: AVIВидео: 720x304 (2.37:1), 23.976 fps, XviD build 73 ~1637 kbps avg, 0.31 bit/pixelАудио: 48 kHz, AC3 Dolby Digital, 3/2 (L,C,R,l,r) + LFE ch, ~448.00 kbps avgПрофессиональный (полное дублирование)

    1,45 Gb

    торрент удален

     

    Вы находитесь на странице, где можете совершенно бесплатно скачать фильм Как приручить дракона 2 в хорошем качестве через торрент, в любом формате, который больше всего вам на данный момент подходит. Скачивание осуществляется через торрент, что означает максимально высокую скорость загрузки. Желаем Вам приятного просмотра!. Не забудь поделиться своими впечатлениями после того как посмотришь фильм Как приручить дракона 2.

    Информация Посетители, находящиеся в группе Гости, не могут оставлять комментарии к данной публикации.

    psp-gu.ru


    Смотрите также