Скачать фильм через торрент пипец 2 бесплатно в хорошем качестве


Пипец 2 2013 - скачать бесплатно через торрент в хорошем качестве. Без регистрации

Название: Пипец 2 / Kick-Ass 2 (2014) Blu-Ray CEE 1080p | Лицензия
Качество видео: Blu-ray CEE 1080p
Перевод: Дубляж
Видео: MPEG-4 1920x1080, 23,976 fps, 27805 kbps avg,
Аудио: DTS-HD Master Audio English 2106 kbps 5.1 / 48 kHz / 2106 kbps / 16-bit (DTS Core: 5.1 / 48 kHz / 1509 kbps / 16-bit)DTS Audio French 768 kbps 5.1 / 48 kHz / 768 kbps / 24-bitDTS Audio Italian 768 kbps 5.1 / 48 kHz / 768 kbps / 24-bitDTS Audio Russian 768 kbps 5.1 / 48 kHz / 768 kbps / 24-bitDTS Audio Spanish 768 kbps 5.1 / 48 kHz / 768 kbps / 24-bitDolby Digital Audio Hindi 448 kbps 5.1 / 48 kHz / 448 kbps / DN -4dBDolby Digital Audio English 192 kbps 2.0 / 48 kHz / 192 kbps / DN -4dB / Dolby Surround
Скачать

Загрузка начнется в течение 5 сек.

37.20 GB

Название: Пипец 2 / Kick-Ass 2 (2013) BDRip от HQ-ViDEO | D
Качество видео: BDRip (источник: BLUEBIRD / Blu-ray Disc / 1080p)
Перевод: Дублированный |BD CEE| + Оригинал
Формат видео: AVI
Видео: XviD, build 73 codec 720 x 304; 23.976 fps; 2126 kbps; 0.405 bit/pixel
Аудио: AC3 Dolby Digital; 448 Kbps; 6 channels; 48 KHz (DUB)AC3 Dolby Digital; 448 Kbps; 6 channels; 48 KHz (ENG)
Скачать

Загрузка начнется в течение 5 сек.

2.19 GB

Название: Пипец 2 / Kick-Ass 2 (2013) HDRip-AVC | D
Качество видео: HDRip-AVC [BDRip 1080p]
Перевод: Дубляж
Видео: x264 720х300, 23.976 fps, 940 Kbps, 0.182 bit/pixel
Аудио: AАС-НЕ, 48.0 KHz, 72 Kbps, 2 channels
Скачать

Загрузка начнется в течение 5 сек.

746.54 MB

Название: Пипец 2 / Kick-Ass 2 (2013) HDRip-AVC
Качество видео: HDRip-AVC [BDRip 1080p]
Перевод: Профессиональный (дублированный)
Видео: x.264 720х300, 23.976 fps, 940 Kbps, 0.182 bit/pixel
Аудио: AАС-НЕ, 48.0 KHz, 72 Kbps, 2 channels
Скачать

Загрузка начнется в течение 5 сек.

746.54 MB

Название: Пипец 2 / Kick-Ass 2 (2013) BDRip 720p | D
Качество видео: BDRip 720p (Источник: Blu-ray Disc)
Формат видео: MKV
Видео: 1280x528 (2.40:1), 23.976 fps, 5179 kbps, 0.320 bit/pixel
Аудио: AC-3, 6 ch, 448 kbps (Дублированный Лицензия)AC-3, 6 ch, 448 kbps (Английский Оригинал)
Скачать

Загрузка начнется в течение 5 сек.

4.37 GB

Название: Пипец 2 / Kick-Ass 2 (2013) BDRip 1080p
Качество видео: BDRip (источник: Blu-ray Disc)
Перевод: Дублированный (лицензия) + Оригинал
Видео: x264 1920x800 (2,40:1), 23.976 fps, 9962 kbps
Аудио: AC-3, 6 ch, 448 kbps (Rus)AC-3, 6 ch, 640 kbps (Eng)
Скачать

Загрузка начнется в течение 5 сек.

7.95 GB

Название: Пипец 2 / Kick-Ass 2 (2013) DVD5 от New-Team | D | сжатый
Качество видео: DVD5 (сжатый) / DVD9 R5
Перевод: Профессиональный (дублированный)
Формат видео: DVD Video
Видео: PAL 16x9 (720х576) VBR, 5809 kbps, Auto Letterboxed
Аудио: 48 kHz, Dolby AC3, 6 ch, 384 kbps, русский
Скачать

Загрузка начнется в течение 5 сек.

4.37 GB

Название: Пипец 2 / Kick-Ass 2 (2013) DVD9 R5 от New-Team | D | лицензия
Качество видео: DVD9 R5
Перевод: Профессиональный (дублированный)
Формат видео: DVD Video
Видео: PAL 16x9 (720х576) VBR, 7300 kbps, Auto Letterboxed
Аудио: английский48 kHz, Dolby AC3, 6 ch, 384 kbps, английский48 kHz, Dolby AC3, 6 ch, 384 kbps, немецкий48 kHz, Dolby AC3, 6 ch, 384 kbps, русский48 kHz, Dolby AC3, 6 ch, 384 kbps, турецкий
Скачать

Загрузка начнется в течение 5 сек.

7.22 GB

Название: Пипец 2 / Kick-Ass 2 (2013) BDRip от HQCLUB | Лицензия
Качество видео: BDRip (источник: HDCLUB / Blu-Ray CEE / 1080р)
Перевод: Профессиональный (полное дублирование) CEE + Оригинал (английский)
Формат видео: AVI
Видео: 720x304 (2.37:1), 23.976 fps, XviD build 65 ~2132 kbps avg, 0.41 bit/pixel
Аудио: + Любительский (двухголосый, закадровый) украинский [NewSchoolSound] (ненормативная лексика)48 kHz, AC3 Dolby Digital, 3/2 (L,C,R,l,r) + LFE ch, ~448 kbps avg (RUS)48 kHz, AC3 Dolby Digital, 3/2 (L,C,R,l,r) + LFE ch, ~448 kbps avg (ENG)48 kHz, AC3 Dolby Digital, 2/0 (L,R) ch, ~192 kbps avg (UKR.DVO.NEW.SCHOOL) (отдельно)
Скачать

Загрузка начнется в течение 5 сек.

2.18 GB

Название: Пипец 2 / Kick-Ass 2 (2013) BDRip 1080p от Killbrain and Scarabey | Лицензия
Перевод: русский профессиональный (полное дублирование) [Лицензия, BD CEE]
Видео: x264 AVC / [email protected] / 2 pass / 23,976 fps / 1920x800p (2,40:1) / 7,8 Mbps / 0.212
Аудио: AC3 английскаяAC3AC3 / 5.1 ch / 448 kbps / Русский дубляж, BD CEEAC3 / 5.1 ch / 640 kbps / Английский original, BD CEE
Скачать

Загрузка начнется в течение 5 сек.

6.39 GB

Название: Пипец 2 / Kick-Ass 2 (2013) BDRip-AVC от leonardo 59 & Scarabey | Лицензия
Качество видео: BDRip-AVC Исходник: Blu-ray
Перевод: Профессиональный (полное дублирование) Лицензия
Формат видео: MKV Видео кодек: MPEG-4 AVC Аудио кодек: AC3
Видео: AVC, 1024x426 (2.40:1) at 23.976 fps, AVC at 2387 kbps avg, 0.223 bit/pixel
Аудио: 48 kHz, AC3 Dolby Digital, 3/2 (L,C,R,l,r) + LFE ch, 448.00 kbps - Russian
Скачать

Загрузка начнется в течение 5 сек.

2.04 GB

Название: Пипец 2 / Kick-Ass 2 (2013) BDRip-AVC от leonardo 59 & Scarabey | Лицензия
Качество видео: BDRip-AVC Исходник: Blu-ray
Перевод: Профессиональный (полное дублирование) Лицензия
Формат видео: MKV Видео кодек: MPEG-4 AVC Аудио кодек: AAC
Видео: AVC, 768x320 (2.40:1) at 23.976 fps, AVC at 1336 kbps avg, 0.221 bit/pixel
Аудио: AAC, 2 ch, 48 кГц, VBR, 96 kbps - Russian
Скачать

Загрузка начнется в течение 5 сек.

1.03 GB

Название: Пипец 2 / Kick-Ass 2 (2013) BDRip 720p от leonardo 59 & Scarabey | Лицензия
Качество видео: BDRip 720p Исходник: Blu-ray
Перевод: Профессиональный (полное дублирование) Лицензия
Формат видео: MKV Видео кодек: MPEG-4 AVC Аудио кодек: AC3
Видео: AVC, 1280x534 (2.40:1) at 23.976 fps, AVC at 3879 kbps avg, 0.232 bit/pixel
Аудио: 48 kHz, AC3 Dolby Digital, 3/2 (L,C,R,l,r) + LFE ch, 448.00 kbps - Russian
Скачать

Загрузка начнется в течение 5 сек.

3.12 GB

Название: Пипец 2 / Kick-Ass 2 (2013) BDRip-AVC от HELLYWOOD | Лицензия
Перевод: Профессиональный (полное дублирование) лицензия
Формат видео: MKV
Видео: x.264, 1104x460 (2,40:1), 23,976 fps, 2205 Кbps, 0.181 bit/pixel
Аудио: 48 kHz, AC3 Dolby Digital, 3/2 (L,C,R,l,r) + LFE ch, 384.00 kbps | RUS48 kHz, AC3 Dolby Digital, 3/2 (L,C,R,l,r) + LFE ch, 448.00 kbps | ENG
Скачать

Загрузка начнется в течение 5 сек.

2.18 GB

Название: Пипец 2 / Kick-Ass 2 (2013) BDRip-AVC от HELLYWOOD | Лицензия
Перевод: Профессиональный (полное дублирование) лицензия
Формат видео: MKV
Видео: x.264, 912x380 (2,40:1), 23,976 fps, 1777 Кbps, 0.214 bit/pixel
Аудио: 48 kHz, AAC-LC, 5.1 ch, 256.00 kbps
Скачать

Загрузка начнется в течение 5 сек.

1.46 GB

Название: Пипец 2 / Kick-Ass 2 (2013) HDRip | Лицензия
Качество видео: HDRip
Перевод: Дублированный [лицензия / BD CEE]
Видео: XviD, 2012 Кбит/с, 720x304
Аудио: Русский (AC3, 6 ch, 448 Кбит/с), английский (AC3, 6 ch, 384 Кбит/с)
Скачать

Загрузка начнется в течение 5 сек.

2.05 GB

Название: Пипец 2 / Kick-Ass 2 (2013) BDRip 1080p | Лицензия
Качество видео: BDRip (1080p)
Перевод: Дублированный [лицензия / BD CEE]
Видео: MPEG-4 AVC, 10.6 Мбит/с, 1920x800
Аудио: Русский (AC3, 6 ch, 448 Кбит/с), (DTS, 6 ch, 768 Кбит/с), английский (DTS, 6 ch, 1510 Кбит/с), (AC3, 2 ch, 192 Кбит/с)
Скачать

Загрузка начнется в течение 5 сек.

9.69 GB

Название: Пипец 2 / Kick-Ass 2 (2013) BDRip | Лицензия
Качество видео: BDRip
Перевод: Дублированный [лицензия / BD CEE]
Видео: XviD, 1440 Кбит/с, 720x304
Аудио: AC3, 6 ch, 448 Кбит/с
Скачать

Загрузка начнется в течение 5 сек.

1.37 GB

Название: Пипец 2 / Kick-Ass 2 (2013) BDRip 720p | Лицензия
Качество видео: BDRip (720p)
Перевод: Дублированный [лицензия / BD CEE]
Видео: MPEG-4 AVC, 6587 Кбит/с, 1280x534
Аудио: Русский (AC3, 6 ch, 448 Кбит/с), (DTS, 6 ch, 768 Кбит/с), английский (DTS, 6 ch, 1510 Кбит/с), (AC3, 2 ch, 192 Кбит/с)
Скачать

Загрузка начнется в течение 5 сек.

6.98 GB

Название: Пипец 2 / Kick-Ass 2 (2013) BDRip-AVC от HELLYWOOD | iTunes
Перевод: Профессиональный (полное дублирование) iTunes
Формат видео: MKV
Видео: x.264, 912x380 (2,40:1), 23,976 fps, 1777 Кbps, 0.214 bit/pixel
Аудио: 48 kHz, AAC-LC, 5.1 ch, 256.00 kbps
Скачать

Загрузка начнется в течение 5 сек.

1.46 GB

Название: Пипец 2 / Kick-Ass 2 (2013) НDRip от Scarabey | D | iTunes Russia
Качество видео: HDRip
Перевод: Дубляж
Формат видео: AVI
Видео: 720x304 (2.37:1), 23.976 fps, XviD build 73 ~1618 kbps avg, 0.31 bit/pixel
Аудио: 48 kHz, AC3 Dolby Digital, 3/2 (L,C,R,l,r) + LFE ch, ~384.00 kbps avg
Скачать

Загрузка начнется в течение 5 сек.

1.45 GB

Название: Пипец 2 / Kick-Ass 2 (2013) НDRip от Scarabey | D | iTunes Russia
Качество видео: HDRip
Перевод: Дубляж
Формат видео: AVI
Видео: 688x288 (2.39:1), 23.976 fps, XviD build 73 ~877 kbps avg, 0.18 bit/pixel
Аудио: 48 kHz, MPEG Layer 3, 2 ch, ~128.00 kbps avg
Скачать

Загрузка начнется в течение 5 сек.

747.35 MB

Название: Пипец 2 / Kick-Ass 2 (2013) BDRip 720p от leonardo 59 & Scarabey | iTunes Russia
Качество видео: BDRip 720p Исходник: Blu-ray
Перевод: Профессиональный (полное дублирование) iTunes Russia
Формат видео: MKV Видео кодек: MPEG-4 AVC Аудио кодек: AC3
Видео: AVC, 1280x534 (2.40:1) at 23.976 fps, AVC at 3879 kbps avg, 0.232 bit/pixel
Аудио: 48 kHz, AC3 Dolby Digital, 3/2 (L,C,R,l,r) + LFE ch, 384.00 kbps - Russian
Скачать

Загрузка начнется в течение 5 сек.

3.07 GB

Название: Пипец 2 / Kick-Ass 2 (2013) BDRip 1080p | D | iTunes Russia
Качество видео: BDRip (1080p)
Перевод: Дублированный
Видео: MPEG-4 AVC, 8514 Кбит/с, 1920x800
Аудио: AC3, 6 ch, 384 Кбит/сDTS, 6 ch, 1509 Кбит/с
Скачать

Загрузка начнется в течение 5 сек.

7.49 GB

Название: Пипец 2 / Kick-Ass 2 (2013) BDRip-AVC от HELLYWOOD | iTunes
Перевод: Профессиональный (полное дублирование) iTunes
Формат видео: MKV
Видео: x.264, 1104x460 (2,40:1), 23,976 fps, 2205 Кbps, 0.181 bit/pixel
Аудио: 48 kHz, AC3 Dolby Digital, 3/2 (L,C,R,l,r) + LFE ch, 384.00 kbps | RUS48 kHz, AC3 Dolby Digital, 3/2 (L,C,R,l,r) + LFE ch, 448.00 kbps | ENG
Скачать

Загрузка начнется в течение 5 сек.

2.18 GB

Название: Пипец 2 / Kick-Ass 2 (2013) HDRip-AVC | D
Качество видео: HDRip-AVC
Перевод: Дублированный (iTunes Russia)
Формат видео: MKV
Видео: H.264 MPEG-4 AVC, 2255 Кбит/с, 1024х424
Аудио: Русский, английский (АС3, 6 ch, 384 Кбит/с)
Скачать

Загрузка начнется в течение 5 сек.

2.18 GB

Название: Пипец 2 / Kick-Ass 2 (2013) BDRip 720p от Prok-Torrent | iTunes Russia
Качество видео: BDRip (720p)
Перевод: Профессиональный (дублированный)
Видео: 4557 Kb/s, 1280x536
Аудио: Russian: AC3, 384 kb/s (6 ch) / English: DTS, 1509 kb/s (6 ch)
Скачать

Загрузка начнется в течение 5 сек.

4.64 GB

Название: Пипец 2 / Kick-Ass 2 (2013) HDRip от Torrange | D | iTunes Russia
Качество видео: HDRip
Перевод: Профессиональный (полное дублирование) [iTunes]
Видео: XviD, AVI 688x288, 23,976 fps, 874 kbps avg, 0.184 bit/pixel
Аудио: 48 kHz, MP3, 2 ch, ~128 kbps
Скачать

Загрузка начнется в течение 5 сек.

745.15 MB

Название: Пипец 2 / Kick-Ass 2 (2013) HDRip | iTunes
Качество видео: HDRip
Перевод: Дублированный [Лицензия iTunes Russia]
Видео: XviD 720x304, 23.976 fps, ~ 2001 Kbit/s
Аудио: Aудио #1: AC3, 48,0 КHz, 5.1, 384 Kbit/s - Русский
Скачать

Загрузка начнется в течение 5 сек.

2.05 GB

Название: Пипец 2 / Kick-Ass 2 (2013) HDRip от Prok-Torrent | iTunes Russia
Качество видео: HDRip (Исходник: BDRip 720p)
Перевод: Профессиональный (дублированный)
Видео: 720x304 (2.37:1), 23.976 fps, XviD build 50 ~1507 kbps avg, 0.287 bit/pixel
Аудио: 48 kHz, AC3 Dolby Digital, 3/2 (L,C,R,l,r) + LFE ch, ~384.00 kbps avg
Скачать

Загрузка начнется в течение 5 сек.

1.37 GB

Название: Пипец 2 / Kick-Ass 2 (2013) WEB-DLRip-AVC от Youtracker | D | iTunes
Качество видео: WEB-DLRip-AVC [WEB-DL 720p]
Перевод: Профессиональный (полное дублирование) [iTunes]
Видео: AVC 944 Кбит/сек, 818*340 (2,40:1), в 23,976 кадр/сек, AVC
Аудио: AC3 Russian, 64,0 Кбит/сек, 48,0 КГц / 24,0 КГц, 2 канала(ов), AAC (HE-AAC / LC)
Скачать

Загрузка начнется в течение 5 сек.

741.60 MB

Название: Пипец 2 / Kick-Ass 2 (2013) WEB-DLRip от Scarabey | iTunes
Качество видео: HDRip
Перевод: Дубляж - Лицензия/ iTunes
Формат видео: AVI
Видео: 688x288 (2.39:1), 23.976 fps, XviD build 73 ~879 kbps avg, 0.19 bit/pixel
Аудио: 48 kHz, MPEG Layer 3, 2 ch, ~128.00 kbps avg
Скачать

Загрузка начнется в течение 5 сек.

748.66 MB

Название: Пипец 2 / Kick-Ass 2 (2013) WEB-DLRip от Scarabey | iTunes
Качество видео: HDRip
Перевод: Дубляж - Лицензия/ iTunes
Формат видео: AVI
Видео: 720x304 (2.37:1), 23.976 fps, XviD build 73 ~1620 kbps avg, 0.31 bit/pixel
Аудио: 48 kHz, AC3 Dolby Digital, 3/2 (L,C,R,l,r) + LFE ch, ~384.00 kbps avg
Скачать

Загрузка начнется в течение 5 сек.

1.45 GB

Название: Пипец 2 / Kick-Ass 2 (2013) WEB-DLRip-AVC от Youtracker | D | iTunes
Качество видео: WEB-DLRip-AVC [WEB-DL 720p]
Перевод: Профессиональный (полное дублирование) [iTunes]
Видео: AVC 1636 Кбит/сек, 972*404 (2,40:1), в 23,976 кадр/сек, AVC
Аудио: AC3 Russian, 384 Кбит/сек, 48,0 КГц, 16 бит, 6 канала(ов), AC-3
Скачать

Загрузка начнется в течение 5 сек.

1.45 GB

Название: Пипец 2 / Kick-Ass 2 (2013) WEB-DL 720p | iTunes
Качество видео: WEB-DL 720p
Перевод: Дублированное [Лицензия/iTunes]
Формат видео: MKV (H.264)
Видео: 3939 Kb/s, 1280x532
Аудио: AC3, 384 kb/s (6 ch)
Скачать

Загрузка начнется в течение 5 сек.

3.17 GB

Название: Пипец 2 / Kick-Ass 2 (2013) HDRip 720p | Трейлер
Качество видео: HDRip 720p
Формат видео: MP4
Видео: MPEG Video 18,1 Мбит/сек, 1280*720 (16:9), 23,976 кадра/сек, MPEG Video (Component) (Version 2) ([email protected])
Аудио: PCM 1536 Кбит/сек, 48 КГц, 16 бит, 2 канала, PCM (Big / Signed)
Скачать

Загрузка начнется в течение 5 сек.

364.20 MB

Название: Пипец 2 / Kick-Ass 2 (2013) HD 1080p | Трейлер
Качество видео: HD/1080p
Перевод: Дубляж
Видео: кодек: H.264, размер кадра: 1920x800, битрейт: ~8000 Kbps
Аудио: язык: русский, кодек: ААС 2.0, битрейт: ~128 Kbps
Скачать

Загрузка начнется в течение 5 сек.

79.10 MB

www.kinovit.net

Скачать фильм Пипец 2 через торрент в хорошем качестве бесплатно BDRip

Размер: 1.37 GB | Добавлен: 3 года 10 мес. назад | Торрент скачан:1728 раз
Реклама Дарим 3000 рублей за регистрацию, не упусти свой шанс получить шикарный бонус!!!

08-12-2013 08:45 Пипец 2 Скачать торрент  

Пипец 2 / Kick-Ass 2

Год выпуска: 2013 Страна: США, ВеликобританияЖанр: боевик, комедия, криминалПродолжительность: 01:43:00Перевод: Дублированный [Лицензия | Blu-ray CEE]

Режиссер: Джефф УодлоуПродюссер: Адам Болинг, Тарквин Пэк, Брэд ПиттСценарий: Джефф Уодлоу, Марк Миллар, Джон Ромита мл.Бюджет: $28 000 000Премьера в мире: 14 августа 2013

IMDB 6.80 (73 585)

В ролях: Аарон Джонсон, Клои Грэйс Моретц, Кристофер Минц-Плассе, Джим Керри, Ольга Куркулина, Клаудия Ли, Джон Легуизамо, Линдси Фонсека, Дональд Фэйзон, Моррис Честнат, Кларк Дьюк, Линди Бут, Стивен Макинтош, Элла Пурнелла, Август Прю, Дэниэл Калуя

Описание: В реальной жизни не встретишь супергероя из комиксов, зато в ней есть настоящие герои. Харизматичный Пипец и гламурная Убивашка обрели новую команду поддержки во главе с Полковником Америка. Но кроме обычных мафиози, над городом нависает новая угроза — молодой мажор с очень дурным характером и целой армией отмороженных наемников.

Качество: BDRipФормат: AVIВидео кодек: XviDАудио кодек: AC3Видео: 720x304 (2.37:1), 23.976 fps, XviD MPEG-4 ~1446 kbps avg, 0.28 bit/pixelАудио: 48 kHz, AC3 Dolby Digital, 3/2 (L,C,R,l,r) + LFE ch, ~448 kbps

Скачать Пипец 2 через торрент http://i2.imageban.ru/out/2013/12/08/f54cf35b0d3ab7fade73afb9dcd5d45c.png Скачать фильм Пипец 2 через торрент бесплантно в хорошем качестве Описание: В реальной жизни не встретишь супергероя из комиксов, зато в ней есть настоящие герои. Харизматичный Пипец и гламурная Убивашка ... 2013-12-08 08:45 9.9 10 30

Loading...

Loading...

% Раздел Тема Автор DL S | L
Фильмы (DVD фильмы) [ 7.22 GB ] Пипец 2 / Kick-Ass 2 [2013 DVD9] R5 voovaz Скачать
Фильмы 2013 [DVDrip, WEB-DLRip, HDrip] [ 1.46 GB ] Пипец 2 / Kick-Ass 2 [2013 BDRip-AVC - Russia] potroks Скачать
Фильмы 2013 [DVDrip, WEB-DLRip, HDrip] [ 2.18 GB ] Пипец 2 / Kick-Ass 2 [2013 BDRip-AVC - Russia] potroks Скачать
Фильмы (Blu-ray, BD-Remux, HDDVD) [ 23.49 GB ] Пипец 2 / Kick-Ass 2 [ 2013 BD Remux ] DUB () Ворон Скачать
Фильмы [HD 720p, 1080p] (Хороший звук DUB, MVO) [ 7.92 GB ] Пипец 2 / Kick-Ass 2 [2013 BDRip 1080p DUB] [Лизензия / ] лисяра Скачать
Фильмы 2013 [DVDrip, WEB-DLRip, HDrip] [ 2.05 GB ] Пипец 2 / Kick-Ass 2 [2013 HDRip DUB] [Лизензия / ] лисяра Скачать

Рекламный пират

Дорогой пользователь! Огромная просьба, поблагодарите релизера, оцените раздачу и оставьте свои комментарий, если Вы скачали Пипец 2 через торрент бесплатно! Внесите свою лепту в развитие PiratBit!

Комментировать посты могут только пользователи прошедшие не сложную регистрацию

Пипец 2 через торрент Скачать бесплатно Пипец 2 Пипец 2 скачать торрент Пипец 2 смотреть онлайн Cкачать фильм Пипец 2 бесплатно Пипец 2 скачать торрент в хорошем качестве Пипец 2 смотреть онлайн бесплатно в хорошем качестве

Вы не можете начинать темыВы не можете отвечать на сообщенияВы не можете редактировать свои сообщенияВы не можете удалять свои сообщенияВы не можете голосовать в опросахВы не можете прикреплять файлы к сообщениямВы можете скачивать файлы

piratbit.ru

Скачать фильм Пипец 2 (2013) через торрент

8 февраля 2016 07:52 Пипец 2 / Kick-Ass 2 (2014) Blu-Ray CEE 1080p | Лицензия .torrent   [Информация о файле (нажмите для просмотра)] Перевод: ДубляжКодек: MPEG-4Качество: Blu-ray CEE 1080pВидео: 1920x1080, 23,976 fps, 27805 kbps avg,Аудио 1: DTS-HD Master Audio English 2106 kbps 5.1 / 48 kHz / 2106 kbps / 16-bit (DTS Core: 5.1 / 48 kHz / 1509 kbps / 16-bit)Аудио 2: DTS Audio French 768 kbps 5.1 / 48 kHz / 768 kbps / 24-bitАудио 3: DTS Audio Italian 768 kbps 5.1 / 48 kHz / 768 kbps / 24-bitАудио 4: DTS Audio Russian 768 kbps 5.1 / 48 kHz / 768 kbps / 24-bitАудио 5: DTS Audio Spanish 768 kbps 5.1 / 48 kHz / 768 kbps / 24-bitАудио 6: Dolby Digital Audio Hindi 448 kbps 5.1 / 48 kHz / 448 kbps / DN -4dBАудио 7: Dolby Digital Audio English 192 kbps 2.0 / 48 kHz / 192 kbps / DN -4dB / Dolby SurroundСубтитры: (PGS): English, French, Italian, Spanish, Hindi, Portuguese, Dutch, Danish, Finnish, Icelandic, Ukrainian (Полные), Russian (Полные), Russian (Надписи) 37,2 Gb 11 1 8 февраля 2016 07:52 Пипец 2 / Kick-Ass 2 (2013) BDRip от HQ-ViDEO | D .torrent   [Информация о файле (нажмите для просмотра)] Перевод: Дублированный|BD CEE| + ОригиналСубтитры: Русские (полные, форсированные), Украинские (полные, форсированные), Английские.Формат: AVIКачество: BDRip (источник: BLUEBIRD /Blu-ray Disc / 1080p)Кодек: XviD, build 73 codecВидео: 720 x 304; 23.976 fps; 2126 kbps; 0.405 bit/pixelАудио #1: AC3 Dolby Digital; 448 Kbps; 6 channels; 48 KHz (DUB)Аудио #2: AC3 Dolby Digital; 448 Kbps; 6 channels; 48 KHz (ENG) 2,19 Gb 64 10 8 февраля 2016 07:52 Пипец 2 / Kick-Ass 2 (2013) HDRip-AVC | D .torrent   [Информация о файле (нажмите для просмотра)] Перевод: ДубляжКодек: x264Качество: HDRip-AVC [BDRip 1080p]Видео: 720х300, 23.976 fps, 940 Kbps, 0.182 bit/pixelЗвук: AАС-НЕ, 48.0 KHz, 72 Kbps, 2 channelsСубтитры: русские, английские, украинские 746,54 Mb 37 1 8 февраля 2016 07:52 Пипец 2 / Kick-Ass 2 (2013) BDRip-AVC от ExKinoRay | D, A | Лицензия .torrent   [Информация о файле (нажмите для просмотра)] Перевод: Дублированный, авторскийСубтитры: Русские (полные , форсированные), украинские (полные, форсированные), английские (SDH)Кодек: H.264Качество: BDRip (AVC)Видео: MPEG-4 AVC, 2395 Кбит/с, 1024x426Звук: Аудио №1: Русский (AC3, 6 ch, 448 Кбит/с) - Дублированный (Лицензия) Аудио №2: Русский (AC3, 6 ch, 448 Кбит/с) - Авторский одноголосый (Матвеев) Аудио №3: Украинский (AC3, 2 ch, 192 Кбит/с) - Любительский двухголосый Аудио №4: Английский (AC3, 6 ch, 448 Кбит/с)Видео: Идентификатор : 1 Формат : AVC Формат/Информация : Advanced Video Codec Профиль формата : [email protected] Параметр CABAC формата : Да Параметр ReFrames формата : 8 кадров Идентификатор кодека : V_MPEG4/ISO/AVC Продолжительность : 1 ч. 43 м. Битрейт : 2395 Кбит/сек Ширина : 1024 пикс. Высота : 426 пикс. Соотношение сторон : 2,40:1 Частота кадров : 23,976 кадр/сек Цветовое пространство : YUV Подвыборка цветности : 4:2:0 Битовая глубина : 8 бит Тип развёртки : Прогрессивная Бит/(Пиксели*Кадры) : 0.229 Размер потока : 1,67 Гбайт (59%) Заголовок : Rip by Enigma Библиотека кодирования : x264 core 129 r2245 bc13772 Настройки программы : cabac=1 / ref=8 / deblock=1:-2:-2 / analyse=0x3:0x133 / me=umh / subme=11 / psy=1 / psy_rd=1.00:0.00 / mixed_ref=1 / me_range=48 / chroma_me=1 / trellis=2 / 8x8dct=1 / cqm=0 / deadzone=21,11 / fast_pskip=0 / chroma_qp_offset=-2 / threads=3 / lookahead_threads=1 / sliced_threads=0 / nr=0 / decimate=0 / interlaced=0 / bluray_compat=0 / constrained_intra=0 / bframes=8 / b_pyramid=2 / b_adapt=2 / b_bias=0 / direct=3 / weightb=1 / open_gop=0 / weightp=2 / keyint=240 / keyint_min=23 / scenecut=40 / intra_refresh=0 / rc=2pass / mbtree=0 / bitrate=2395 / ratetol=1.0 / qcomp=0.60 / qpmin=10 / qpmax=51 / qpstep=4 / cplxblur=20.0 / qblur=0.5 / ip_ratio=1.40 / pb_ratio=1.30 / aq=2:1.00 Язык : EnglishАудио #1: Идентификатор : 2 Формат : AC-3 Формат/Информация : Audio Coding 3 Расширение режима : CM (complete main) Идентификатор кодека : A_AC3 Продолжительность : 1 ч. 43 м. Вид битрейта : Постоянный Битрейт : 448 Кбит/сек Каналы : 6 каналов Расположение каналов : Front: L C R, Side: L R, LFE Частота : 48,0 КГц Битовая глубина : 16 бит Метод сжатия : С потерями Размер потока : 330 Мбайт (11%) Заголовок : Дублированный Язык : RussianАудио #2: Идентификатор : 3 Формат : AC-3 Формат/Информация : Audio Coding 3 Расширение режима : CM (complete main) Идентификатор кодека : A_AC3 Продолжительность : 1 ч. 43 м. Вид битрейта : Постоянный Битрейт : 448 Кбит/сек Каналы : 6 каналов Расположение каналов : Front: L C R, Side: L R, LFE Частота : 48,0 КГц Битовая глубина : 16 бит Метод сжатия : С потерями Размер потока : 330 Мбайт (11%) Заголовок : АП (Матвеев) Язык : RussianАудио #3: Идентификатор : 4 Формат : AC-3 Формат/Информация : Audio Coding 3 Расширение режима : CM (complete main) Идентификатор кодека : A_AC3 Продолжительность : 1 ч. 43 м. Вид битрейта : Постоянный Битрейт : 192 Кбит/сек Каналы : 2 канала Расположение каналов : Front: L R Частота : 48,0 КГц Битовая глубина : 16 бит Метод сжатия : С потерями Размер потока : 141 Мбайт (5%) Заголовок : Любительский (двухголосый) - украинскийАудио #4: Идентификатор : 5 Формат : AC-3 Формат/Информация : Audio Coding 3 Расширение режима : CM (complete main) Идентификатор кодека : A_AC3 Продолжительность : 1 ч. 43 м. Вид битрейта : Постоянный Битрейт : 448 Кбит/сек Каналы : 6 каналов Расположение каналов : Front: L C R, Side: L R, LFE Частота : 48,0 КГц Битовая глубина : 16 бит Метод сжатия : С потерями Размер потока : 330 Мбайт (11%) Заголовок : английский Язык : English 2,83 Gb 13 1 8 февраля 2016 07:52 Пипец 2 / Kick-Ass 2 (2013) BDRip 1080p .torrent   [Информация о файле (нажмите для просмотра)] Перевод: Дублированный (лицензия) + ОригиналКодек: x264Качество: BDRip (источник: Blu-ray Disc)Видео: 1920x800 (2,40:1), 23.976 fps, 9962 kbpsАудио #1: AC-3, 6 ch, 448 kbps (Rus)Аудио #2: AC-3, 6 ch, 640 kbps (Eng)Субтитры: Русские (форсированные), Русские, АнглийскиеВидео: Идентификатор : 1 Формат : AVC Формат/Информация : Advanced Video Codec Профиль формата : [email protected] Параметр CABAC формата : Да Параметр ReFrames формата : 5 кадров Идентификатор кодека : V_MPEG4/ISO/AVC Продолжительность : 1 ч. 43 м. Битрейт : 9962 Кбит/сек Ширина : 1920 пикселей Высота : 800 пикселей Соотношение сторон : 2,40:1 Режим частоты кадров : Постоянный Частота кадров : 23,976 кадра/сек Цветовое пространство : YUV Субдискретизация насыщенности : 4:2:0 Битовая глубина : 8 бит Тип развёртки : Прогрессивная Бит/(Пиксели*Кадры) : 0.271 Размер потока : 7,01 Гбайт (88%) Заголовок : Release by N1NT3NDO Библиотека кодирования : x264 core 140 r2377 1ca7bb9 Настройки программы : cabac=1 / ref=5 / deblock=1:-3:-3 / analyse=0x3:0x133 / me=umh / subme=11 / psy=1 / psy_rd=1.00:0.00 / mixed_ref=1 / me_range=32 / chroma_me=1 / trellis=2 / 8x8dct=1 / cqm=0 / deadzone=21,11 / fast_pskip=0 / chroma_qp_offset=-2 / threads=12 / lookahead_threads=1 / sliced_threads=0 / nr=0 / decimate=0 / interlaced=0 / bluray_compat=0 / constrained_intra=0 / bframes=6 / b_pyramid=2 / b_adapt=2 / b_bias=0 / direct=3 / weightb=1 / open_gop=0 / weightp=2 / keyint=240 / keyint_min=23 / scenecut=40 / intra_refresh=0 / rc=2pass / mbtree=0 / bitrate=9962 / ratetol=1.0 / qcomp=0.60 / qpmin=0 / qpmax=69 / qpstep=4 / cplxblur=20.0 / qblur=0.5 / ip_ratio=1.40 / pb_ratio=1.30 / aq=1:0.70 Язык : English Default : Да Forced : НетАудио #1: Идентификатор : 2 Формат : AC-3 Формат/Информация : Audio Coding 3 Расширение режима : CM (complete main) Параметр Endianness формата : Big Идентификатор кодека : A_AC3 Продолжительность : 1 ч. 43 м. Вид битрейта : Постоянный Битрейт : 448 Кбит/сек Каналы : 6 каналов Расположение каналов : Front: L C R, Side: L R, LFE Частота : 48,0 КГц Битовая глубина : 16 бит Метод сжатия : С потерями Размер потока : 330 Мбайт (4%) Заголовок : Rus Язык : Russian Default : Да Forced : НетАудио #2: Идентификатор : 3 Формат : AC-3 Формат/Информация : Audio Coding 3 Расширение режима : CM (complete main) Параметр Endianness формата : Big Идентификатор кодека : A_AC3 Продолжительность : 1 ч. 43 м. Вид битрейта : Постоянный Битрейт : 640 Кбит/сек Каналы : 6 каналов Расположение каналов : Front: L C R, Side: L R, LFE Частота : 48,0 КГц Битовая глубина : 16 бит Метод сжатия : С потерями Размер потока : 472 Мбайт (6%) Заголовок : Eng Язык : English Default : Нет Forced : Нет 7,95 Gb 74 6 8 февраля 2016 07:51 Пипец 2 / Kick-Ass 2 (2013) BDRip 720p | D .torrent   [Информация о файле (нажмите для просмотра)] Перевод #1: Профессиональный (Дублированный) (Лицензия)Перевод #2: Английский (Оригинал)Формат: MKVКачество: BDRip 720p (Источник: Blu-ray Disc)Видео: 1280x528 (2.40:1), 23.976 fps, 5179 kbps, 0.320 bit/pixelАудио #1: AC-3, 6 ch, 448 kbps (ДублированныйЛицензия)Аудио #2: AC-3, 6 ch, 448 kbps (АнглийскийОригинал)Субтитры: Русские (Полные), Английские (SDH) 4,37 Gb 59 4 8 февраля 2016 07:51 Пипец 2 / Kick-Ass 2 (2013) DVD5 от New-Team | D | сжатый .torrent   [Информация о файле (нажмите для просмотра)] Перевод: Профессиональный (дублированный)Качество: DVD5 (сжатый) /DVD9 R5Формат: DVD VideoВидео: PAL 16x9 (720х576) VBR, 5809 kbps, Auto LetterboxedАудио: 48 kHz, Dolby AC3, 6 ch, 384 kbps,русский 4,37 Gb 15 7 8 февраля 2016 07:51 Пипец 2 / Kick-Ass 2 (2013) DVD9 R5 от New-Team | D | лицензия .torrent   [Информация о файле (нажмите для просмотра)] Перевод: Профессиональный (дублированный)Качество: DVD9 R5Формат: DVD VideoВидео: PAL 16x9 (720х576) VBR, 7300 kbps, Auto LetterboxedАудио 1: 48 kHz, Dolby AC3, 6 ch, 384 kbps, английскийАудио 2: 48 kHz, Dolby AC3, 6 ch, 384 kbps, немецкийАудио 3: 48 kHz, Dolby AC3, 6 ch, 384 kbps,русскийАудио 4: 48 kHz, Dolby AC3, 6 ch, 384 kbps, турецкий 7,22 Gb 8 5 8 февраля 2016 07:51 Пипец 2 / Kick-Ass 2 (2013) НDRip от Scarabey | D | Лицензия .torrent   [Информация о файле (нажмите для просмотра)] Перевод: Дубляж - Лицензия Субтитры: нетКачество: HDRipФормат: AVIВидео: 720x304 (2.37:1), 23.976 fps, XviD build 73 ~1618 kbps avg, 0.31 bit/pixelАудио: 48 kHz, AC3 Dolby Digital, 3/2 (L,C,R,l,r) + LFE ch, ~384.00 kbps avg 1,45 Gb 552 32 8 февраля 2016 07:51 Пипец 2 / Kick-Ass 2 (2013) НDRip от Scarabey | D | Лицензия .torrent   [Информация о файле (нажмите для просмотра)] Перевод: Дубляж - Лицензия Субтитры: нетКачество: HDRipФормат: AVIВидео: 688x288 (2.39:1), 23.976 fps, XviD build 73 ~877 kbps avg, 0.18 bit/pixelАудио: 48 kHz, MPEG Layer 3, 2 ch, ~128.00 kbps avg 747,44 Mb 23 3 8 февраля 2016 07:51 Пипец 2 / Kick-Ass 2 (2013) BDRip от HQCLUB | Лицензия .torrent   [Информация о файле (нажмите для просмотра)] Перевод: Профессиональный (полное дублирование) CEE + Оригинал (английский)Субтитры: русские (полные - 2 вида, форсированные), английские (SDH, SDH-Colored), украинские (полные, форсированные)Формат: AVIКачество: BDRip (источник:Видео: 720x304 (2.37:1), 23.976 fps, XviD build 65 ~2132 kbps avg, 0.41 bit/pixelАудио #1: 48 kHz, AC3 Dolby Digital, 3/2 (L,C,R,l,r) + LFE ch, ~448 kbps avg (RUS)Аудио #2: 48 kHz, AC3 Dolby Digital, 3/2 (L,C,R,l,r) + LFE ch, ~448 kbps avg (ENG)Аудио #3: 48 kHz, AC3 Dolby Digital, 2/0 (L,R) ch, ~192 kbps avg (UKR.DVO.NEW.SCHOOL)(отдельно) 2,18 Gb 112 11 8 февраля 2016 07:51 Пипец 2 / Kick-Ass 2 (2013) BDRip 1080p от Killbrain and Scarabey | Лицензия .torrent   [Информация о файле (нажмите для просмотра)] Перевод: русский профессиональный (полное дублирование)[Лицензия, BD CEE]Контейнер: MKVВидео: AVC / [email protected] /2 pass / 23,976 fps / 1920x800p (2,40:1) / 7,8 Mbps / 0.212Аудио 1: AC3 / 5.1 ch / 448 kbps / Русский дубляж, BD CEEАудио 2: AC3 / 5.1 ch / 640 kbps / Английский original, BD CEEСубтитры: [softsub SRT]Видео: Идентификатор : 1 Формат : AVC Формат/Информация : Advanced Video Codec Профиль формата : [email protected] Параметр CABAC формата : Да Параметр ReFrames формата : 4 кадра Идентификатор кодека : V_MPEG4/ISO/AVC Продолжительность : 1 ч. 43 м. Битрейт : 7800 Кбит/сек Ширина : 1920 пикселей Высота : 800 пикселей Соотношение сторон : 2,40:1 Режим частоты кадров : Постоянный Частота кадров : 23,976 кадра/сек Цветовое пространство : YUV Субдискретизация насыщенности : 4:2:0 Битовая глубина : 8 бит Тип развёртки : Прогрессивная Бит/(Пиксели*Кадры) : 0.212 Размер потока : 5,48 Гбайт (86%) Заголовок : Kick-Ass 2 (2013) Библиотека кодирования : x264 core 138 r2358 9e941d1 Настройки программы : cabac=1 / ref=4 / deblock=1:-3:-3 / analyse=0x3:0x113 / me=umh / subme=10 / psy=1 / psy_rd=1.00:0.15 / mixed_ref=1 / me_range=32 / chroma_me=1 / trellis=2 / 8x8dct=1 / cqm=0 / deadzone=21,11 / fast_pskip=0 / chroma_qp_offset=-3 / threads=3 / lookahead_threads=1 / sliced_threads=0 / nr=0 / decimate=0 / interlaced=0 / bluray_compat=0 / constrained_intra=0 / bframes=6 / b_pyramid=2 / b_adapt=2 / b_bias=0 / direct=3 / weightb=1 / open_gop=0 / weightp=2 / keyint=240 / keyint_min=24 / scenecut=40 / intra_refresh=0 / rc_lookahead=60 / rc=2pass / mbtree=0 / bitrate=7800 / ratetol=1.0 / qcomp=0.65 / qpmin=0 / qpmax=69 / qpstep=4 / cplxblur=20.0 / qblur=0.5 / vbv_maxrate=40000 / vbv_bufsize=30000 / nal_hrd=none / ip_ratio=1.40 / pb_ratio=1.30 / aq=1:0.80 Язык : English Default : Да Forced : НетАудио #1: Идентификатор : 2 Формат : AC-3 Формат/Информация : Audio Coding 3 Расширение режима : CM (complete main) Параметр Endianness формата : Big Идентификатор кодека : A_AC3 Продолжительность : 1 ч. 43 м. Вид битрейта : Постоянный Битрейт : 448 Кбит/сек Каналы : 6 каналов Расположение каналов : Front: L C R, Side: L R, LFE Частота : 48,0 КГц Битовая глубина : 16 бит Метод сжатия : С потерями Размер потока : 330 Мбайт (5%) Заголовок : AC3 / 5.1 ch / 448 kbps / Русский дубляж, BD CEE Язык : Russian Default : Да Forced : НетАудио #2: Идентификатор : 3 Формат : AC-3 Формат/Информация : Audio Coding 3 Расширение режима : CM (complete main) Параметр Endianness формата : Big Идентификатор кодека : A_AC3 Продолжительность : 1 ч. 43 м. Вид битрейта : Постоянный Битрейт : 640 Кбит/сек Каналы : 6 каналов Расположение каналов : Front: L C R, Side: L R, LFE Частота : 48,0 КГц Битовая глубина : 16 бит Метод сжатия : С потерями Размер потока : 472 Мбайт (7%) Заголовок : AC3 / 5.1 ch / 640 kbps / Английский original, BD CEE Язык : English Default : Нет Forced : Нет 6,39 Gb 16 4 8 февраля 2016 07:51 Пипец 2 / Kick-Ass 2 (2013) BDRip-AVC от Leonardo and Scarabey | Лицензия .torrent   [Информация о файле (нажмите для просмотра)] Перевод: Профессиональный (полное дублирование) ЛицензияФормат: MKVВидео кодек: MPEG-4 AVC Аудио кодек: AACВидео: AVC, 768x320 (2.40:1) at 23.976 fps, AVC at 1336 kbps avg, 0.221 bit/pixelАудио: AAC, 2 ch, 48 кГц, VBR, 96 kbps - RussianСубтитры: Русские, английские 1,03 Gb 18 4 8 февраля 2016 07:51 Пипец 2 / Kick-Ass 2 (2013) BDRip-AVC от Leonardo and Scarabey | Лицензия .torrent   [Информация о файле (нажмите для просмотра)] Перевод: Профессиональный (полное дублирование) ЛицензияФормат: MKVВидео кодек: MPEG-4 AVC Аудио кодек: AC3Видео: AVC, 1024x426 (2.40:1) at 23.976 fps, AVC at 2387 kbps avg, 0.223 bit/pixelАудио: 48 kHz, AC3 Dolby Digital, 3/2 (L,C,R,l,r) + LFE ch, 448.00 kbps - RussianСубтитры: Русские, английские 2,04 Gb 11 2 8 февраля 2016 07:51 Пипец 2 / Kick-Ass 2 (2013) BDRip 720p от Leonardo and Scarabey | Лицензия .torrent   [Информация о файле (нажмите для просмотра)] Перевод: Профессиональный (полное дублирование) ЛицензияФормат: MKVВидео кодек: MPEG-4 AVC Аудио кодек: AC3Видео: AVC, 1280x534 (2.40:1) at 23.976 fps, AVC at 3879 kbps avg, 0.232 bit/pixelАудио: 48 kHz, AC3 Dolby Digital, 3/2 (L,C,R,l,r) + LFE ch, 448.00 kbps - RussianСубтитры: Русские, английские 3,12 Gb 21 2 8 февраля 2016 07:51 Пипец 2 / Kick-Ass 2 (2013) BDRip-AVC от HELLYWOOD | Лицензия .torrent   [Информация о файле (нажмите для просмотра)] Перевод: Профессиональный (полное дублирование)Субтитры: Русские (полные + форс.), английские (SDH + SDH-Colored)Качество: BDRip-AVC [KICK-ASS_2_REMUX_HDCLUB]Формат: MKVВидео: x.264, 1104x460 (2,40:1), 23,976 fps, 2205 Кbps, 0.181 bit/pixelАудио#1: 48 kHz, AC3 Dolby Digital, 3/2 (L,C,R,l,r) + LFE ch, 384.00 kbps |RUSАудио#2: 48 kHz, AC3 Dolby Digital, 3/2 (L,C,R,l,r) + LFE ch, 448.00 kbps |ENG 2,18 Gb 12 6 8 февраля 2016 07:51 Пипец 2 / Kick-Ass 2 (2013) BDRip-AVC от HELLYWOOD | Лицензия .torrent   [Информация о файле (нажмите для просмотра)] Перевод: Профессиональный (полное дублирование) лицензияСубтитры: Русские (полные + форс.), английские (SDH + SDH-Colored)Качество: BDRip-AVC [KICK-ASS_2_REMUX_HDCLUB]Формат: MKVВидео: x.264, 912x380 (2,40:1), 23,976 fps, 1777 Кbps, 0.214 bit/pixelАудио: 48 kHz, AAC-LC, 5.1 ch, 256.00 kbps 1,46 Gb 47 6 8 февраля 2016 07:51 Пипец 2 / Kick-Ass 2 (2013) BDRip 1080p | Лицензия .torrent   [Информация о файле (нажмите для просмотра)] Качество: BDRip (1080p)Видео: MPEG-4 AVC, 10.6 Мбит/с, 1920x800Аудио: Русский (AC3, 6 ch, 448 Кбит/с), (DTS, 6 ch, 768 Кбит/с), английский (DTS, 6 ch, 1510 Кбит/с), (AC3, 2 ch, 192 Кбит/с)Перевод: Дублированный [лицензия / BD CEE]Субтитры: Русские, английскиеВидео: Идентификатор : 1 Формат : AVC Формат/Информация : Advanced Video Codec Профиль формата : [email protected] Параметр CABAC формата : Да Параметр ReFrames формата : 5 кадров Идентификатор кодека : V_MPEG4/ISO/AVC Продолжительность : 1 ч. 43 м. Битрейт : 10,6 Мбит/сек Ширина : 1920 пикселей Высота : 800 пикселей Соотношение сторон : 2,40:1 Режим частоты кадров : Постоянный Частота кадров : 23,976 кадра/сек Цветовое пространство : YUV Субдискретизация насыщенности : 4:2:0 Битовая глубина : 8 бит Тип развёртки : Прогрессивная Бит/(Пиксели*Кадры) : 0.287 Размер потока : 7,40 Гбайт (76%) Заголовок : Kick-Ass 2 (2013) by bog3417 Библиотека кодирования : x264 core 138 r2356 a1d3d17 Настройки программы : cabac=1 / ref=5 / deblock=1:-3:-3 / analyse=0x3:0x113 / me=umh / subme=10 / psy=1 / psy_rd=1.00:0.05 / mixed_ref=1 / me_range=32 / chroma_me=1 / trellis=2 / 8x8dct=1 / cqm=0 / deadzone=21,11 / fast_pskip=0 / chroma_qp_offset=-2 / threads=18 / lookahead_threads=1 / sliced_threads=0 / nr=0 / decimate=1 / interlaced=0 / bluray_compat=0 / constrained_intra=0 / bframes=5 / b_pyramid=2 / b_adapt=2 / b_bias=0 / direct=3 / weightb=1 / open_gop=0 / weightp=2 / keyint=250 / keyint_min=23 / scenecut=40 / intra_refresh=0 / rc=2pass / mbtree=0 / bitrate=10554 / ratetol=1.0 / qcomp=0.70 / qpmin=0 / qpmax=69 / qpstep=4 / cplxblur=20.0 / qblur=0.5 / ip_ratio=1.40 / pb_ratio=1.30 / aq=2:1.00 Язык : English Default : Да Forced : НетАудио #1: Идентификатор : 2 Формат : DTS Формат/Информация : Digital Theater Systems Режим : 16 Параметр Endianness формата : Big Идентификатор кодека : A_DTS Продолжительность : 1 ч. 43 м. Вид битрейта : Постоянный Битрейт : 768 Кбит/сек Каналы : 6 каналов Расположение каналов : Front: L C R, Side: L R, LFE Частота : 48,0 КГц Битовая глубина : 24 бит Метод сжатия : С потерями Размер потока : 566 Мбайт (6%) Заголовок : DTS 5.1 - 768 kbps |Дубляж, BD CEE| Язык : Russian Default : Да Forced : НетАудио #2: Идентификатор : 3 Формат : AC-3 Формат/Информация : Audio Coding 3 Расширение режима : CM (complete main) Параметр Endianness формата : Big Идентификатор кодека : A_AC3 Продолжительность : 1 ч. 43 м. Вид битрейта : Постоянный Битрейт : 448 Кбит/сек Каналы : 6 каналов Расположение каналов : Front: L C R, Side: L R, LFE Частота : 48,0 КГц Битовая глубина : 16 бит Метод сжатия : С потерями Размер потока : 330 Мбайт (3%) Заголовок : DD 5.1 - 448 kbps |Дубляж, BD CEE| Язык : Russian Default : Нет Forced : НетАудио #3: Идентификатор : 4 Формат : DTS Формат/Информация : Digital Theater Systems Режим : 16 Параметр Endianness формата : Big Идентификатор кодека : A_DTS Продолжительность : 1 ч. 43 м. Вид битрейта : Постоянный Битрейт : 1509 Кбит/сек Каналы : 6 каналов Расположение каналов : Front: L C R, Side: L R, LFE Частота : 48,0 КГц Битовая глубина : 24 бит Метод сжатия : С потерями Размер потока : 1,09 Гбайт (11%) Заголовок : DTS 5.1 - 1509 kbps |Оригинал| Язык : English Default : Нет Forced : НетАудио #4: Идентификатор : 5 Формат : AC-3 Формат/Информация : Audio Coding 3 Профиль формата : Dolby Digital Расширение режима : CM (complete main) Параметр Endianness формата : Big Идентификатор кодека : A_AC3 Продолжительность : 1 ч. 43 м. Вид битрейта : Постоянный Битрейт : 192 Кбит/сек Каналы : 2 канала Расположение каналов : Front: L R Частота : 48,0 КГц Битовая глубина : 16 бит Метод сжатия : С потерями Размер потока : 141 Мбайт (1%) Заголовок : DD 2.0 - 192 kbps |Комментарии| Язык : English Default : Нет Forced : Нет 9,69 Gb 19 2 8 февраля 2016 07:51 Пипец 2 / Kick-Ass 2 (2013) BDRip 720p | Лицензия .torrent   [Информация о файле (нажмите для просмотра)] Качество: BDRip (720p)Видео: MPEG-4 AVC, 6587 Кбит/с, 1280x534Аудио: Русский (AC3, 6 ch, 448 Кбит/с), (DTS, 6 ch, 768 Кбит/с), английский (DTS, 6 ch, 1510 Кбит/с), (AC3, 2 ch, 192 Кбит/с)Перевод: Дублированный [лицензия / BD CEE]Субтитры: Русские, английскиеВидео: Идентификатор : 1 Формат : AVC Формат/Информация : Advanced Video Codec Профиль формата : [email protected] Параметр CABAC формата : Да Параметр ReFrames формата : 9 кадров Идентификатор кодека : V_MPEG4/ISO/AVC Продолжительность : 1 ч. 43 м. Битрейт : 6587 Кбит/сек Ширина : 1280 пикселей Высота : 534 пикселя Соотношение сторон : 2,40:1 Режим частоты кадров : Постоянный Частота кадров : 23,976 кадра/сек Цветовое пространство : YUV Субдискретизация насыщенности : 4:2:0 Битовая глубина : 8 бит Тип развёртки : Прогрессивная Бит/(Пиксели*Кадры) : 0.402 Размер потока : 4,74 Гбайт (68%) Заголовок : Kick-Ass 2 (2013) by bog3417 Библиотека кодирования : x264 core 140 r2377+40 929f149 tMod [[email protected]:2:0 X86] Настройки программы : cabac=1 / ref=9 / deblock=1:-3:-3 / analyse=0x3:0x113 / me=tesa / subme=10 / psy=1 / fade_compensate=0.00 / psy_rd=1.05:0.00 / mixed_ref=1 / me_range=24 / chroma_me=1 / trellis=2 / 8x8dct=1 / cqm=0 / deadzone=21,11 / fast_pskip=0 / chroma_qp_offset=-2 / threads=12 / lookahead_threads=2 / sliced_threads=0 / nr=0 / decimate=0 / interlaced=0 / bluray_compat=0 / constrained_intra=0 / fgo=0 / bframes=7 / b_pyramid=2 / b_adapt=2 / b_bias=0 / direct=3 / weightb=1 / open_gop=0 / weightp=2 / keyint=250 / keyint_min=23 / scenecut=40 / intra_refresh=0 / rc=crf / mbtree=0 / crf=16.0000 / qcomp=0.75 / qpmin=0:0:0 / qpmax=69:69:69 / qpstep=4 / ip_ratio=1.40 / pb_ratio=1.10 / aq=4:0.75 / aq-sensitivity=10.00 / aq-factor=1.00:1.00:1.00 / aq2=0 / aq3=0 Язык : English Default : Да Forced : НетАудио #1: Идентификатор : 2 Формат : DTS Формат/Информация : Digital Theater Systems Режим : 16 Параметр Endianness формата : Big Идентификатор кодека : A_DTS Продолжительность : 1 ч. 43 м. Вид битрейта : Постоянный Битрейт : 768 Кбит/сек Каналы : 6 каналов Расположение каналов : Front: L C R, Side: L R, LFE Частота : 48,0 КГц Битовая глубина : 24 бит Метод сжатия : С потерями Размер потока : 566 Мбайт (8%) Заголовок : DTS 5.1 - 768 kbps |Дубляж, BD CEE| Язык : Russian Default : Да Forced : НетАудио #2: Идентификатор : 3 Формат : AC-3 Формат/Информация : Audio Coding 3 Расширение режима : CM (complete main) Параметр Endianness формата : Big Идентификатор кодека : A_AC3 Продолжительность : 1 ч. 43 м. Вид битрейта : Постоянный Битрейт : 448 Кбит/сек Каналы : 6 каналов Расположение каналов : Front: L C R, Side: L R, LFE Частота : 48,0 КГц Битовая глубина : 16 бит Метод сжатия : С потерями Размер потока : 330 Мбайт (5%) Заголовок : DD 5.1 - 448 kbps |Дубляж, BD CEE| Язык : Russian Default : Нет Forced : НетАудио #3: Идентификатор : 4 Формат : DTS Формат/Информация : Digital Theater Systems Режим : 16 Параметр Endianness формата : Big Идентификатор кодека : A_DTS Продолжительность : 1 ч. 43 м. Вид битрейта : Постоянный Битрейт : 1509 Кбит/сек Каналы : 6 каналов Расположение каналов : Front: L C R, Side: L R, LFE Частота : 48,0 КГц Битовая глубина : 24 бит Метод сжатия : С потерями Размер потока : 1,09 Гбайт (16%) Заголовок : DTS 5.1 - 1509 kbps |Оригинал| Язык : English Default : Нет Forced : НетАудио #4: Идентификатор : 5 Формат : AC-3 Формат/Информация : Audio Coding 3 Профиль формата : Dolby Digital Расширение режима : CM (complete main) Параметр Endianness формата : Big Идентификатор кодека : A_AC3 Продолжительность : 1 ч. 43 м. Вид битрейта : Постоянный Битрейт : 192 Кбит/сек Каналы : 2 канала Расположение каналов : Front: L R Частота : 48,0 КГц Битовая глубина : 16 бит Метод сжатия : С потерями Размер потока : 141 Мбайт (2%) Заголовок : DD 2.0 - 192 kbps |Комментарии| Язык : English Default : Нет Forced : Нет 6,98 Gb 17 2 8 февраля 2016 07:51 Пипец 2 / Kick-Ass 2 (2013) WEB-DLRip-AVC от New-Team | D | iTunes .torrent   [Информация о файле (нажмите для просмотра)] Перевод: Профессиональный (полное дублирование) [iTunes]Видео: 944 Кбит/сек, 818*340 (2,40:1), в 23,976 кадр/сек, AVCАудио: Russian, 64,0 Кбит/сек, 48,0 КГц / 24,0 КГц, 2 канала(ов), AAC (HE-AAC / LC)Видео: Идентификатор : 1 Формат : AVC Формат/Информация : Advanced Video Codec Профиль формата : [email protected] Параметр CABAC формата : Да Параметр ReFrames формата : 14 кадры Идентификатор кодека : V_MPEG4/ISO/AVC Продолжительность : 1 ч. 42 м. Номинальный битрейт : 944 Кбит/сек Ширина : 818 пикс. Высота : 340 пикс. Соотношение сторон : 2,40:1 Частота кадров : 23,976 кадр/сек Цветовое пространство : YUV Подвыборка цветности : 4:2:0 Битовая глубина : 8 бит Тип развёртки : Прогрессивная Бит/(Пиксели*Кадры) : 0.142 Библиотека кодирования : x264 core 130 r2273 b3065e6 Настройки программы : cabac=1 / ref=14 / deblock=1:-2:-2 / analyse=0x3:0x133 / me=umh / subme=9 / psy=1 / psy_rd=1.04:0.12 / mixed_ref=1 / me_range=32 / chroma_me=1 / trellis=2 / 8x8dct=1 / cqm=0 / deadzone=21,11 / fast_pskip=0 / chroma_qp_offset=-3 / threads=4 / lookahead_threads=1 / sliced_threads=0 / nr=0 / decimate=0 / interlaced=0 / bluray_compat=0 / constrained_intra=0 / bframes=12 / b_pyramid=2 / b_adapt=2 / b_bias=0 / direct=3 / weightb=1 / open_gop=0 / weightp=2 / keyint=240 / keyint_min=23 / scenecut=40 / intra_refresh=0 / rc_lookahead=80 / rc=2pass / mbtree=0 / bitrate=944 / ratetol=2.0 / qcomp=0.70 / qpmin=0 / qpmax=69 / qpstep=4 / cplxblur=20.0 / qblur=0.5 / vbv_maxrate=17000 / vbv_bufsize=20000 / nal_hrd=none / ip_ratio=1.40 / pb_ratio=1.30 / aq=2:1.00Аудио: Идентификатор : 2 Формат : AAC Формат/Информация : Advanced Audio Codec Профиль формата : HE-AAC / LC Идентификатор кодека : A_AAC Продолжительность : 1 ч. 42 м. Канал(ы) : 2 канала(ов) Расположение каналов : Front: L R Частота : 48,0 КГц / 24,0 КГц Метод сжатия : С потерями Задержка видео : 31 мс. Заголовок : AAC 2.0 @ 64 kbps - DUB, iTunes Язык : Russian 741,6 Mb 6 2

gig-torrent.net

Скачать фильм Пипец 2 через торрент в хорошем качестве бесплатно BDRip-AVC

ОбщееУникальный идентификатор : 177294211120690160107292903659026962673 (0x85619F7E00764C3F83E1A7BD0282D8F1)Полное имя : Pipec.2.2013.RUS.BDRip.x264.-HELLYWOOD.mkvФормат : MatroskaВерсия формата : Version 4 / Version 2Размер файла : 1,46 ГбайтПродолжительность : 1 ч. 42 м.Общий поток : 2034 Кбит/секНазвание фильма : HELLYWOOD - rip by potroksДата кодирования : UTC 2013-12-07 01:57:42Программа кодирования : mkvmerge v5.9.0 ('On The Loose') built on Dec 15 2012 16:39:58Библиотека кодирования : libebml v1.3.0 + libmatroska v1.4.0

ВидеоИдентификатор : 1Формат : AVCФормат/Информация : Advanced Video CodecПрофиль формата : [email protected]Параметр CABAC формата : ДаПараметр ReFrames формата : 12 кадровИдентификатор кодека : V_MPEG4/ISO/AVCПродолжительность : 1 ч. 42 м.Номинальный битрейт : 1777 Кбит/секШирина : 912 пикселейВысота : 380 пикселейСоотношение сторон : 2,40:1Режим частоты кадров : ПостоянныйЧастота кадров : 23,976 кадра/секЦветовое пространство : YUVСубдискретизация насыщенности : 4:2:0Битовая глубина : 8 битТип развёртки : ПрогрессивнаяБит/(Пиксели*Кадры) : 0.214Заголовок : Kick-Ass 2Библиотека кодирования : x264 core 130 r2273 b3065e6Настройки программы : cabac=1 / ref=12 / deblock=1:-3:-2 / analyse=0x3:0x133 / me=umh / subme=11 / psy=1 / psy_rd=1.10:0.00 / mixed_ref=1 / me_range=48 / chroma_me=1 / trellis=2 / 8x8dct=1 / cqm=0 / deadzone=21,11 / fast_pskip=0 / chroma_qp_offset=-2 / threads=9 / lookahead_threads=6 / sliced_threads=0 / nr=0 / decimate=0 / interlaced=0 / bluray_compat=0 / constrained_intra=0 / bframes=13 / b_pyramid=2 / b_adapt=2 / b_bias=0 / direct=3 / weightb=1 / open_gop=0 / weightp=2 / keyint=250 / keyint_min=23 / scenecut=40 / intra_refresh=0 / rc_lookahead=60 / rc=2pass / mbtree=0 / bitrate=1777 / ratetol=1.0 / qcomp=0.70 / qpmin=0 / qpmax=69 / qpstep=4 / cplxblur=20.0 / qblur=0.5 / vbv_maxrate=20000 / vbv_bufsize=20000 / nal_hrd=none / ip_ratio=1.35 / pb_ratio=1.25 / aq=1:0.80Язык : EnglishDefault : ДаForced : Нет

АудиоИдентификатор : 2Формат : AACФормат/Информация : Advanced Audio CodecПрофиль формата : LCИдентификатор кодека : A_AACПродолжительность : 1 ч. 42 м.Каналы : 6 каналовРасположение каналов : Front: L C R, Side: L R, LFEЧастота : 48,0 КГцМетод сжатия : С потерямиЗадержка видео : 9 мс.Заголовок : Dub | AAC-LC 5.1 @ 256 kbps - iTunesЯзык : RussianDefault : ДаForced : Да

Текст #1Идентификатор : 3Формат : UTF-8Идентификатор кодека : S_TEXT/UTF8Идентификатор кодека/Информация : UTF-8 Plain TextЯзык : RussianDefault : НетForced : Нет

Текст #2Идентификатор : 4Формат : UTF-8Идентификатор кодека : S_TEXT/UTF8Идентификатор кодека/Информация : UTF-8 Plain TextЗаголовок : SDH-ColoredЯзык : EnglishDefault : НетForced : Нет

Текст #3Идентификатор : 5Формат : UTF-8Идентификатор кодека : S_TEXT/UTF8Идентификатор кодека/Информация : UTF-8 Plain TextЗаголовок : SDHЯзык : EnglishDefault : НетForced : Нет

Меню00:00:00.000 : en:(01)00:00:00:00000:05:58.191 : en:(02)00:05:58:19100:10:37.928 : en:(03)00:10:37:92800:14:08.305 : en:(04)00:14:08:30500:19:11.108 : en:(05)00:19:11:10800:23:11.348 : en:(06)00:23:11:34800:30:20.443 : en:(07)00:30:20:44300:35:25.498 : en:(08)00:35:25:49800:40:13.786 : en:(09)00:40:13:78600:45:37.192 : en:(10)00:45:37:19200:52:35.777 : en:(11)00:52:35:77700:58:02.395 : en:(12)00:58:02:39501:00:37.842 : en:(13)01:00:37:84201:05:36.098 : en:(14)01:05:36:09801:09:57.943 : en:(15)01:09:57:94301:15:56.343 : en:(16)01:15:56:34301:21:05.485 : en:(17)01:21:05:48501:23:32.549 : en:(18)01:23:32:54901:33:05.537 : en:(19)01:33:05:53701:36:38.250 : en:(20)01:36:38:25001:42:59.923 : en:(21)01:42:59:923

piratbit.ru

Скачать фильм Пипец 2 через торрент в хорошем качестве бесплатно BDRip-AVC

ОбщееУникальный идентификатор : 215937690164313499038112398958048496265 (0xA274161BBFEABD4981D4EE968352CA89)Полное имя : Pipec.2.2013.DUAL.BDRip.x264.-HELLYWOOD.mkvФормат : MatroskaВерсия формата : Version 4 / Version 2Размер файла : 2,18 ГбайтПродолжительность : 1 ч. 43 м.Общий поток : 3032 Кбит/секНазвание фильма : HELLYWOOD - rip by potroksДата кодирования : UTC 2013-12-02 02:06:47Программа кодирования : mkvmerge v5.9.0 ('On The Loose') built on Dec 15 2012 16:39:58Библиотека кодирования : libebml v1.3.0 + libmatroska v1.4.0

ВидеоИдентификатор : 1Формат : AVCФормат/Информация : Advanced Video CodecПрофиль формата : [email protected]Параметр CABAC формата : ДаПараметр ReFrames формата : 10 кадровИдентификатор кодека : V_MPEG4/ISO/AVCПродолжительность : 1 ч. 43 м.Битрейт : 2205 Кбит/секШирина : 1104 пикселяВысота : 460 пикселейСоотношение сторон : 2,40:1Режим частоты кадров : ПостоянныйЧастота кадров : 23,976 кадра/секЦветовое пространство : YUVСубдискретизация насыщенности : 4:2:0Битовая глубина : 8 битТип развёртки : ПрогрессивнаяБит/(Пиксели*Кадры) : 0.181Размер потока : 1,54 Гбайт (71%)Заголовок : Kick-Ass 2Библиотека кодирования : x264 core 130 r2273 b3065e6Настройки программы : cabac=1 / ref=10 / deblock=1:-2:-1 / analyse=0x3:0x133 / me=umh / subme=11 / psy=1 / psy_rd=1.05:0.00 / mixed_ref=1 / me_range=32 / chroma_me=1 / trellis=2 / 8x8dct=1 / cqm=0 / deadzone=21,11 / fast_pskip=0 / chroma_qp_offset=-2 / threads=9 / lookahead_threads=7 / sliced_threads=0 / nr=0 / decimate=0 / interlaced=0 / bluray_compat=0 / constrained_intra=0 / bframes=11 / b_pyramid=2 / b_adapt=2 / b_bias=0 / direct=3 / weightb=1 / open_gop=0 / weightp=2 / keyint=250 / keyint_min=23 / scenecut=40 / intra_refresh=0 / rc_lookahead=60 / rc=2pass / mbtree=0 / bitrate=2205 / ratetol=1.0 / qcomp=0.70 / qpmin=0 / qpmax=69 / qpstep=4 / cplxblur=20.0 / qblur=0.5 / vbv_maxrate=20000 / vbv_bufsize=20000 / nal_hrd=none / ip_ratio=1.35 / pb_ratio=1.25 / aq=1:0.80Язык : EnglishDefault : ДаForced : Нет

Аудио #1Идентификатор : 2Формат : AC-3Формат/Информация : Audio Coding 3Расширение режима : CM (complete main)Параметр Endianness формата : BigИдентификатор кодека : A_AC3Продолжительность : 1 ч. 43 м.Вид битрейта : ПостоянныйБитрейт : 384 Кбит/секКаналы : 6 каналовРасположение каналов : Front: L C R, Side: L R, LFEЧастота : 48,0 КГцБитовая глубина : 16 битМетод сжатия : С потерямиРазмер потока : 283 Мбайт (13%)Заголовок : Dub | DD 5.1 @ 384 kbps - iTunesЯзык : RussianDefault : ДаForced : Да

Аудио #2Идентификатор : 3Формат : AC-3Формат/Информация : Audio Coding 3Расширение режима : CM (complete main)Параметр Endianness формата : BigИдентификатор кодека : A_AC3Продолжительность : 1 ч. 43 м.Вид битрейта : ПостоянныйБитрейт : 448 Кбит/секКаналы : 6 каналовРасположение каналов : Front: L C R, Side: L R, LFEЧастота : 48,0 КГцБитовая глубина : 16 битМетод сжатия : С потерямиРазмер потока : 330 Мбайт (15%)Заголовок : Original | DD 5.1 @ 448 kbpsЯзык : EnglishDefault : НетForced : Нет

Текст #1Идентификатор : 4Формат : UTF-8Идентификатор кодека : S_TEXT/UTF8Идентификатор кодека/Информация : UTF-8 Plain TextЗаголовок : SDH-ColoredЯзык : EnglishDefault : НетForced : Нет

Текст #2Идентификатор : 5Формат : UTF-8Идентификатор кодека : S_TEXT/UTF8Идентификатор кодека/Информация : UTF-8 Plain TextЗаголовок : SDHЯзык : EnglishDefault : НетForced : Нет

Меню00:00:00.000 : en:(01)00:00:00:00000:05:58.191 : en:(02)00:05:58:19100:10:37.928 : en:(03)00:10:37:92800:14:08.305 : en:(04)00:14:08:30500:19:11.108 : en:(05)00:19:11:10800:23:11.348 : en:(06)00:23:11:34800:30:20.443 : en:(07)00:30:20:44300:35:25.498 : en:(08)00:35:25:49800:40:13.786 : en:(09)00:40:13:78600:45:37.192 : en:(10)00:45:37:19200:52:35.777 : en:(11)00:52:35:77700:58:02.395 : en:(12)00:58:02:39501:00:37.842 : en:(13)01:00:37:84201:05:36.098 : en:(14)01:05:36:09801:09:57.943 : en:(15)01:09:57:94301:15:56.343 : en:(16)01:15:56:34301:21:05.485 : en:(17)01:21:05:48501:23:32.549 : en:(18)01:23:32:54901:33:05.537 : en:(19)01:33:05:53701:36:38.250 : en:(20)01:36:38:25001:42:59.923 : en:(21)01:42:59:923

piratbit.ru

Скачать фильм Пипец 2 через торрент в хорошем качестве бесплатно 2013

DISC INFO:

Disc Title: Kick-Ass.2.2013.BDRemux.1080p.EUR.NNM-CLUBDisc Size: 25 224 235 568 bytesProtection: AACSBD-Java: NoBDInfo: 0.5.8

PLAYLIST REPORT:

Name: 00000.MPLSLength: 1:43:00.170 (h:m:s.ms)Size: 25 224 142 848 bytesTotal Bitrate: 32,65 Mbps

VIDEO:

Codec Bitrate Description----- ------- -----------MPEG-4 AVC Video 27805 kbps 1080p / 23,976 fps / 16:9 / High Profile 4.1

AUDIO:

Codec Language Bitrate Description----- -------- ------- -----------Dolby Digital Audio Russian 384 kbps 5.1 / 48 kHz / 384 kbps / DN -4dBDTS-HD Master Audio English 2106 kbps 5.1 / 48 kHz / 2106 kbps / 16-bit (DTS Core: 5.1 / 48 kHz / 1509 kbps / 16-bit)Dolby Digital Audio English 192 kbps 2.0 / 48 kHz / 192 kbps / DN -4dB / Dolby Surround

SUBTITLES:

Codec Language Bitrate Description----- -------- ------- -----------Presentation Graphics English 51,144 kbpsPresentation Graphics French 32,623 kbpsPresentation Graphics Spanish 41,661 kbpsPresentation Graphics Portuguese 42,937 kbpsPresentation Graphics English 93,100 kbpsPresentation Graphics French 81,887 kbpsPresentation Graphics Spanish 84,114 kbpsPresentation Graphics French 0,414 kbpsPresentation Graphics Spanish 0,819 kbps

FILES:

Name Time In Length Size Total Bitrate---- ------- ------ ---- -------------00000.M2TS 0:00:00.000 1:43:00.170 25 224 142 848 32 652

CHAPTERS:

Number Time In Length Avg Video Rate Max 1-Sec Rate Max 1-Sec Time Max 5-Sec Rate Max 5-Sec Time Max 10Sec Rate Max 10Sec Time Avg Frame Size Max Frame Size Max Frame Time------ ------- ------ -------------- -------------- -------------- -------------- -------------- -------------- -------------- -------------- -------------- --------------1 0:00:00.000 0:05:00.000 27 712 kbps 35 396 kbps 00:00:23.481 32 905 kbps 00:03:05.476 32 190 kbps 00:01:12.614 144 455 bytes 476 679 bytes 00:00:38.0382 0:05:00.000 0:05:00.000 27 284 kbps 34 791 kbps 00:05:01.467 32 813 kbps 00:05:01.968 32 462 kbps 00:05:00.049 142 240 bytes 454 315 bytes 00:08:38.9353 0:10:00.000 0:05:00.000 29 039 kbps 35 064 kbps 00:12:47.850 33 061 kbps 00:12:38.757 32 823 kbps 00:12:36.922 151 390 bytes 442 065 bytes 00:14:32.8304 0:15:00.000 0:05:00.000 27 566 kbps 34 610 kbps 00:19:11.817 32 829 kbps 00:16:54.263 32 289 kbps 00:19:44.683 143 715 bytes 457 998 bytes 00:19:11.1085 0:20:00.000 0:05:00.000 28 321 kbps 34 608 kbps 00:22:36.730 32 963 kbps 00:21:37.713 32 760 kbps 00:20:10.083 147 647 bytes 475 692 bytes 00:24:39.9786 0:25:00.000 0:05:00.000 28 043 kbps 34 147 kbps 00:27:45.205 33 086 kbps 00:27:41.201 32 297 kbps 00:29:40.653 146 219 bytes 397 960 bytes 00:29:28.1417 0:30:00.000 0:05:00.000 26 744 kbps 33 997 kbps 00:30:19.484 31 988 kbps 00:30:47.345 31 829 kbps 00:30:41.839 139 427 bytes 408 637 bytes 00:30:20.4438 0:35:00.000 0:05:00.000 27 476 kbps 35 327 kbps 00:36:29.186 33 100 kbps 00:36:25.349 32 651 kbps 00:36:22.263 143 244 bytes 414 412 bytes 00:36:30.0629 0:40:00.000 0:05:00.000 29 855 kbps 34 534 kbps 00:44:19.656 33 057 kbps 00:42:37.680 32 879 kbps 00:42:32.675 155 644 bytes 358 612 bytes 00:44:20.61610 0:45:00.000 0:05:00.000 29 810 kbps 34 932 kbps 00:46:37.753 33 114 kbps 00:48:07.551 32 934 kbps 00:45:52.124 155 411 bytes 372 785 bytes 00:48:12.47211 0:50:00.000 0:05:00.000 27 063 kbps 34 079 kbps 00:50:03.834 32 754 kbps 00:52:23.348 32 535 kbps 00:52:23.723 141 108 bytes 384 419 bytes 00:52:26.35112 0:55:00.000 0:05:00.000 27 154 kbps 34 444 kbps 00:56:49.280 32 990 kbps 00:56:55.662 32 310 kbps 00:56:51.908 141 566 bytes 454 467 bytes 00:56:48.69613 1:00:00.000 0:05:00.000 27 787 kbps 34 387 kbps 01:02:49.182 32 885 kbps 01:03:44.111 32 636 kbps 01:02:08.975 144 864 bytes 373 759 bytes 01:03:21.17214 1:05:00.000 0:05:00.000 28 026 kbps 34 896 kbps 01:05:38.100 33 016 kbps 01:05:36.057 32 724 kbps 01:08:37.655 146 110 bytes 444 953 bytes 01:05:38.14215 1:10:00.000 0:05:00.000 28 084 kbps 35 081 kbps 01:13:45.087 33 300 kbps 01:13:41.083 32 761 kbps 01:14:18.162 146 415 bytes 399 856 bytes 01:10:54.37516 1:15:00.000 0:05:00.000 27 477 kbps 34 249 kbps 01:17:57.798 32 236 kbps 01:18:02.677 31 694 kbps 01:17:57.798 143 268 bytes 508 153 bytes 01:15:56.34317 1:20:00.000 0:05:00.000 27 381 kbps 33 854 kbps 01:22:00.332 31 915 kbps 01:20:26.029 30 949 kbps 01:23:32.424 142 749 bytes 500 021 bytes 01:22:39.07918 1:25:00.000 0:05:00.000 29 162 kbps 34 596 kbps 01:27:27.951 33 046 kbps 01:25:35.463 32 827 kbps 01:29:12.305 152 034 bytes 361 951 bytes 01:25:39.63419 1:30:00.000 0:05:00.000 27 981 kbps 35 105 kbps 01:33:01.284 32 945 kbps 01:33:08.249 32 314 kbps 01:33:06.872 145 878 bytes 430 884 bytes 01:34:27.53620 1:35:00.000 0:05:00.000 25 423 kbps 33 985 kbps 01:36:09.013 33 052 kbps 01:36:09.013 32 878 kbps 01:36:08.971 132 540 bytes 438 238 bytes 01:35:38.19021 1:40:00.000 0:03:00.170 25 662 kbps 34 204 kbps 01:42:47.452 33 023 kbps 01:42:43.448 32 928 kbps 01:42:38.318 133 843 bytes 383 968 bytes 01:41:58.570

pic

piratbit.ru


Смотрите также