Скачать фильм через торрент табу бесплатно в хорошем качестве


1-6 из 8 [2017 WEB-DLRip] [MVO] скачать через торрент

Размер: 7.07 GB | Добавлен: 8 мес. назад | Торрент скачан:3 раза
Реклама Дарим 3000 рублей за регистрацию, не упусти свой шанс получить шикарный бонус!!!

08-01-2017 20:07 Табу Скачать торрент  

Табу / Taboo Год выхода: 2017Жанр: ДрамаСтрана: СШАПродолжительность: ~ 00:55:00 серияПеревод: Любительский (многоголосый закадровый) OmskBird

Режиссер: Андерс Энгстрем, Кристоффер Нюхольм

В ролях: Том Харди, Лео Билл, Уна Чаплин, Ричард Диксон, Дэвид Хейман, Майкл Келли, Дэнни Лигаири, Джонатан Прайс, Рой Торн, Скрубиус ПипО фильме:Считающийся погибшим, авантюрист и искатель приключений Джеймс Кезиах Делейни вновь в 1814 году, после 10 лет путешествий в Африке, появляется в Лондоне, стремясь отомстить за смерть своего отца. Делейни возвращается, чтобы обнаружить, что ему было оставлено отцом таинственное наследство и строит свою собственную корабельную империю в начале 1800-х годов, играя в опасную игру между двумя воюющими странами - Англией и Америкой...

ФайлКачество: WEB-DLRipФормат: AVIВидео: 720x400 (1.80:1), 25 fps, XviD build 73 ~2106 kbps avg, 0.293 bit/pixelЗвук: Аудио rus: AC-3, 3/2 (L,C,R,l,r) + LFE ch, 48,0 КГц, 384 Кбит/сек - OmskBirdАудио eng: AC-3, 3/2 (L,C,R,l,r) + LFE ch, 48,0 КГц, 384 Кбит/секСубтитры: отсутствуют

Релиз-группа: OmskBirdРоли озвучивали: Павел Ярощик, Алексей Гнеушев, Станислав Черсков, Марина ГассанПеревод: Никита КовальЗвукорежиссер: Павел КвентовПостер: Ксения ПросветоваМонтаж и сведение звука: Юрий Гамов

GeneralComplete name : E:\Taboo.S01.WEB-DLRip.OmskBird\Taboo.2017.S01E01.400p.WEB-DLRip.aviFormat : AVIFormat/Info : Audio Video InterleaveFile size : 1.16 GiBDuration : 55mn 4sOverall bit rate : 3 004 KbpsWriting application : VirtualDubMod 1.5.10.3 (build 2550/release)Writing library : VirtualDubMod build 2550/release

VideoID : 0Format : MPEG-4 VisualFormat profile : Advanced [email protected] settings, BVOP : 1Format settings, QPel : NoFormat settings, GMC : No warppointsFormat settings, Matrix : Default (MPEG)Codec ID : XVIDCodec ID/Hint : XviDDuration : 55mn 4sBit rate : 2 106 KbpsWidth : 720 pixelsHeight : 400 pixelsDisplay aspect ratio : 16:9Frame rate : 25.000 fpsColor space : YUVChroma subsampling : 4:2:0Bit depth : 8 bitsScan type : ProgressiveCompression mode : LossyBits/(Pixel*Frame) : 0.293Stream size : 830 MiB (70%)Writing library : XviD 73

Audio #1ID : 1Format : AC-3Format/Info : Audio Coding 3Mode extension : CM (complete main)Format settings, Endianness : BigCodec ID : 2000Duration : 55mn 4sBit rate mode : ConstantBit rate : 384 KbpsChannel(s) : 6 channelsChannel positions : Front: L C R, Side: L R, LFESampling rate : 48.0 KHzCompression mode : LossyStream size : 151 MiB (13%)Alignment : Split accross interleaves

Audio #2ID : 2Format : AC-3Format/Info : Audio Coding 3Mode extension : CM (complete main)Format settings, Endianness : BigCodec ID : 2000Duration : 55mn 4sBit rate mode : ConstantBit rate : 384 KbpsChannel(s) : 6 channelsChannel positions : Front: L C R, Side: L R, LFESampling rate : 48.0 KHzCompression mode : LossyStream size : 151 MiB (13%)Alignment : Split accross interleaves

Внимание! Раздача ведётся путём добавления новых серий; при каждом добавлении создётся новый торрент. Чтобы начать докачку новой серии, пользователям необходимо сделать следующее:Остановить скачивание.Удалить старый торрент у себя из клиента (старые серии удалять не надо).Скачать новый торрент и запустить его у себя в клиенте вместо старого, при этом указать клиенту путь в старую папку куда и должно происходить скачивание новых серий.Ваш клиент при этом должен произвести хеширование (проверку) старой папки (если не производит сам - помогите ему сделать это), и будет докачивать только те серии которых у вас ещё нет. Старые серии при этом не удаляются, а продолжают раздаваться!Eсли вы уже удалили старые серии, то предотвратить повторную закачку старых серий можно, отжав галочку в соответсвующих местах при запуске нового торрента. По возможности, желательно не удалять старые серии как можно дольше чтобы релизёр не столько продолжал раздавать старые серии, а смог сконцентрироваться на новых.

Скачать Табу через торрент http://i91.fastpic.ru/big/2017/0108/ed/dd6721691e7974b2cc70a9db72b029ed.jpg Скачать фильм Табу через торрент бесплантно в хорошем качестве О фильме:Считающийся погибшим, авантюрист и искатель приключений Джеймс Кезиах Делейни вновь в 1814 году, после 10 лет путешествий в ... 2017-02-14 17:20 10 10 5

Loading...

Loading...

Последний раз редактировалось: killermax2013 (2017-02-14 17:20), всего редактировалось 2 раз(а)

Рекламный пират

17-01-2017 08:15 Табу Скачать торрент  

14-02-2017 17:20 Табу Скачать торрент  

Дорогой пользователь! Огромная просьба, поблагодарите релизера, оцените раздачу и оставьте свои комментарий, если Вы скачали Табу через торрент бесплатно! Внесите свою лепту в развитие PiratBit!

Комментировать посты могут только пользователи прошедшие не сложную регистрацию

Табу через торрент Скачать бесплатно Табу Табу скачать торрент Табу смотреть онлайн Cкачать фильм Табу бесплатно Табу скачать торрент в хорошем качестве Табу смотреть онлайн бесплатно в хорошем качестве

Вы не можете начинать темыВы не можете отвечать на сообщенияВы не можете редактировать свои сообщенияВы не можете удалять свои сообщенияВы не можете голосовать в опросахВы не можете прикреплять файлы к сообщениямВы можете скачивать файлы

piratbit.ru

Калифорнийское табу / California Taboo [1989 All sex incest oral VHSRip] скачать через торрент

Размер: 860 MB | Добавлен: 7 лет 8 мес. назад | Торрент скачан:689 раз
Реклама Дарим 3000 рублей за регистрацию, не упусти свой шанс получить шикарный бонус!!!

30-01-2010 01:00 Калифорнийское табу Скачать торрент  

Калифорнийское табу / California Taboo

Год выпуска: 1989Страна: USAЖанр: All sex, incest, oralПродолжительность: 01:29:14

Режиссер: C. L. SolomonСценарий: Video rarities production

В ролях:Jeanna Fine, Shanna McCullough, Nina Hartley, Breezy Lane, Ron Jeremy, Joey Silvera, Christen Carson

Описание: Классика жанра инцест...

Качество: VHSRipФормат: AVIВидео кодек: DivXАудио кодек: MP3 Видео: DivX 5 640x464 29.97fps 1239KbpsАудио: MPEG Audio Layer 3 44100Hz stereo 96Kbps

Скачать Калифорнийское табу через торрент http://i1.fastpic.ru/big/2010/0205/81/6f58f1cfbb374e939bd02d3a85b44781.jpg Скачать фильм Калифорнийское табу через торрент бесплантно в хорошем качестве Описание: Классика жанра ... 2010-01-30 01:00 9.5 10 12

Loading...

Loading...

Рекламный пират

Дорогой пользователь! Огромная просьба, поблагодарите релизера, оцените раздачу и оставьте свои комментарий, если Вы скачали Калифорнийское табу через торрент бесплатно! Внесите свою лепту в развитие PiratBit!

Комментировать посты могут только пользователи прошедшие не сложную регистрацию

Калифорнийское табу через торрент Скачать бесплатно Калифорнийское табу Калифорнийское табу скачать торрент Калифорнийское табу смотреть онлайн Cкачать фильм Калифорнийское табу бесплатно Калифорнийское табу скачать торрент в хорошем качестве Калифорнийское табу смотреть онлайн бесплатно в хорошем качестве

Вы не можете начинать темыВы не можете отвечать на сообщенияВы не можете редактировать свои сообщенияВы не можете удалять свои сообщенияВы не можете голосовать в опросахВы не можете прикреплять файлы к сообщениямВы можете скачивать файлы

piratbit.ru

1-5 из 8 [2017 WEB-DL 720p] [MVO] скачать через торрент

Качают: 2 [ 0 KB/s ]
Размер: 8.47 GB | Добавлен: 8 мес. назад | Торрент скачан:41 раз
Реклама Дарим 3000 рублей за регистрацию, не упусти свой шанс получить шикарный бонус!!!

29-01-2017 08:46 Табу Скачать торрент  

Табу / Taboo Год выхода: 2017Страна: Великобритания, СШАЖанр: драмаПродолжительность: ~00:55:00 Озвучание: Профессиональное (многоголосое закадровое) (SDI Media) Режиссёры: Андерс Энгстрем, Кристоффер Нюхольм

В ролях: Том Харди, Лео Билл, Уна Чаплин, Ричард Диксон, Дэвид Хейман, Майкл Келли, Дэнни Лигаири, Джонатан Прайс, Рой Торн, Скрубиус Пип.

Описание: Искатель приключений Джеймс Кезайя Делейни строит свою собственную корабельную империю в начале 1800-х годов.

Качество видео: WEB-DL 720pФормат: MKVВидео: MPEG-4 AVC, ~ 4000 Кбит/с, 1280х720, 25 fpsАудио: 48 kHz, AC3 Dolby Digital, 2 ch, ~192.00 kbpsСубтитры: нетGeneralUnique ID : 246407910565500779258531323268933342398 (0xB9606FF61DFA9832B157215DD153D4BE)Complete name : E:\Taboo.s01.WEB-DL.720p.SDI.Media\Taboo.s01.e04.WEB-DL.720p.mkvFormat : MatroskaFormat version : Version 4 / Version 2File size : 1.60 GiBDuration : 56mn 25sOverall bit rate : 4 068 KbpsEncoded date : UTC 2017-01-29 06:07:24Writing application : mkvmerge v8.3.0 ('Over the Horizon') 64bitWriting library : libebml v1.3.1 + libmatroska v1.4.2

VideoID : 1Format : AVCFormat/Info : Advanced Video CodecFormat profile : [email protected] settings, CABAC : YesFormat settings, ReFrames : 4 framesCodec ID : V_MPEG4/ISO/AVCDuration : 56mn 25sBit rate : 3 874 KbpsWidth : 1 280 pixelsHeight : 720 pixelsDisplay aspect ratio : 16:9Frame rate mode : ConstantFrame rate : 25.000 fpsColor space : YUVChroma subsampling : 4:2:0Bit depth : 8 bitsScan type : ProgressiveBits/(Pixel*Frame) : 0.168Stream size : 1.50 GiB (93%)Writing library : x264 core 146 r2538 121396cEncoding settings : cabac=1 / ref=1 / deblock=1:-1:-1 / analyse=0x3:0x113 / me=hex / subme=2 / psy=1 / psy_rd=1.00:0.15 / mixed_ref=0 / me_range=16 / chroma_me=1 / trellis=0 / 8x8dct=1 / cqm=0 / deadzone=21,11 / fast_pskip=1 / chroma_qp_offset=0 / threads=18 / lookahead_threads=5 / sliced_threads=0 / nr=0 / decimate=1 / interlaced=0 / bluray_compat=0 / constrained_intra=0 / bframes=3 / b_pyramid=2 / b_adapt=1 / b_bias=0 / direct=1 / weightb=1 / open_gop=0 / weightp=1 / keyint=250 / keyint_min=25 / scenecut=40 / intra_refresh=0 / rc_lookahead=10 / rc=2pass / mbtree=1 / bitrate=3874 / ratetol=1.0 / qcomp=0.60 / qpmin=0 / qpmax=69 / qpstep=4 / cplxblur=20.0 / qblur=0.5 / vbv_maxrate=17500 / vbv_bufsize=17500 / nal_hrd=none / filler=0 / ip_ratio=1.40 / aq=1:1.00Default : YesForced : No

AudioID : 2Format : AC-3Format/Info : Audio Coding 3Mode extension : CM (complete main)Format settings, Endianness : BigCodec ID : A_AC3Duration : 56mn 25sBit rate mode : ConstantBit rate : 192 KbpsChannel(s) : 2 channelsChannel positions : Front: L RSampling rate : 48.0 KHzCompression mode : LossyStream size : 77.5 MiB (5%)Language : RussianDefault : YesForced : No

Внимание! Раздача ведётся путём добавления новых серий; при каждом добавлении создаётся новый торрент. Чтобы начать докачку новой серии, пользователям необходимо сделать следующее:(1) остановить скачивание,(2) удалить старый торрент у себя из клиента (старые серии удалять не надо),(3) скачать новый торрент и запустить его у себя в клиенте вместо старого, при этом указать клиенту путь в старую папку куда и должно происходить скачивание новых серий.Ваш клиент при этом должен произвести хеширование (проверку) старой папки (если не производит сам - помогите ему сделать это), и будет докачивать только те серии которых у вас ещё нет. Старые серии при этом не удаляются, а продолжают раздаваться!Eсли вы уже удалили старые серии, то предотвратить повторную закачку старых серий можно, отжав галочку в соответствующих местах при запуске нового торрента. По возможности, желательно не удалять старые серии как можно дольше чтобы релизёр не столько продолжал раздавать старые серии, а смог сконцентрироваться на новых.

Скачать Табу через торрент http://i90.fastpic.ru/big/2017/0109/79/650051978dadc0d9e4651cda01cfe079.jpg Скачать фильм Табу через торрент бесплантно в хорошем качестве Описание: Искатель приключений Джеймс Кезайя Делейни строит свою собственную корабельную империю в начале 1800-х годов. ... 2017-02-05 08:33 9.3 10 27

Loading...

Loading...

Последний раз редактировалось: killermax2013 (2017-02-05 08:33), всего редактировалось 1 раз

Рекламный пират

29-01-2017 09:07 Табу Скачать торрент  

killermax2013, забрал, ждал.

29-01-2017 09:34 Табу Скачать торрент  

Ворон писал(а):

killermax2013, забрал, ждал.

что за поц оценивает раздачи в 1 ? при чем не только мои как посмотрю

29-01-2017 10:15 Табу Скачать торрент  

killermax2013 писал(а):

что за поц оценивает раздачи в 1 ? при чем не только мои как посмотрю

хз, нет статы по оценкам кто и где и как...

30-01-2017 11:12 Табу Скачать торрент  

зачёт, спс

05-02-2017 08:33 Табу Скачать торрент  

06-02-2017 13:43 Табу Скачать торрент  

пока это лучшая озвучка

Дорогой пользователь! Огромная просьба, поблагодарите релизера, оцените раздачу и оставьте свои комментарий, если Вы скачали Табу через торрент бесплатно! Внесите свою лепту в развитие PiratBit!

Комментировать посты могут только пользователи прошедшие не сложную регистрацию

Табу через торрент Скачать бесплатно Табу Табу скачать торрент Табу смотреть онлайн Cкачать фильм Табу бесплатно Табу скачать торрент в хорошем качестве Табу смотреть онлайн бесплатно в хорошем качестве

Вы не можете начинать темыВы не можете отвечать на сообщенияВы не можете редактировать свои сообщенияВы не можете удалять свои сообщенияВы не можете голосовать в опросахВы не можете прикреплять файлы к сообщениямВы можете скачивать файлы

piratbit.ru

Табу / Taboo / Сезон 1 / Серии 1-8 из 8 [2017 HDTVRip-AVC] [LostFilm] От ExKinoRay скачать через торрент

GeneralUnique ID : 196261634013945195944601049838266032308 (0x93A69DA44B59519F922E3BB223C720B4)Complete name : E:\Taboo.S01.2017.LostFilm.AVC.ExKinoRay\Taboo.S01E01.2017.LostFilm.AVC.ExKinoRay.mkvFormat : MatroskaFormat version : Version 2File size : 952 MiBDuration : 55 minOverall bit rate : 2 419 kb/sMovie name : Taboo S01E01 2017 from ExKinoRayEncoded date : UTC 2017-02-11 05:47:11Writing application : mkvmerge v7.6.0 ('Garden of Dreams') 32bit built on Feb 11 2015 00:18:47Writing library : libebml v1.3.1 + libmatroska v1.4.2

VideoID : 1Format : AVCFormat/Info : Advanced Video CodecFormat profile : [email protected] settings, CABAC : YesFormat settings, ReFrames : 12 framesCodec ID : V_MPEG4/ISO/AVCDuration : 55 minBit rate : 1 650 kb/sWidth : 1 024 pixelsHeight : 576 pixelsDisplay aspect ratio : 16:9Frame rate mode : ConstantFrame rate : 25.000 FPSColor space : YUVChroma subsampling : 4:2:0Bit depth : 8 bitsScan type : ProgressiveBits/(Pixel*Frame) : 0.112Stream size : 631 MiB (66%)Title : EnigmaWriting library : x264 core 144 r2525 40bb568Encoding settings : cabac=1 / ref=12 / deblock=1:-2:-2 / analyse=0x3:0x113 / me=umh / subme=10 / psy=1 / psy_rd=1.00:0.05 / mixed_ref=1 / me_range=32 / chroma_me=1 / trellis=2 / 8x8dct=1 / cqm=0 / deadzone=21,11 / fast_pskip=1 / chroma_qp_offset=-3 / threads=12 / lookahead_threads=3 / sliced_threads=0 / nr=0 / decimate=1 / interlaced=0 / bluray_compat=0 / constrained_intra=0 / bframes=10 / b_pyramid=2 / b_adapt=2 / b_bias=0 / direct=3 / weightb=1 / open_gop=0 / weightp=2 / keyint=250 / keyint_min=25 / scenecut=40 / intra_refresh=0 / rc_lookahead=40 / rc=2pass / mbtree=0 / bitrate=1650 / ratetol=1.0 / qcomp=0.60 / qpmin=0 / qpmax=51 / qpstep=4 / cplxblur=20.0 / qblur=0.5 / vbv_maxrate=50000 / vbv_bufsize=62500 / nal_hrd=none / filler=0 / ip_ratio=1.40 / pb_ratio=1.30 / aq=1:1.00Language : EnglishDefault : YesForced : NoColor range : LimitedColor primaries : BT.709Transfer characteristics : BT.709Matrix coefficients : BT.709

Audio #1ID : 2Format : AC-3Format/Info : Audio Coding 3Mode extension : CM (complete main)Format settings, Endianness : BigCodec ID : A_AC3Duration : 55 minBit rate mode : ConstantBit rate : 384 kb/sChannel(s) : 6 channelsChannel positions : Front: L C R, Side: L R, LFESampling rate : 48.0 kHzFrame rate : 31.250 FPS (1536 spf)Compression mode : LossyStream size : 151 MiB (16%)Title : LostFilmLanguage : RussianDefault : YesForced : No

Audio #2ID : 3Format : AC-3Format/Info : Audio Coding 3Mode extension : CM (complete main)Format settings, Endianness : BigCodec ID : A_AC3Duration : 55 minBit rate mode : ConstantBit rate : 384 kb/sChannel(s) : 6 channelsChannel positions : Front: L C R, Side: L R, LFESampling rate : 48.0 kHzFrame rate : 31.250 FPS (1536 spf)Compression mode : LossyDelay relative to video : 3 msStream size : 151 MiB (16%)Language : EnglishDefault : NoForced : No

Text #1ID : 4Format : UTF-8Codec ID : S_TEXT/UTF8Codec ID/Info : UTF-8 Plain TextLanguage : RussianDefault : NoForced : No

Text #2ID : 5Format : UTF-8Codec ID : S_TEXT/UTF8Codec ID/Info : UTF-8 Plain TextLanguage : EnglishDefault : NoForced : No

piratbit.ru


Смотрите также