Скачать фильм через торрент тренировочный день в хорошем качестве


Скачать фильм Тренировочный день через торрент в хорошем качестве бесплатно HDRip

Тренировочный день / Training Day

Год выпуска: 2001Страна: США, АвстралияЖанр: триллер, криминал, драмаПродолжительность: 02:02:02Перевод: Дубляж (Лицензия)

Режиссер: Антуан ФукуаПродюссер: Дэвид Эйер, Брюс Берман, Дэвис ГуггенхеймСценарий: Дэвид Эйер

Бюджет: $45 000 000Премьера в мире: 2 сентября 2001

R лицам до 17 лет обязательно присутствие взрослогоIMDb: 7.60 (145 707)

В ролях: Дензел Вашингтон, Этан Хоук, Скотт Гленн, Том Беренджер, Харрис Юлин, Рэймонд Дж. Бэрри, Клифф Кёртис, Др. Дре, Снуп Догг, Мэйси Грэй

Описание: Фильм посвящен событиям, приключившимся в первый день работы новичка-полицейского Джейка Хойта, поступившего на работу в полицию Лос-Анджелеса, а конкретно — в отдел по борьбе с наркотиками. Ему, как это всегда бывает, попался многоопытный партнер — Алонзо, коррумпированный полицейский-ветеран.

Американцам уже не привыкать к тому, что на улицах их страны ведется каждодневная война между наркодилерами и полицией. Алонзо давно усвоил тот факт, что законными методами с этим злом бороться бесполезно, а потому он выработал некую философию, балансирующую на грани добра и зла.

Качество: HDRipФормат: AVIВидео кодек: XviDАудио кодек: MPEG AudioВидео: 688x288 (2.39:1), 23.976 fps, XviD build 47 ~721 kbps avg, 0.15 bit/pixelАудио#1: 48 kHz, MPEG Layer 3, 2 ch, ~128.00 kbps avg

GeneralComplete name : D:\Фильмы\Ост\Training Day.2001.HDRip.aviFormat : AVIFormat/Info : Audio Video InterleaveFile size : 750 MiBDuration : 2h 2mnOverall bit rate : 859 KbpsWriting application : VirtualDubMod 1.5.10.2 (build 2540/release)Writing library : VirtualDubMod build 2540/release

VideoID : 0Format : MPEG-4 VisualFormat profile : Advanced [email protected] settings, BVOP : 1Format settings, QPel : NoFormat settings, GMC : No warppointsFormat settings, Matrix : Default (MPEG)Codec ID : XVIDCodec ID/Hint : XviDDuration : 2h 2mnBit rate : 721 KbpsWidth : 688 pixelsHeight : 288 pixelsDisplay aspect ratio : 2.40:1Frame rate : 23.976 fpsColor space : YUVChroma subsampling : 4:2:0Bit depth : 8 bitsScan type : ProgressiveCompression mode : LossyBits/(Pixel*Frame) : 0.152Stream size : 630 MiB (84%)Writing library : XviD 1.2.0.dev47 (UTC 2006-11-01)

AudioID : 1Format : MPEG AudioFormat version : Version 1Format profile : Layer 3Codec ID : 55Codec ID/Hint : MP3 Duration : 2h 2mnBit rate mode : ConstantBit rate : 128 KbpsChannel(s) : 2 channelsSampling rate : 48.0 KHzCompression mode : LossyStream size : 112 MiB (15%)Alignment : Aligned on interleavesInterleave, duration : 42 ms (1.00 video frame)Interleave, preload duration : 504 msWriting library : LAME3.97 Encoding settings : -m s -V 4 -q 2 -lowpass 17 -b 128

piratbit.ru

Скачать фильм Тренировочный день через торрент в хорошем качестве бесплатно 720p

Размер: 2.1 GB | Добавлен: 5 лет 10 мес. назад | Торрент скачан:77 раз
Реклама Дарим 3000 рублей за регистрацию, не упусти свой шанс получить шикарный бонус!!!

21-12-2011 09:24 Тренировочный день Скачать торрент  

Тренировочный день / Training DayГод выпуска: 2001 Страна: США, Австралия Жанр: триллер, драма, криминал Продолжительность: 02:02:03 Перевод: Профессиональный (полное дублирование)Субтитры: отсутствуют Режиссёр: Антуан Фукуа В ролях: Дензел Вашингтон, Этан Хоук, Скотт Гленн, Том Беренджер, Харрис Юлин, Рэймонд Дж. Бэрри, Клифф Кертис, Др. Дре, Снуп Догг, Мейси Грей, Шарлотта Айянна, Ева Мендес, Ник Чинланд, Джейм Гомез, Рэймонд Крус, Ноэль Гульеми, Саманта Бекер, Ричард Броуни, Рональд Эллис, Уильям Инглиш, Киджил Н. Джолли, Фрэн Кренц, Джанин Крикорян, Принсира Ли, Роберт Леон, Сейди Лопез, Кеннет Аллен Мэдден, Сара Даниэль Мэдисон, Крис Паттерсон, Руди Перез, Даррел Селлерс, Бэн Скорстед, Кле Шахид Слоун, Бритт Соренсон, Абель Сото, Уилл Стюарт, Дэнзел Уитакер, Гарлэнд Уитт, Иксзиби Описание: Фильм посвящен событиям, приключившимся в первый день работы новичка-полицейского Джейка Хойта, поступившего на работу в полицию Лос-Анджелеса, а конкретно — в отдел по борьбе с наркотиками. Ему, как это всегда бывает, попался многоопытный партнер — Алонзо, коррумпированный полицейский-ветеран.

Американцам уже не привыкать к тому, что на улицах их страны ведется каждодневная война между наркодилерами и полицией. Алонзо давно усвоил тот факт, что законными методами с этим злом бороться бесполезно, а потому он выработал некую философию, балансирующую на грани добра и зла.

Качество: BDRip [720p] Формат: MKV Видео кодек: H.264 Аудио кодек: AC3 Видео: 1 280 x 544 (2:35:1), 23.976 кадр/сек, AVC (х264), [email protected], ~ 2 081 Kbps, 0.125 bit/pixel Аудио: 48 kHz, AC3 Dolby Digital, 3/2 (L,C,R,l,r) + LFE ch, ~384 kbps Скачать Тренировочный день через торрент http://i31.fastpic.ru/big/2011/1220/d2/1464d59331a72e20f12b6917d7de35d2.png Скачать фильм Тренировочный день через торрент бесплантно в хорошем качестве Описание: Фильм посвящен событиям, приключившимся в первый день работы новичка-полицейского Джейка Хойта, поступившего на работу в ... 2011-12-21 09:24 9.8 10 4

Loading...

Loading...

Рекламный пират

21-12-2011 13:27 Тренировочный день Скачать торрент  

Отличный фильм

03-06-2012 12:22 Тренировочный день Скачать торрент  

ребят дайте скорости пожалуйста!

29-06-2012 22:57 Тренировочный день Скачать торрент  

вернитесь на раздачу

Дорогой пользователь! Огромная просьба, поблагодарите релизера, оцените раздачу и оставьте свои комментарий, если Вы скачали Тренировочный день через торрент бесплатно! Внесите свою лепту в развитие PiratBit!

Комментировать посты могут только пользователи прошедшие не сложную регистрацию

Тренировочный день через торрент Скачать бесплатно Тренировочный день Тренировочный день скачать торрент Тренировочный день смотреть онлайн Cкачать фильм Тренировочный день бесплатно Тренировочный день скачать торрент в хорошем качестве Тренировочный день смотреть онлайн бесплатно в хорошем качестве

Вы не можете начинать темыВы не можете отвечать на сообщенияВы не можете редактировать свои сообщенияВы не можете удалять свои сообщенияВы не можете голосовать в опросахВы не можете прикреплять файлы к сообщениямВы можете скачивать файлы

piratbit.ru

Скачать фильм Тренировочный день через торрент в хорошем качестве бесплатно 720p)

Размер: 5.38 GB | Добавлен: 6 лет 3 мес. назад | Торрент скачан:107 раз
Реклама Дарим 3000 рублей за регистрацию, не упусти свой шанс получить шикарный бонус!!!

18-07-2011 13:24 Тренировочный день Скачать торрент  

Тренировочный день / Training Day

Год выпуска: 2001Страна: США, АвстралияЖанр: триллер, драма, криминалПродолжительность: 02:02:02Перевод: Профессиональный (полное дублирование) [Лицензия] Тип релиза: Лицензия

Режиссер: Антуан ФукуаПродюссер: Дэвид Эйер, Брюс Берман, Дэвис ГуггенхеймСценарий: Дэвид Эйер

Бюджет: $45 000 000

R

-Лицам до 17 лет обязательно присутствие взрослогоМировой рейтинг IMDB 7.60 (96 947)

В ролях: Дензел Вашингтон, Этан Хоук, Скотт Гленн, Том Беренджер, Харрис Юлин, Рэймонд Дж. Бэрри, Клифф Кертис, Др. Дре, Снуп Догг, Мэйси Грэй, Шарлотта Аянна, Ева Мендез, Ник Чинланд, Джейм Гомез, Рэймонд Круз, Noel Gugliemi, Саманта Бекер, Richard Browner, Рональд Эллис, Уильям Инглиш, Kyjel N. Jolly

Описание:

Фильм посвящен событиям, приключившимся в первый день работы новичка-полицейского Джейка Хойта, поступившего на работу в полицию Лос-Анджелеса, а конкретно - в отдел по борьбе с наркотиками. Ему, как это всегда бывает, попался многоопытный партнер - Алонзо, коррумпированный полицейский-ветеран.

Американцам уже не привыкать к тому, что на улицах их страны ведется каждодневная война между наркодилерами и полицией. Алонзо давно усвоил тот факт, что законными методами с этим злом бороться бесполезно, а потому он выработал некую философию, балансирующую на грани добра и зла.

«Опаснее преступника может быть лишь полицейский, нарушающий закон»

Качество: BDRip (720p)Формат: MKVВидео кодек: H.26xАудио кодек: AC3Видео: 1280x542 at 23.976 fps, [email protected], 2pass, ~3589 kbps avgАудио #1: Russian: 48 kHz, AC3, 3/2 (L,C,R,l,r) + LFE ch, ~384.00 kbps avg [Дублированный]Аудио #2: Russian: 48 kHz, DTS, 3/2 (L,C,R,l,r) + LFE ch, ~768.00 kbps avg [Одноголосый закадровый, А.Гаврилов]Аудио #3: English: 48 kHz, DTS, 3/2 (L,C,R,l,r) + LFE ch, ~1536.00 kbps avg Аудио #4: English: 48 kHz, AAC, 2/0 (L,R) ch, ~66.00 kbps avg [Commentary by Director Antoine Fuqua]Субтитры: Russian, English, German, Dutch, etc.Релиз от:

Скачать Тренировочный день через торрент http://i24.fastpic.ru/big/2011/0718/c2/34485830ee2d9efa882afca60492b1c2.jpg Скачать фильм Тренировочный день через торрент бесплантно в хорошем качестве Описание: Фильм посвящен событиям, приключившимся в первый день работы новичка-полицейского Джейка Хойта, поступившего на работу в полицию ... 2011-07-18 13:24 10 10 2

Loading...

Loading...

Рекламный пират

18-07-2011 14:14 Тренировочный день Скачать торрент  

Должно быть хороший фильм. :good2:

18-07-2011 15:29 Тренировочный день Скачать торрент  

01-08-2011 08:15 Тренировочный день Скачать торрент  

Мне кажется, один из лучших - в своё время он меня потряс.

Есть "полицейские" фильмы, и есть картины, которые о людях. Даже если это "полицейский" фильм. Именно поэтому нельзя повесить никакой жанр на "Схватку" или "L.A.Confidential", даже если это формально вроде бы полицейское кино. "Тренировочный день" - именно такой фильм. Сложный, напряжённый, весь из себя триллер - и очень человечный. О людях, о которых не приходится рассуждать в двоичной системе - плохой/хороший. И если "плохой" - мы к этому приходим, а не принимаем как данность. И много градаций, не просто черное и белое. Но почему-то начинаешь понимать, что серое - это не полшага к белому, это полшага к черному.

Думающий фильм. Прекрасные актёры. Дензел - офигителен (и обязан оговориться, ИМХО, он - гениальный Актёр, по разнообразию убедительных ролей; не хуже, например, чем Энтони Хопкинс или Майкл Дуглас или Рассел Кроу или Сэмюэл Джексон или... ну, Кевин Спейси всё-таки покруче пока что, но...).

Отличное кино. И отличное качество, спасибо огромное.

24-10-2012 17:47 Тренировочный день Скачать торрент  

Встаньте на раздачу плиз!

Дорогой пользователь! Огромная просьба, поблагодарите релизера, оцените раздачу и оставьте свои комментарий, если Вы скачали Тренировочный день через торрент бесплатно! Внесите свою лепту в развитие PiratBit!

Комментировать посты могут только пользователи прошедшие не сложную регистрацию

Тренировочный день через торрент Скачать бесплатно Тренировочный день Тренировочный день скачать торрент Тренировочный день смотреть онлайн Cкачать фильм Тренировочный день бесплатно Тренировочный день скачать торрент в хорошем качестве Тренировочный день смотреть онлайн бесплатно в хорошем качестве

Вы не можете начинать темыВы не можете отвечать на сообщенияВы не можете редактировать свои сообщенияВы не можете удалять свои сообщенияВы не можете голосовать в опросахВы не можете прикреплять файлы к сообщениямВы можете скачивать файлы

piratbit.ru

Скачать фильм Тренировочный день через торрент в хорошем качестве бесплатно 720p

ОбщееУникальный идентификатор : 200696405028375387558286267336714398784 (0x96FCB8BBECB218BFA225565E2280AC40)Полное имя : D:RipТренировочный деньTraining Day.mkvФормат : MatroskaРазмер файла : 3,74 ГбайтПродолжительность : 2 ч. 2 м.Общий поток : 4385 Кбит/секНазвание фильма : ДрюДата кодирования : UTC 2013-05-13 17:06:53Программа кодирования : mkvmerge v4.6.0 ('Still Crazy After All These Years') сборка от Mar 10 2011 02:50:32Библиотека кодирования : libebml v1.2.0 + libmatroska v1.1.0

ВидеоИдентификатор : 1Формат : AVCФормат/Информация : Advanced Video CodecПрофиль формата : [email protected]Параметр CABAC формата : ДаПараметр ReFrames формата : 2 кадраПараметры GOP формата : M=4, N=39Идентификатор кодека : V_MPEG4/ISO/AVCПродолжительность : 2 ч. 2 м.Битрейт : 4000 Кбит/секШирина : 1280 пикс.Высота : 720 пикс.Соотношение сторон : 2,35:1Режим частоты кадров : ПеременныйЧастота кадров : 23,976 кадр/секЦветовое пространство : YUVПодвыборка цветности : 4:2:0Битовая глубина : 8 битТип развёртки : ПрогрессивнаяБит/(Пиксели*Кадры) : 0.181Размер потока : 3,34 Гбайт (89%)Библиотека кодирования : x264 core 130 r2273Настройки программы : cabac=1 / ref=2 / deblock=1:0:0 / analyse=0x3:0x133 / me=hex / subme=7 / psy=1 / psy_rd=1.00:0.00 / mixed_ref=0 / me_range=16 / chroma_me=1 / trellis=1 / 8x8dct=1 / cqm=0 / deadzone=21,11 / fast_pskip=1 / chroma_qp_offset=-2 / threads=6 / lookahead_threads=1 / sliced_threads=0 / nr=0 / decimate=1 / interlaced=0 / bluray_compat=0 / constrained_intra=0 / bframes=3 / b_pyramid=0 / b_adapt=1 / b_bias=0 / direct=3 / weightb=1 / open_gop=0 / weightp=2 / keyint=230 / keyint_min=23 / scenecut=40 / intra_refresh=0 / rc_lookahead=40 / rc=2pass / mbtree=1 / bitrate=4000 / ratetol=1.0 / qcomp=0.60 / qpmin=10 / qpmax=69 / qpstep=4 / cplxblur=20.0 / qblur=0.5 / vbv_maxrate=24000 / vbv_bufsize=24000 / nal_hrd=none / ip_ratio=1.40 / aq=1:1.00

АудиоИдентификатор : 2Формат : AC-3Формат/Информация : Audio Coding 3Расширение режима : CM (complete main)Идентификатор кодека : A_AC3Продолжительность : 2 ч. 2 м.Вид битрейта : ПостоянныйБитрейт : 384 Кбит/секКаналы : 6 каналовРасположение каналов : Front: L C R, Side: L R, LFEЧастота : 48,0 КГцБитовая глубина : 16 битМетод сжатия : С потерямиРазмер потока : 335 Мбайт (9%)Заголовок : DubЯзык : Russian

Меню00:00:00.000 : en:It's Today00:03:53.524 : en:Tell Me A Story00:08:02.356 : en:Leave Family Out00:12:20.072 : en:Drug Roust00:15:37.394 : en:Narcotics In His Blood00:20:35.943 : en:Joking With Roger00:25:42.290 : en:Alley Incident00:32:13.932 : en:It Takes A Wolf00:36:12.670 : en:Collaring Sammy00:40:41.063 : en:Sandman's Wife00:45:20.467 : en:Firing Line00:47:15.207 : en:Wolf Or Sheep?00:49:24.002 : en:Mother And Son00:55:04.259 : en:LAPD's Finest00:59:59.762 : en:The Unit Punches In01:02:56.272 : en:Roger Out Of His Misery01:09:56.859 : en:The Scenario01:15:08.253 : en:This Is The Game01:20:29.699 : en:Five-Card Draw01:24:17.385 : en:The Drop On The Cop01:29:26.277 : en:Smiley's Cousin01:33:27.601 : en:"I'm Here For Alonzo"01:37:21.335 : en:Preserving Life01:41:25.579 : en:Rooftop Battle01:45:00.210 : en:What Jake Learned Today01:48:44.184 : en:"You Can't Kill Me"01:52:39.961 : en:Going Home01:55:43.144 : en:End Credits

piratbit.ru


Смотрите также