Скачать фильм через торрент в хорошем качестве отмель


Скачать фильм Отмель через торрент в хорошем качестве бесплатно WEB-DLRip

Размер: 1.37 GB | Добавлен: 1 год 1 мес. назад | Торрент скачан:660 раз
Реклама Дарим 3000 рублей за регистрацию, не упусти свой шанс получить шикарный бонус!!!

07-09-2016 19:52 Отмель Скачать торрент  

Отмель / The Shallows«What was once in the deep is now in the shallows» • Год выпуска » 2016• Страна » США• Жанр » Ужасы, триллер, драма• Продолжительность » 01:26:14• Перевод » Дублированное [iTunes]• Субтитры » ОтсутствуютВ ролях » Блейк Лайвли, Оскар Хаэнада, Бретт Каллен, Седона Ледже, Пабло Кальва, Диего Эспехель, Джанелл Бэйли, Ава Дин, Челси Муди, Салли СигаллРежиссёр» Хауме Кольет-Серра » Бескрайний океан, безлюдный пляж и идеальная погода для серфингистов в поисках хорошей волны. Казалось бы, ничто не предвещает беды для очаровательной любительницы серфинга в одиночку. Разве что свидание тет-а-тет с гигантской акулой, которая загонит спортсменку на песчаную отмель и не отступит до тех пор, пока не получит своё. • Качество » WEB-DLRip• Формат » mkv• Видео кодек » AVC• Аудио кодек » AAC,AC3• Видео »1882 kb/s, 720x304, 23.976 fps• Аудио » Русский (AC-3 / 6 ch / 384 kbps / 48,0 КГц / 16 bit )

Бюджет: $17 000 000Сборы в США: $54 787 550Сборы в мире: + $44 200 000 = $98 987 550Сборы в России: $3 094 975Дата мировой премьеры: 24 июня 2016Дата российской премьеры: 7 июля 2016, «WDSSPR»

Код:

ОбщееПолное имя                               : C:\Users\DRON & LeXuZ\Desktop\0tmel1.2016.D.WEB-DLRip.1400MB.aviФормат                                   : AVIФормат/Информация                        : Audio Video InterleaveРазмер файла                             : 1,37 ГбайтПродолжительность                        : 1 ч. 26 м.Общий поток                              : 2275 Кбит/секПрограмма кодирования                    : VirtualDubMod 1.5.10.3 | www.virtualdub-fr.org || (build 2550/release)Библиотека кодирования                   : VirtualDubMod build 2550/release

ВидеоИдентификатор                            : 0Формат                                   : MPEG-4 VisualПрофиль формата                          : Advanced [email protected]Параметр BVOP формата                    : 2Параметр QPel формата                    : НетПараметр GMC формата                     : Без точки переходаПараметр матрицы формата                 : Default (MPEG)Идентификатор кодека                     : XVIDИдентификатор кодека/Подсказка           : XviDПродолжительность                        : 1 ч. 26 м.Битрейт                                  : 1882 Кбит/секШирина                                   : 720 пикселейВысота                                   : 304 пикселяСоотношение сторон                       : 2,35:1Частота кадров                           : 23,976 кадра/секЦветовое пространство                    : YUVСубдискретизация насыщенности            : 4:2:0Битовая глубина                          : 8 битТип развёртки                            : ПрогрессивнаяМетод сжатия                             : С потерямиБит/(Пиксели*Кадры)                      : 0.359Размер потока                            : 1,13 Гбайт (83%)Библиотека кодирования                   : XviD 1.2.1 (UTC 2008-12-04)

АудиоИдентификатор                            : 1Формат                                   : AC-3Формат/Информация                        : Audio Coding 3Расширение режима                        : CM (complete main)Параметр Endianness формата              : BigИдентификатор кодека                     : 2000Продолжительность                        : 1 ч. 26 м.Вид битрейта                             : ПостоянныйБитрейт                                  : 384 Кбит/секКаналы                                   : 6 каналовРасположение каналов                     : Front: L C R, Side: L R, LFEЧастота                                  : 48,0 КГцБитовая глубина                          : 16 битМетод сжатия                             : С потерямиРазмер потока                            : 237 Мбайт (17%)Выравнивание                             : Разделение по промежуткамПродолжительность промежутка             : 42  мс. (1,00 видеокадр)Время предзагрузки промежутка            : 500  мс.

Скачать Отмель через торрент http://i74.fastpic.ru/big/2015/1218/b5/c39d072d168dbcde95d1a17f670689b5.gif Скачать фильм Отмель через торрент бесплантно в хорошем качестве В ролях » Блейк Лайвли, Оскар Хаэнада, Бретт Каллен, Седона Ледже, Пабло Кальва, Диего Эспехель, Джанелл Бэйли, Ава Дин, Челси Муди, Салли ... 2016-09-07 19:52 9.8 10 24

Loading...

Loading...

% Раздел Тема Автор DL S | L
Ultra HD (UHD: 2K, 4K, 8K) — видео сверхвысокой чёткости [ 49.01 GB ] Отмель / The Shallows [2016 UHD Blu-Ray 2160p] DUB [ EUR] bober100 Скачать
Ultra HD (UHD: 2K, 4K, 8K) — видео сверхвысокой чёткости [ 37.59 GB ] Отмель / The Shallows [2016 UHD WEBRip 2160p] DUB [] bober100 Скачать
Фильмы 2016 [DVDrip, WEB-DLRip, HDrip] (DUB, MVO) [ 1.46 GB ] Отмель / The Shallows [2016 BDRip] - [] Twi7ter Скачать
Фильмы (HD 720p, 1080p) (48-60 fps) [ 4.53 GB ] Отмель / The Shallows [2016 BDRip 720p 60 fps от еnvy / NNNB] DUB еnvy Скачать
Фильмы (Blu-ray, BD-Remux, HDDVD) [ 26.28 GB ] Отмель / The Shallows [2016 Blu-Ray EUR 1080p] Russian Mafia Скачать
Фильмы [HD 720p, 1080p] (Хороший звук DUB, MVO) [ 5.75 GB ] Отмель / The Shallows [2016 BDRip 720p] potroks Скачать
Фильмы (Blu-ray, BD-Remux, HDDVD) [ 17.71 GB ] Отмель / The Shallows [2016 BDRemux 1080p от ExKinoRay] Russian Mafia Скачать

Рекламный пират

Дорогой пользователь! Огромная просьба, поблагодарите релизера, оцените раздачу и оставьте свои комментарий, если Вы скачали Отмель через торрент бесплатно! Внесите свою лепту в развитие PiratBit!

Комментировать посты могут только пользователи прошедшие не сложную регистрацию

Отмель через торрент Скачать бесплатно Отмель Отмель скачать торрент Отмель смотреть онлайн Cкачать фильм Отмель бесплатно Отмель скачать торрент в хорошем качестве Отмель смотреть онлайн бесплатно в хорошем качестве

Вы не можете начинать темыВы не можете отвечать на сообщенияВы не можете редактировать свои сообщенияВы не можете удалять свои сообщенияВы не можете голосовать в опросахВы не можете прикреплять файлы к сообщениямВы можете скачивать файлы

piratbit.ru

Скачать фильм Отмель через торрент в хорошем качестве бесплатно WEB-DLRip

Размер: 745 MB | Добавлен: 1 год 1 мес. назад | Торрент скачан:225 раз
Реклама Дарим 3000 рублей за регистрацию, не упусти свой шанс получить шикарный бонус!!!

08-09-2016 07:11 Отмель Скачать торрент  

Отмель / The Shallows Год выхода: 2016Страна: СШАжанр: ужасы, триллер, драмаПродолжительность: 01:26:12Перевод: Дублированный [Лицензия / iTunes]Cубтитры: нет

Режиссер: Хауме Кольет-Серра

В ролях: Блейк Лайвли, Оскар Хаэнада, Бретт Каллен, Седона Ледже,

Описание: Бескрайний океан, безлюдный пляж и идеальная погода для серфингистов в поисках хорошей волны. Казалось бы, ничто не предвещает беды для очаровательной любительницы серфинга в одиночку. Разве что свидание тет-а-тет с гигантской акулой, которая загонит спортсменку на песчаную отмель и не отступит до тех пор, пока не получит своё...

СЭМПЛ

Качество: WEB-DLRip | The Shallows (2016) WEB-DL 1080p -BLUEBIRDФормат: AVIВидео: 688x288 (2.39:1), 23.976 fps, XviD build 73 ~1070 kbps avg, 0.23 bit/pixelЗвук: 48 kHz, MPEG Layer 3, 2 ch, ~128.00 kbps avg

Скачать Отмель через торрент http://i82.fastpic.ru/big/2016/0907/21/d8e71b59101da1dd0fcf9e9f2c188021.jpg Скачать фильм Отмель через торрент бесплантно в хорошем качестве Описание: Бескрайний океан, безлюдный пляж и идеальная погода для серфингистов в поисках хорошей волны. Казалось бы, ничто не предвещает ... 2016-09-08 07:11 9.4 10 5

Loading...

Loading...

% Раздел Тема Автор DL S | L
Ultra HD (UHD: 2K, 4K, 8K) — видео сверхвысокой чёткости [ 49.01 GB ] Отмель / The Shallows [2016 UHD Blu-Ray 2160p] DUB [ EUR] bober100 Скачать
Ultra HD (UHD: 2K, 4K, 8K) — видео сверхвысокой чёткости [ 37.59 GB ] Отмель / The Shallows [2016 UHD WEBRip 2160p] DUB [] bober100 Скачать
Фильмы 2016 [DVDrip, WEB-DLRip, HDrip] (DUB, MVO) [ 1.46 GB ] Отмель / The Shallows [2016 BDRip] - [] Twi7ter Скачать
Фильмы (HD 720p, 1080p) (48-60 fps) [ 4.53 GB ] Отмель / The Shallows [2016 BDRip 720p 60 fps от еnvy / NNNB] DUB еnvy Скачать
Фильмы (Blu-ray, BD-Remux, HDDVD) [ 26.28 GB ] Отмель / The Shallows [2016 Blu-Ray EUR 1080p] Russian Mafia Скачать
Фильмы [HD 720p, 1080p] (Хороший звук DUB, MVO) [ 5.75 GB ] Отмель / The Shallows [2016 BDRip 720p] potroks Скачать
Фильмы (Blu-ray, BD-Remux, HDDVD) [ 17.71 GB ] Отмель / The Shallows [2016 BDRemux 1080p от ExKinoRay] Russian Mafia Скачать

Рекламный пират

Дорогой пользователь! Огромная просьба, поблагодарите релизера, оцените раздачу и оставьте свои комментарий, если Вы скачали Отмель через торрент бесплатно! Внесите свою лепту в развитие PiratBit!

Комментировать посты могут только пользователи прошедшие не сложную регистрацию

Отмель через торрент Скачать бесплатно Отмель Отмель скачать торрент Отмель смотреть онлайн Cкачать фильм Отмель бесплатно Отмель скачать торрент в хорошем качестве Отмель смотреть онлайн бесплатно в хорошем качестве

Вы не можете начинать темыВы не можете отвечать на сообщенияВы не можете редактировать свои сообщенияВы не можете удалять свои сообщенияВы не можете голосовать в опросахВы не можете прикреплять файлы к сообщениямВы можете скачивать файлы

piratbit.ru

Скачать фильм Отмель через торрент в хорошем качестве бесплатно 1080p

ОбщееУникальный идентификатор : 173085718314876799311845400583693172441 (0x823718C6E428978793D24F2537CC7ED9)Полное имя : D:загрузкиThe Shallows.2016.D.BluRay1080p .mkvФормат : MatroskaВерсия формата : Version 2Размер файла : 8,64 ГбайтПродолжительность : 1 ч. 26 м.Общий поток : 14,3 Мбит/секДата кодирования : UTC 2016-09-10 21:33:52Программа кодирования : mkvmerge v7.8.0 ('River Man') 32bit built on Apr 3 2015 12:11:22Библиотека кодирования : libebml v1.3.1 + libmatroska v1.4.2

ВидеоИдентификатор : 1Формат : AVCФормат/Информация : Advanced Video CodecПрофиль формата : [email protected]Параметр CABAC формата : ДаПараметр ReFrames формата : 5 кадровИдентификатор кодека : V_MPEG4/ISO/AVCПродолжительность : 1 ч. 26 м.Битрейт : 12,4 Мбит/секШирина : 1920 пикселейВысота : 800 пикселейСоотношение сторон : 2,40:1Режим частоты кадров : ПостоянныйЧастота кадров : 23,976 кадра/секЦветовое пространство : YUVСубдискретизация насыщенности : 4:2:0Битовая глубина : 8 битТип развёртки : ПрогрессивнаяБит/(Пиксели*Кадры) : 0.338Размер потока : 7,32 Гбайт (85%)Библиотека кодирования : x264 core 146 r2538 121396cНастройки программы : cabac=1 / ref=5 / deblock=1:-3:-3 / analyse=0x3:0x133 / me=umh / subme=10 / psy=1 / psy_rd=1.00:0.00 / mixed_ref=1 / me_range=48 / chroma_me=1 / trellis=2 / 8x8dct=1 / cqm=0 / deadzone=21,11 / fast_pskip=0 / chroma_qp_offset=-2 / threads=12 / lookahead_threads=1 / sliced_threads=0 / nr=0 / decimate=0 / interlaced=0 / bluray_compat=0 / constrained_intra=0 / bframes=6 / b_pyramid=2 / b_adapt=2 / b_bias=0 / direct=3 / weightb=1 / open_gop=0 / weightp=2 / keyint=230 / keyint_min=22 / scenecut=40 / intra_refresh=0 / rc_lookahead=60 / rc=2pass / mbtree=1 / bitrate=12446 / ratetol=1.0 / qcomp=0.60 / qpmin=0 / qpmax=69 / qpstep=4 / cplxblur=20.0 / qblur=0.5 / vbv_maxrate=50000 / vbv_bufsize=50000 / nal_hrd=none / filler=0 / ip_ratio=1.40 / aq=1:1.00Default : ДаForced : Нет

Аудио #1Идентификатор : 2Формат : AC-3Формат/Информация : Audio Coding 3Расширение режима : CM (complete main)Параметр Endianness формата : BigИдентификатор кодека : A_AC3Продолжительность : 1 ч. 26 м.Вид битрейта : ПостоянныйБитрейт : 384 Кбит/секКаналы : 6 каналовРасположение каналов : Front: L C R, Side: L R, LFEЧастота : 48,0 КГцБитовая глубина : 16 битМетод сжатия : С потерямиРазмер потока : 237 Мбайт (3%)Заголовок : iTunesЯзык : RussianDefault : НетForced : Нет

Аудио #2Идентификатор : 3Формат : DTSФормат/Информация : Digital Theater SystemsРежим : 16Параметр Endianness формата : BigИдентификатор кодека : A_DTSПродолжительность : 1 ч. 26 м.Вид битрейта : ПостоянныйБитрейт : 1509 Кбит/секКаналы : 6 каналовРасположение каналов : Front: L C R, Side: L R, LFEЧастота : 48,0 КГцБитовая глубина : 24 битМетод сжатия : С потерямиРазмер потока : 931 Мбайт (11%)Язык : EnglishDefault : НетForced : Нет

Текст #1Идентификатор : 4Формат : UTF-8Идентификатор кодека : S_TEXT/UTF8Идентификатор кодека/Информация : UTF-8 Plain TextЗаголовок : forcedЯзык : RussianDefault : ДаForced : Нет

Текст #2Идентификатор : 5Формат : UTF-8Идентификатор кодека : S_TEXT/UTF8Идентификатор кодека/Информация : UTF-8 Plain TextЗаголовок : full_Язык : RussianDefault : НетForced : Нет

Текст #3Идентификатор : 6Формат : UTF-8Идентификатор кодека : S_TEXT/UTF8Идентификатор кодека/Информация : UTF-8 Plain TextЗаголовок : full_Язык : EnglishDefault : НетForced : Нет

Текст #4Идентификатор : 7Формат : UTF-8Идентификатор кодека : S_TEXT/UTF8Идентификатор кодека/Информация : UTF-8 Plain TextЗаголовок : SDHЯзык : EnglishDefault : НетForced : Нет

Меню00:00:00.000 : en:00:00:00.00000:08:09.698 : en:00:08:09.69800:15:10.409 : en:00:15:10.40900:20:31.939 : en:00:20:31.93900:25:45.878 : en:00:25:45.87800:30:07.055 : en:00:30:07.05500:36:04.120 : en:00:36:04.12000:40:39.687 : en:00:40:39.68700:45:41.614 : en:00:45:41.61400:49:32.219 : en:00:49:32.21900:55:57.980 : en:00:55:57.98001:01:21.511 : en:01:01:21.51101:06:22.562 : en:01:06:22.56201:09:57.443 : en:01:09:57.44301:13:38.706 : en:01:13:38.70601:19:01.487 : en:01:19:01.487

piratbit.ru

Скачать фильм Отмель через торрент в хорошем качестве бесплатно 720p

GeneralUnique ID : 220896731922491542737507865017448960578 (0xA62F29BE79D07F36B027C8713F889242)Complete name : G:VideoThe.Shallows.2016.BDRip.720p.ExKinoRay.mkvFormat : MatroskaFormat version : Version 4 / Version 2File size : 4.89 GiBDuration : 1 h 26 minOverall bit rate : 8 113 kb/sMovie name : ***селезень***Encoded date : UTC 2016-09-11 19:22:24Writing application : mkvmerge v8.3.0 ('Over the Horizon') 64bitWriting library : libebml v1.3.1 + libmatroska v1.4.2

VideoID : 1Format : AVCFormat/Info : Advanced Video CodecFormat profile : [email protected] settings, CABAC : YesFormat settings, ReFrames : 12 framesCodec ID : V_MPEG4/ISO/AVCDuration : 1 h 26 minBit rate : 6 223 kb/sWidth : 1 280 pixelsHeight : 534 pixelsDisplay aspect ratio : 2.40:1Frame rate mode : ConstantFrame rate : 23.976 (24000/1001) FPSColor space : YUVChroma subsampling : 4:2:0Bit depth : 8 bitsScan type : ProgressiveBits/(Pixel*Frame) : 0.380Stream size : 3.75 GiB (77%)Title : ***селезень***Writing library : x264 core 146 r2538 121396cEncoding settings : cabac=1 / ref=12 / deblock=1:-2:-2 / analyse=0x3:0x133 / me=umh / subme=10 / psy=1 / psy_rd=1.00:0.00 / mixed_ref=1 / me_range=32 / chroma_me=1 / trellis=2 / 8x8dct=1 / cqm=0 / deadzone=21,11 / fast_pskip=0 / chroma_qp_offset=-2 / threads=12 / lookahead_threads=1 / sliced_threads=0 / nr=0 / decimate=0 / interlaced=0 / bluray_compat=0 / constrained_intra=0 / bframes=6 / b_pyramid=2 / b_adapt=2 / b_bias=0 / direct=3 / weightb=1 / open_gop=0 / weightp=2 / keyint=230 / keyint_min=22 / scenecut=40 / intra_refresh=0 / rc_lookahead=60 / rc=2pass / mbtree=1 / bitrate=6223 / ratetol=1.0 / qcomp=0.60 / qpmin=0 / qpmax=69 / qpstep=4 / cplxblur=20.0 / qblur=0.5 / vbv_maxrate=50000 / vbv_bufsize=50000 / nal_hrd=none / filler=0 / ip_ratio=1.40 / aq=1:1.00Language : EnglishDefault : YesForced : No

Audio #1ID : 2Format : AC-3Format/Info : Audio Coding 3Mode extension : CM (complete main)Format settings, Endianness : BigCodec ID : A_AC3Duration : 1 h 26 minBit rate mode : ConstantBit rate : 384 kb/sChannel(s) : 6 channelsChannel positions : Front: L C R, Side: L R, LFESampling rate : 48.0 kHzFrame rate : 31.250 FPS (1536 spf)Compression mode : LossyDelay relative to video : 1 s 0 msStream size : 237 MiB (5%)Title : DUB [iTunes]Language : RussianDefault : YesForced : No

Audio #2ID : 3Format : DTSFormat/Info : Digital Theater SystemsMode : 16Format settings, Endianness : BigCodec ID : A_DTSDuration : 1 h 26 minBit rate mode : ConstantBit rate : 1 509 kb/sChannel(s) : 6 channelsChannel positions : Front: L C R, Side: L R, LFESampling rate : 48.0 kHzFrame rate : 93.750 FPS (512 spf)Bit depth : 24 bitsCompression mode : LossyStream size : 931 MiB (19%)Title : OriginalLanguage : EnglishDefault : NoForced : No

Text #1ID : 4Format : UTF-8Codec ID : S_TEXT/UTF8Codec ID/Info : UTF-8 Plain TextDuration : 1 h 19 minBit rate : 1 b/sCount of elements : 36Stream size : 1.00 KiB (0%)Title : Forced [iTunes]Language : RussianDefault : YesForced : No

Text #2ID : 5Format : UTF-8Codec ID : S_TEXT/UTF8Codec ID/Info : UTF-8 Plain TextDuration : 1 h 19 minBit rate : 27 b/sCount of elements : 460Stream size : 15.9 KiB (0%)Title : Full [iTunes]Language : RussianDefault : NoForced : No

Text #3ID : 6Format : UTF-8Codec ID : S_TEXT/UTF8Codec ID/Info : UTF-8 Plain TextDuration : 4 minBit rate : 6 b/sCount of elements : 13Stream size : 200 Bytes (0%)Title : Forced [iTunes]Language : EnglishDefault : NoForced : No

Text #4ID : 7Format : UTF-8Codec ID : S_TEXT/UTF8Codec ID/Info : UTF-8 Plain TextDuration : 1 h 17 minBit rate : 18 b/sCount of elements : 446Stream size : 10.3 KiB (0%)Title : Full [iTunes]Language : EnglishDefault : NoForced : No

Menu00:00:00.000 : en:100:08:08.697 : en:200:15:09.409 : en:300:20:30.938 : en:400:25:44.876 : en:500:30:06.053 : en:600:36:03.118 : en:700:40:38.685 : en:800:45:40.611 : en:900:49:31.216 : en:1000:55:56.976 : en:1101:01:20.507 : en:1201:06:21.558 : en:1301:09:56.439 : en:1401:13:37.701 : en:1501:19:00.482 : en:16

piratbit.ru

Скачать фильм Отмель через торрент в хорошем качестве бесплатно BDRip от Twi7ter

Раздают: 6 [ 0 KB/s ]
Размер: 1.42 GB | Добавлен: 1 год 1 мес. назад | Торрент скачан:1851 раз
Реклама Дарим 3000 рублей за регистрацию, не упусти свой шанс получить шикарный бонус!!!

14-09-2016 19:00 Отмель Скачать торрент  

Отмель / The Shallows

«What was once in the deep is now in the shallows»

Год выпуска: 2016Страна: СШАЖанр: ужасы, триллер, драмаПродолжительность: 01:26:16Перевод: Профессиональный (полное дублирование) [iTunes]Субтитры: Русские (на надписи и прочее) - вшитыеРежиссер: Хауме Кольет-СерраВ ролях: Блейк Лайвли (Nancy), Оскар Хаэнада (Carlos), Бретт Каллен (Dad), Седона Ледже (Chloe), Пабло Кальва (Boy), Диего Эспехель (Intoxicated Man), Джанелл Бэйли (Mom), Ава Дин (Young Nancy), Челси Муди (Young Mom), Салли Сигалл (Seagull), Angelo Jose Lozano Corzo (Surfer 1)Описание: Бескрайний океан, безлюдный пляж и идеальная погода для серфингистов в поисках хорошей волны. Казалось бы, ничто не предвещает беды для очаровательной любительницы серфинга в одиночку. Разве что свидание тет-а-тет с гигантской акулой, которая загонит спортсменку на песчаную отмель и не отступит до тех пор, пока не получит своё.Рейтинг:

MPAA: PG-13 - Детям до 13 лет просмотр не желателен

Качество: BDRip | исх. THE_SHALLOWS_REMUX_HDCLUB |Формат: AVIВидео кодек: XviDАудио кодек: AC3Видео: 720x304 (2.37:1), 23.976 fps, XviD build 73 ~1968 kbps avg, 0.38 bit/pixelАудио: 48 kHz, AC3 Dolby Digital, 3/2 (L,C,R,l,r) + LFE ch, ~384 kbps

Релиз: &

Скачать Отмель через торрент http://s42.radikal.ru/i096/1609/02/d2333606a7cf.png Скачать фильм Отмель через торрент бесплантно в хорошем качестве Описание: Бескрайний океан, безлюдный пляж и идеальная погода для серфингистов в поисках хорошей волны. Казалось бы, ничто не предвещает ... 2016-09-14 19:00 9.5 10 36

Loading...

Loading...

% Раздел Тема Автор DL S | L
Ultra HD (UHD: 2K, 4K, 8K) — видео сверхвысокой чёткости [ 49.01 GB ] Отмель / The Shallows [2016 UHD Blu-Ray 2160p] DUB [ EUR] bober100 Скачать
Ultra HD (UHD: 2K, 4K, 8K) — видео сверхвысокой чёткости [ 37.59 GB ] Отмель / The Shallows [2016 UHD WEBRip 2160p] DUB [] bober100 Скачать
Фильмы 2016 [DVDrip, WEB-DLRip, HDrip] (DUB, MVO) [ 1.46 GB ] Отмель / The Shallows [2016 BDRip] - [] Twi7ter Скачать
Фильмы (HD 720p, 1080p) (48-60 fps) [ 4.53 GB ] Отмель / The Shallows [2016 BDRip 720p 60 fps от еnvy / NNNB] DUB еnvy Скачать
Фильмы (Blu-ray, BD-Remux, HDDVD) [ 26.28 GB ] Отмель / The Shallows [2016 Blu-Ray EUR 1080p] Russian Mafia Скачать
Фильмы [HD 720p, 1080p] (Хороший звук DUB, MVO) [ 5.75 GB ] Отмель / The Shallows [2016 BDRip 720p] potroks Скачать
Фильмы (Blu-ray, BD-Remux, HDDVD) [ 17.71 GB ] Отмель / The Shallows [2016 BDRemux 1080p от ExKinoRay] Russian Mafia Скачать

Рекламный пират

02-10-2016 22:22 Отмель Скачать торрент  

хороший фильм

04-10-2016 03:18 Отмель Скачать торрент  

Жанр: ужасы, триллер, драма.Нужно было дописать: ФАНТАСТИКА.

17-10-2016 20:46 Отмель Скачать торрент  

Бредятина конечно же ,но на раз глянуть можно 5\10

Дорогой пользователь! Огромная просьба, поблагодарите релизера, оцените раздачу и оставьте свои комментарий, если Вы скачали Отмель через торрент бесплатно! Внесите свою лепту в развитие PiratBit!

Комментировать посты могут только пользователи прошедшие не сложную регистрацию

Отмель через торрент Скачать бесплатно Отмель Отмель скачать торрент Отмель смотреть онлайн Cкачать фильм Отмель бесплатно Отмель скачать торрент в хорошем качестве Отмель смотреть онлайн бесплатно в хорошем качестве

Вы не можете начинать темыВы не можете отвечать на сообщенияВы не можете редактировать свои сообщенияВы не можете удалять свои сообщенияВы не можете голосовать в опросахВы не можете прикреплять файлы к сообщениямВы можете скачивать файлы

piratbit.ru


Смотрите также