Скачать фильм добро пожаловать в рай в хорошем качестве через торрент


Скачать фильм Добро пожаловать в рай (2014) через торрент

30 мая 2016 10:25 Добро пожаловать в рай / Vice (2014) BDRip-AVC от HELLYWOOD | iTunes .torrent   [Информация о файле (нажмите для просмотра)] Перевод: Дубляж [iTunes]Субтитры: русские, английские (Full), английские (SDH)Качество: BDRip-AVCФормат: MKVВидео: 1032x430 (2.40:1), 2484 kbps, 23,976 fps, 0,233 bppАудио №1: AC3 / 5.1 / 48 kHz / 384 kbps / 16 bit| RUS Аудио №2: AC3 / 5.1 / 48 kHz / 384 kbps / 16 bit| ENG 2,19 Gb 3 6 30 мая 2016 10:25 Добро пожаловать в рай / Vice (2015) BDRip-AVC от V!ckNet | iTunes .torrent   [Информация о файле (нажмите для просмотра)] Перевод: профессиональный (полное дублирование) (iTunes)Субтитры: Russian, EnglishКачество: BDRip-AVCВидео: AVC, 720x304 (2.35:1), 23.976 fps, 1 641 Kbps (0.313 bit/pixel)Звук: 48 kHz, AC3 Dolby Digital, 3/2 (L,C,R,l,r) + LFE ch, ~384 kbps 1,36 Gb 3 3 30 мая 2016 10:25 Добро пожаловать в рай / Vice (2015) BDRip 720p | iTunes .torrent   [Информация о файле (нажмите для просмотра)] Перевод: профессиональный (полное дублирование) (iTunes)Кодек: MPEG-4 AVCКачество: BDRip (720p)Видео: 1280x534 (2,40:1), 6 949 kbps, 23.976 fps, 0.424 b/pxАудио # 1: АС3, 6 ch, 384 kbps, 48 000 Hz - DUB - iTunesАудио # 2: DTS, 6 ch, 1509 kbps, 48 000 Hz - Original - EnglishВидео: Идентификатор : 1 Формат : AVC Формат/Информация : Advanced Video Codec Профиль формата : [email protected] Параметр CABAC формата : Да Параметр ReFrames формата : 12 кадров Идентификатор кодека : V_MPEG4/ISO/AVC Продолжительность : 1 ч. 36 м. Битрейт : 6949 Кбит/сек Ширина : 1280 пикселей Высота : 534 пикселя Соотношение сторон : 2,40:1 Режим частоты кадров : Постоянный Частота кадров : 23,976 кадра/сек Цветовое пространство : YUV Субдискретизация насыщенности : 4:2:0 Битовая глубина : 8 бит Тип развёртки : Прогрессивная Бит/(Пиксели*Кадры) : 0.424 Размер потока : 4,68 Гбайт (77%) Заголовок : [2015] Добро пожаловать в рай / Vice [BDRip] [720p] Библиотека кодирования : x264 core 144 r2525kMod 40bb568 Настройки программы : cabac=1 / ref=12 / deblock=1:-3:-3 / analyse=0x3:0x133 / me=umh / subme=10 / psy=1 / fade_compensate=0.00 / psy_rd=1.10:0.00 / mixed_ref=1 / me_range=24 / chroma_me=1 / trellis=2 / 8x8dct=1 / cqm=0 / deadzone=21,11 / fast_pskip=0 / chroma_qp_offset=-2 / threads=12 / lookahead_threads=2 / sliced_threads=0 / nr=0 / decimate=0 / interlaced=0 / bluray_compat=0 / constrained_intra=0 / fgo=0 / bframes=8 / b_pyramid=2 / b_adapt=2 / b_bias=0 / direct=3 / weightb=1 / open_gop=0 / weightp=2 / keyint=250 / keyint_min=23 / scenecut=40 / intra_refresh=0 / rc=crf / mbtree=0 / crf=16.8000 / qcomp=0.75 / qpmin=0 / qpmax=69 / qpstep=4 / ip_ratio=1.30 / pb_ratio=1.20 / aq=1:0.75 / zones=114,1446,crf=13.5 Язык : English Default : Да Forced : Нет _STATISTICS_WRITING_APP : mkvmerge v7.8.0 ('River Man') 32bit built on Mar 27 2015 16:18:02 _STATISTICS_WRITING_DATE_UTC : 2015-07-07 10:08:58 _STATISTICS_TAGS : BPS DURATION NUMBER_OF_FRAMES NUMBER_OF_BYTES DURATION : 01:36:23.737000000 NUMBER_OF_FRAMES : 138671 NUMBER_OF_BYTES : 5152934072Аудио #1: Идентификатор : 2 Формат : AC-3 Формат/Информация : Audio Coding 3 Расширение режима : CM (complete main) Параметр Endianness формата : Big Идентификатор кодека : A_AC3 Продолжительность : 1 ч. 36 м. Вид битрейта : Постоянный Битрейт : 384 Кбит/сек Каналы : 6 каналов Расположение каналов : Front: L C R, Side: L R, LFE Частота : 48,0 КГц Метод сжатия : С потерями Размер потока : 265 Мбайт (4%) Заголовок : Дублированный - iTunes Язык : Russian Default : Да Forced : НетАудио #2: Идентификатор : 3 Формат : DTS Формат/Информация : Digital Theater Systems Режим : 16 Параметр Endianness формата : Big Идентификатор кодека : A_DTS Продолжительность : 1 ч. 36 м. Вид битрейта : Постоянный Битрейт : 1509 Кбит/сек Каналы : 6 каналов Расположение каналов : Front: L C R, Side: L R, LFE Частота : 48,0 КГц Битовая глубина : 24 бит Метод сжатия : С потерями Размер потока : 1,02 Гбайт (17%) Заголовок : Оригинальный Язык : English Default : Нет Forced : Нет 6,08 Gb 20 3 30 мая 2016 10:25 Добро пожаловать в рай / Vice (2015) HDRip | iTunes .torrent   [Информация о файле (нажмите для просмотра)] Перевод: Дублированный [iTunes]Формат: AVI (XviD)Качество: HDRipВидео: 1707 kb/s, 720x304Аудио: AC3, 384 kb/s (6 ch) 1,42 Gb 22 3 30 мая 2016 10:25 Добро пожаловать в рай / Vice (2015) BDRip 720p от KinoGadget | iPad .torrent   [Информация о файле (нажмите для просмотра)] Перевод: ДублированныйКачество: BDRip 720pФормат: mp4 1,29 Gb 4 3 30 мая 2016 10:25 Добро пожаловать в рай / Vice (2015) BDRip от Twi7ter | D .torrent   [Информация о файле (нажмите для просмотра)] Перевод: Профессиональный (полное дублирование)Субтитры: НетКачество: BDRip| исх. Vice 2015 COMPLETE BLURAY |Формат: AVIВидео: 720x304 (2.37:1), 23.976 fps, XviD build 73 ~1715 kbps avg, 0.33 bit/pixelАудио: 48 kHz, AC3 Dolby Digital, 3/2 (L,C,R,l,r) + LFE ch, ~448 kbps 1,46 Gb 5 5 30 мая 2016 10:25 Добро пожаловать в рай / Vice (2015) HDRip-AVC от ExKinoRay | D .torrent   [Информация о файле (нажмите для просмотра)] Качество: HDRip (AVC)Видео: MPEG-4 AVC, 1845 Кбит/с, 1024x426Аудио: Русский, английский (AC3, 6 ch, 448 Кбит/с)Субтитры: Русские, английские 1,85 Gb 3 4 30 мая 2016 10:25 Добро пожаловать в рай / Vice (2015) BDRip 720p | D, L2 .torrent   [Информация о файле (нажмите для просмотра)] Перевод: Профессиональный (полное дублирование) - Чистый звукКачество: BDRip 720pФормат: MKVВидео: MPEG4/AVC, 5013 Кбит/сек, 1280х534 (2.40:1), 23.976 кадра/секАудио 1: AC3, 2 канала, 192 Кбит/сек |Русский - LineАудио 2: AC3, 2 канала, 192 Кбит/сек |Русский - RAIM & GUGUАудио 3: AC3, 6 каналов, 640 Кбит/сек |АнглийскийСубтитры: Английские (Full, SDH)Видео: Идентификатор : 1 Формат : AVC Формат/Информация : Advanced Video Codec Профиль формата : [email protected] Параметр CABAC формата : Да Параметр ReFrames формата : 12 кадров Идентификатор кодека : V_MPEG4/ISO/AVC Продолжительность : 1 ч. 36 м. Битрейт : 5013 Кбит/сек Ширина : 1280 пикселей Высота : 534 пикселя Соотношение сторон : 2,40:1 Режим частоты кадров : Постоянный Частота кадров : 23,976 кадра/сек Цветовое пространство : YUV Субдискретизация насыщенности : 4:2:0 Битовая глубина : 8 бит Тип развёртки : Прогрессивная Бит/(Пиксели*Кадры) : 0.306 Размер потока : 3,29 Гбайт (81%) Заголовок : LEGi0N Библиотека кодирования : x264 core 144 r2525 40bb568 Настройки программы : cabac=1 / ref=12 / deblock=1:-2:-3 / analyse=0x3:0x113 / me=umh / subme=10 / psy=1 / psy_rd=1.00:0.15 / mixed_ref=1 / me_range=48 / chroma_me=1 / trellis=2 / 8x8dct=1 / cqm=0 / deadzone=21,11 / fast_pskip=1 / chroma_qp_offset=-3 / threads=12 / lookahead_threads=2 / sliced_threads=0 / nr=0 / decimate=1 / interlaced=0 / bluray_compat=0 / constrained_intra=0 / bframes=9 / b_pyramid=2 / b_adapt=2 / b_bias=0 / direct=1 / weightb=1 / open_gop=0 / weightp=2 / keyint=240 / keyint_min=23 / scenecut=40 / intra_refresh=0 / rc_lookahead=40 / rc=2pass / mbtree=1 / bitrate=5013 / ratetol=1.0 / qcomp=0.60 / qpmin=0 / qpmax=69 / qpstep=4 / cplxblur=20.0 / qblur=0.5 / vbv_maxrate=40000 / vbv_bufsize=48000 / nal_hrd=none / filler=0 / ip_ratio=1.40 / aq=1:1.00 Язык : English Default : Да Forced : Нет Основные цвета : BT.709 Характеристики трансфера : BT.709 Коэффициенты матрицы : BT.709 Аудио #1: Идентификатор : 2 Формат : AC-3 Формат/Информация : Audio Coding 3 Расширение режима : CM (complete main) Параметр Endianness формата : Big Идентификатор кодека : A_AC3 Продолжительность : 1 ч. 36 м. Вид битрейта : Постоянный Битрейт : 192 Кбит/сек Каналы : 2 канала Расположение каналов : Front: L R Частота : 48,0 КГц Битовая глубина : 16 бит Метод сжатия : С потерями Размер потока : 132 Мбайт (3%) Заголовок : DUB | Line Язык : Russian Default : Да Forced : Нет Аудио #2: Идентификатор : 3 Формат : AC-3 Формат/Информация : Audio Coding 3 Расширение режима : CM (complete main) Параметр Endianness формата : Big Идентификатор кодека : A_AC3 Продолжительность : 1 ч. 36 м. Вид битрейта : Постоянный Битрейт : 192 Кбит/сек Каналы : 2 канала Расположение каналов : Front: L R Частота : 48,0 КГц Битовая глубина : 16 бит Метод сжатия : С потерями Размер потока : 132 Мбайт (3%) Заголовок : L2 | RAIM & GUGU Язык : Russian Default : Нет Forced : Нет Аудио #3: Идентификатор : 4 Формат : AC-3 Формат/Информация : Audio Coding 3 Расширение режима : CM (complete main) Параметр Endianness формата : Big Идентификатор кодека : A_AC3 Продолжительность : 1 ч. 36 м. Вид битрейта : Постоянный Битрейт : 640 Кбит/сек Каналы : 6 каналов Расположение каналов : Front: L C R, Side: L R, LFE Частота : 48,0 КГц Битовая глубина : 16 бит Метод сжатия : С потерями Размер потока : 441 Мбайт (11%) Заголовок : Original Язык : English Default : Нет Forced : Нет 4,06 Gb 7 3 30 мая 2016 10:25 Добро пожаловать в рай / Vice (2015) BDRip 1080p | Чистый звук .torrent   [Информация о файле (нажмите для просмотра)] Перевод: Дублированный [Чистый звук]Кодек: MPEG-4 AVCКачество: BDRip 1080pВидео: 9099 Кбит/с, 1920x800Звук: Русский (AC3, 2 ch, 192 Кбит/с), английский (AC3, 6 ch, 640 Кбит/с)Субтитры: Английские 6,68 Gb 5 3 30 мая 2016 10:25 Добро пожаловать в рай / Vice (2015) BDRip 720p | Чистый звук .torrent   [Информация о файле (нажмите для просмотра)] Перевод: Дублированный [Чистый звук]Формат: MKV (H.264)Качество: BDRip 720pВидео: 4226 kb/s, 1280x536Аудио: Russian:AC3, 192 kb/s (2 ch) / English: AC3, 640 kb/s (6 ch)Субтитры: English 3,41 Gb 8 2 30 мая 2016 10:25 Добро пожаловать в рай / Vice (2015) HDRip | Чистый звук .torrent   [Информация о файле (нажмите для просмотра)] Перевод: Дублированный [Чистый звук]Кодек: XviDКачество: HDRipВидео: 1829 Кбит/с, 720x304Звук: АС3, 2 ch, 192 Кбит/сСубтитры: Отсутствуют 1,37 Gb 52 6 30 мая 2016 10:25 Добро пожаловать в рай / Vice (2014-2015) BDRip-AVC | L2 .torrent   [Информация о файле (нажмите для просмотра)] Перевод: Любительский (двухголосый, закадровый) (RAIM & GUGU)Кодек: H.264Качество: BDRip-AVC | Исходник: Vice 2015 1080p Blu-ray AVC TrueHD 5.1Видео: 832x352 (2.35:1), 23.976 fps, MPEG4-AVC ~1 006 kbps avg, 0.143 bit/pixelЗвук: 48.0 KHz / 24.0 KHz, HE-AAC / LC, 2 ch, ~72.0 kbpsСубтитры: Языки и типы субтитровВидео: Идентификатор : 1 Формат : AVC Формат/Информация : Advanced Video Codec Профиль формата : [email protected] Параметр CABAC формата : Да Параметр ReFrames формата : 12 кадров Идентификатор кодека : V_MPEG4/ISO/AVC Продолжительность : 1 ч. 36 м. Номинальный битрейт : 1006 Кбит/сек Ширина : 832 пикселя Высота : 352 пикселя Соотношение сторон : 2,35:1 Режим частоты кадров : Постоянный Частота кадров : 23,976 кадра/сек Цветовое пространство : YUV Субдискретизация насыщенности : 4:2:0 Битовая глубина : 8 бит Тип развёртки : Прогрессивная Бит/(Пиксели*Кадры) : 0.143 Заголовок : Добро пожаловать в рай / Vice (2014) BDRip-AVC Библиотека кодирования : x264 core 125 r2208 d9d2288 Настройки программы : cabac=1 / ref=12 / deblock=1:-2:-1 / analyse=0x3:0x133 / me=umh / subme=9 / psy=1 / psy_rd=1.00:0.10 / mixed_ref=1 / me_range=24 / chroma_me=1 / trellis=2 / 8x8dct=1 / cqm=0 / deadzone=21,11 / fast_pskip=0 / chroma_qp_offset=-3 / threads=3 / lookahead_threads=1 / sliced_threads=0 / slices=4 / nr=0 / decimate=1 / interlaced=0 / bluray_compat=0 / constrained_intra=0 / bframes=9 / b_pyramid=2 / b_adapt=2 / b_bias=0 / direct=3 / weightb=1 / open_gop=0 / weightp=2 / keyint=240 / keyint_min=23 / scenecut=40 / intra_refresh=0 / rc=2pass / mbtree=0 / bitrate=1006 / ratetol=1.0 / qcomp=0.60 / qpmin=0 / qpmax=69 / qpstep=4 / cplxblur=20.0 / qblur=0.5 / ip_ratio=1.40 / pb_ratio=1.30 / aq=1:1.00 Язык : Russian Default : Да Forced : ДаАудио: Идентификатор : 2 Формат : AAC Формат/Информация : Advanced Audio Codec Профиль формата : HE-AAC / LC Идентификатор кодека : A_AAC Продолжительность : 1 ч. 36 м. Каналы : 2 канала Расположение каналов : Front: L R Частота : 48,0 КГц / 24,0 КГц Метод сжатия : С потерями Задержка видео : 31 мс. Заголовок : DVO [RAIM & GUGU] Язык : Russian Default : Да Forced : Да 741,87 Mb 3 1 30 мая 2016 10:25 Добро пожаловать в рай / Vice (2014) BDRip 720p | L2 .torrent   [Информация о файле (нажмите для просмотра)] Кодек: MPEG-4 AVCКачество: BDRip 720pВидео: 4226 Кбит/с, 1280x536Звук: Русский (AC3, 2 ch, 192 Кбит/с), английский (AC3, 6 ch, 640 Кбит/с)Субтитры: Английские 3,41 Gb 6 2 30 мая 2016 10:25 Добро пожаловать в рай / Vice (2015) HDRip-AVC | ИндивИдуалист .torrent   [Информация о файле (нажмите для просмотра)] Перевод: Любительский одноголосый закадровый -ИндивИдуалистВидео: x264, 1280x528 (2.40:1), 23,976 fps, 951 kbpsАудио: AC3, 192 Kbps, 48 KHz, 2 channelsИндивИдуалист 778,59 Mb 3 3 30 мая 2016 10:25 Добро пожаловать в рай / Vice (2015) HDRip от Kapolone | L1 .torrent   [Информация о файле (нажмите для просмотра)] Перевод: Любительский (одноголосый) [ИндивИдуалист]Кодек: XviDКачество: HDRipВидео: 688x280, 876 Kb/s, 23.976 fpsЗвук: MP3, 128 Kb/s (2 ch) 698,78 Mb 1 1 30 мая 2016 10:25 Добро пожаловать в рай / Vice (2015) HDRip | L1 .torrent   [Информация о файле (нажмите для просмотра)] Перевод: Любительский одноголосый - ИндивидуалистКодек: XviDКачество: HDRipВидео: 704x288 (2.40:1), 23,976 fps, XviD build 73 ~1774 kbps avg, 0.36 bit/pixelЗвук: 48 kHz, AC3 Dolby Digital, 3/2 (L,C,R,l,r) + LFE ch, ~384.00 kbps avg 1,46 Gb 3 4

gig-torrent.net

Добро пожаловать в рай через торрент

Размер: 1.31 GB | Добавлен: 2 года 9 мес. назад | Торрент скачан:2653 раза
Реклама Дарим 3000 рублей за регистрацию, не упусти свой шанс получить шикарный бонус!!!

20-01-2015 13:16 Добро пожаловать в рай Скачать торрент  

Добро пожаловать в рай / Порок / Vice Год выпуска:2015 Страна:США Жанр:фантастика, боевик, триллер, приключения Продолжительность: 01:36:21 Перевод:Любительский (двухголосый)[RAIM&GUGU] Режиссер:Брайан А Миллер В ролях: Томас Джейн (Roy), Брюс Уиллис (Julian), Эмбир Чилдерс (Kelly), Брайан Гринберг (Evan), Джонатон Шек (Chris), Шарлотта Кирк (Melissa), Бретт Гранстафф (James), Райан О’Нан (Det. Matthews), David Gordon (Mitch), Колин Эглсфилд (Reiner), Cameron Brexler (Keith), Джесси Пруэтт (Officer Pullman)
  • Описание:Действие происходит в относительно недалеком будущем, когда для богачей создан специальный город-курорт, основные обитатели которых и обслуга - андроиды. Туристы за соответствующую цену могут осуществить здесь самые безумные свои фантазии, а андроиды, пострадавшие от рук людей, направляются на перезагрузку памяти. Но однажды случается сбой, и женщина-андроид обретает память о всех кошмарах, которым богатые извращенцы подвергали ее и остальных искусственных людей. И она решает отомстить... Качество: WEB-DLRip Формат:AVI Видео кодек: XviD Аудио кодек:AC3 Видео: XviD, 720x304 (2.35:1), 1748 kbps, 23,976 fps, 0,319 bpp Аудио: AC3 / 2.0 / 48 kHz / 192 kbps / 16 bit

    Код:

    GeneralComplete name                            : D:\Торенты\Vice.2015.HDRip.XviD.aviFormat                                   : AVIFormat/Info                              : Audio Video InterleaveFile size                                : 1.31 GiBDuration                                 : 1h 36mnOverall bit rate                         : 1 950 KbpsWriting application                      : VirtualDubMod 1.5.10.2 (build 2542/release)Writing library                          : VirtualDubMod build 2542/release

    VideoID                                       : 0Format                                   : MPEG-4 VisualFormat profile                           : Advanced [email protected] settings, BVOP                    : 2Format settings, QPel                    : NoFormat settings, GMC                     : No warppointsFormat settings, Matrix                  : Default (H.263)Muxing mode                              : Packed bitstreamCodec ID                                 : XVIDCodec ID/Hint                            : XviDDuration                                 : 1h 36mnBit rate                                 : 1748 KbpsWidth                                    : 720 pixelsHeight                                   : 304 pixelsDisplay aspect ratio                     : 2.35:1Frame rate                               : 23.976 fpsColor space                              : YUVChroma subsampling                       : 4:2:0Bit depth                                : 8 bitsScan type                                : ProgressiveCompression mode                         : LossyBits/(Pixel*Frame)                       : 0.319Stream size                              : 1.13 GiB (86%)Writing library                          : XviD 64

    AudioID                                       : 1Format                                   : AC-3Format/Info                              : Audio Coding 3Mode extension                           : CM (complete main)Codec ID                                 : 2000Duration                                 : 1h 36mnBit rate mode                            : ConstantBit rate                                 : 192 KbpsChannel(s)                               : 2 channelsChannel positions                        : Front: L RSampling rate                            : 48.0 KHzBit depth                                : 16 bitsCompression mode                         : LossyStream size                              : 132 MiB (10%)Alignment                                : Split accross interleaves

    Скриншоты: Каталог Новинок (Фильмы-трейлеры, Игры, Сериалы, Мультфильмы) © Оформление by Ворон
  • Скачать Добро пожаловать в рай через торрент http://pic.pb.wtf/images/6/ordi9.jpg Скачать фильм Добро пожаловать в рай через торрент бесплантно в хорошем качестве Описание:Действие происходит в относительно недалеком будущем, когда для богачей создан специальный город-курорт, основные обитатели ... 2015-01-21 19:53 9.3 10 65

    Loading...

    Loading...

    Рекламный пират

    20-01-2015 13:39 Добро пожаловать в рай Скачать торрент  

    райм озвучивает нормально,но вот у этой гугу или жужу голосок это тихий ужас

    21-01-2015 09:25 Добро пожаловать в рай Скачать торрент  

    хороший фильм

    21-01-2015 21:35 Добро пожаловать в рай Скачать торрент  

    Kesady писал(а):

    хороший фильм

    и мне неожиданно понравился

    22-01-2015 02:08 Добро пожаловать в рай Скачать торрент  

    Скатился Брюс Виллис до недофильмов. Печальное зрелище.

    22-01-2015 05:26 Добро пожаловать в рай Скачать торрент  

    Очередной фильм с Уиллисом...

    22-01-2015 06:28 Добро пожаловать в рай Скачать торрент  

    Да, очень жаль. Сначала Ван Дамм, Сигал, потом Шварц, а теперь и Брюс стали сниматься в фильмах "отстой". Зажрались или скорее наоборот "ПОСТАРЕЛИ".Блин, третий фильм с Виллисом подряд и все дерьмецо... Жаль.

    22-01-2015 19:23 Добро пожаловать в рай Скачать торрент  

    по описанию вроде ничего, скачаю, спасибо

    23-01-2015 17:07 Добро пожаловать в рай Скачать торрент  

    нормальный фильмец на вечерок-хоть и без эффектов и бюджета-смотрится легко-ну а брюс здесь как бы просто в эпизодической роли-такого актера не нам судить

    Pекламный агент PB

    14-02-2015 15:11 Добро пожаловать в рай Скачать торрент  

    Редкостная чушь.Из-за робота столько живых людей перебили

    22-03-2015 10:10 Добро пожаловать в рай Скачать торрент  

    не стоит даже качать!!!

    04-05-2015 18:10 Добро пожаловать в рай Скачать торрент  

    Эх, ради Уилиса скачаю хотя бы просто торрент файл

    Дорогой пользователь! Огромная просьба, поблагодарите релизера, оцените раздачу и оставьте свои комментарий, если Вы скачали Добро пожаловать в рай через торрент бесплатно! Внесите свою лепту в развитие PiratBit!

    Комментировать посты могут только пользователи прошедшие не сложную регистрацию

    Добро пожаловать в рай через торрент Скачать бесплатно Добро пожаловать в рай Добро пожаловать в рай скачать торрент Добро пожаловать в рай смотреть онлайн Cкачать фильм Добро пожаловать в рай бесплатно Добро пожаловать в рай скачать торрент в хорошем качестве Добро пожаловать в рай смотреть онлайн бесплатно в хорошем качестве

    Вы не можете начинать темыВы не можете отвечать на сообщенияВы не можете редактировать свои сообщенияВы не можете удалять свои сообщенияВы не можете голосовать в опросахВы не можете прикреплять файлы к сообщениямВы можете скачивать файлы

    piratbit.ru

    Добро пожаловать в рай через торрент

    Размер: 1.42 GB | Добавлен: 2 года 3 мес. назад | Торрент скачан:1810 раз
    Реклама Дарим 3000 рублей за регистрацию, не упусти свой шанс получить шикарный бонус!!!

    07-07-2015 03:29 Добро пожаловать в рай Скачать торрент  

    Добро пожаловать в рай / Порок / Vice Год выпуска:2015 Страна:США Жанр:фантастика, боевик, триллер, приключения Продолжительность: 01:36:21 Перевод:Дублированный [iTunes] Режиссер:Брайан А Миллер В ролях: Томас Джейн (Roy), Брюс Уиллис (Julian), Эмбир Чилдерс (Kelly), Брайан Гринберг (Evan), Джонатон Шек (Chris), Шарлотта Кирк (Melissa), Бретт Гранстафф (James), Райан О’Нан (Det. Matthews), David Gordon (Mitch), Колин Эглсфилд (Reiner), Cameron Brexler (Keith), Джесси Пруэтт (Officer Pullman)
  • Описание:Действие происходит в относительно недалеком будущем, когда для богачей создан специальный город-курорт, основные обитатели которых и обслуга - андроиды. Туристы за соответствующую цену могут осуществить здесь самые безумные свои фантазии, а андроиды, пострадавшие от рук людей, направляются на перезагрузку памяти. Но однажды случается сбой, и женщина-андроид обретает память о всех кошмарах, которым богатые извращенцы подвергали ее и остальных искусственных людей. И она решает отомстить... Качество: HDRip Формат:AVI Видео кодек: XviD Аудио кодек:AC3 Видео: XviD, 720x304 ,1707 kbps, 23,976 fps Аудио: AC3, 384 kb/s (6 ch) / 48 kHz Скриншоты: Каталог Новинок (Фильмы-трейлеры, Игры, Сериалы, Мультфильмы) © Оформление by Ворон
  • Скачать Добро пожаловать в рай через торрент http://pic.pb.wtf/images/6/ordi9.jpg Скачать фильм Добро пожаловать в рай через торрент бесплантно в хорошем качестве Описание:Действие происходит в относительно недалеком будущем, когда для богачей создан специальный город-курорт, основные обитатели ... 2015-07-07 03:29 8.7 10 50

    Loading...

    Loading...

    Рекламный пират

    07-07-2015 17:09 Добро пожаловать в рай Скачать торрент  

    Брюске надо снятся в фильме Уве Болла, тогда круг замкнется.

    26-10-2015 08:28 Добро пожаловать в рай Скачать торрент  

    Так себе. Ни как люди роботов развращали толком не показано, ни как роботы людям мстили. Скорее мелодрама а не фантастика с боевиком. Нудно и скучно. Даже как-то неудобно стало за Брюсика, когда он своим фирменным прищуром в таком ... щурился зря...

    Дорогой пользователь! Огромная просьба, поблагодарите релизера, оцените раздачу и оставьте свои комментарий, если Вы скачали Добро пожаловать в рай через торрент бесплатно! Внесите свою лепту в развитие PiratBit!

    Комментировать посты могут только пользователи прошедшие не сложную регистрацию

    Добро пожаловать в рай через торрент Скачать бесплатно Добро пожаловать в рай Добро пожаловать в рай скачать торрент Добро пожаловать в рай смотреть онлайн Cкачать фильм Добро пожаловать в рай бесплатно Добро пожаловать в рай скачать торрент в хорошем качестве Добро пожаловать в рай смотреть онлайн бесплатно в хорошем качестве

    Вы не можете начинать темыВы не можете отвечать на сообщенияВы не можете редактировать свои сообщенияВы не можете удалять свои сообщенияВы не можете голосовать в опросахВы не можете прикреплять файлы к сообщениямВы можете скачивать файлы

    piratbit.ru

    Добро пожаловать в рай! через торрент

    Добро пожаловать в рай! / Into the Blue

    Год выпуска: 2005Страна: СШАЖанр: боевик, триллер, криминал, приключенияПродолжительность: 110 мин.Перевод: Профессиональный (полное дублирование) [Лицензия]

    Режиссер: Джон СтокуэллПродюссер: Дэвид Зелон, Брэндон Биртелл, Рик ДаллагоСценарий: Мэтт Джонсон

    Бюджет: $50 000 000Премьера в мире: 30 сентября 2005

    детям до 13 лет просмотр не желателенМировой рейтинг IMDB 5.70 (31 060)

    В ролях: Пол Уокер, Джессика Альба, Скотт Каан, Эшли Скотт, Джош Бролин, Джеймс Фрейн, Тайсон Бекфорд, Дуэйн Эдвэй, Джэвон Фрейзер, Крис Талоа, Денис Беспалый, Жанна Никонова, Михаил Тихонов, Андрей Градов, Вячеслав Баранов

    Описание: Из пункта «А» в пункт «Б» летел небольшой частный самолетик и во время грозы потерпел аварию, где-то в акватории Багамских островов… Как раз в тех местах, где молодой парень Джаред, инструктор по дайвингу, мечтает в свободное от службы время о будущей лучшей жизни вместе со своей подружкой Самантой, которая работает в местном аквапарке.

    В гости к ним приезжают Брайс, давний приятель Джареда, и тоже с подружкой — Амандой. Весело проводя время на земле и на море, они в ходе очередного заплыва на глубину натыкаются на затонувший самолет, полный аккуратно запечатанных мешочков, как выяснится, с кокаином…

    С этой минуты начинаются для четверых друзей настоящие приключения, с погонями и предательством, с поединком, где выигравший получает жизнь…

    Похожие раздачи: Добро пожаловать в рай!

    Качество: BDRip (1080p)Формат: MKVВидео кодек: MPEG2Аудио кодек: AC3Видео: 17 Мb/s, 1920x1080, 23,976 кадра/секАудио#1: Russian: 48 kHz, AC3, 3/2 (L,C,R,l,r) + LFE ch, 48 КГц

    Формат : MatroskaВерсия формата : Version 2Размер файла : 13,7 ГбайтПродолжительность : 1 ч. 50 м.Режим общего битрейта : ПеременныйОбщий поток : 17,8 Мбит/секДата кодирования : UTC 2011-07-31 05:02:03Программа кодирования : mkvmerge v4.0.0 ('The Stars were mine') сборка от Jun 6 2010 16:18:42Библиотека кодирования : libebml v1.0.0 + libmatroska v1.0.0

    ВидеоИдентификатор : 1Формат : MPEG VideoВерсия формата : Version 2Профиль формата : [email protected]Параметр BVOP формата : НетПараметр матрицы формата : ВыборочнаяИдентификатор кодека : V_MPEG2Идентификатор кодека/Информация : MPEG 1 or 2 VideoПродолжительность : 1 ч. 50 м.Вид битрейта : ПеременныйБитрейт : 17,0 Мбит/секМаксимальный битрейт : 30,0 Мбит/секШирина : 1920 пикселейВысота : 1080 пикселейСоотношение сторон : 16:9Частота кадров : 23,976 кадра/секЦветовое пространство : YUVСубдискретизация насыщенности : 4:2:0Битовая глубина : 8 битТип развёртки : ПрогрессивнаяБит/(Пиксели*Кадры) : 0.341Размер потока : 13,1 Гбайт (95%)

    АудиоИдентификатор : 2Формат : AC-3Формат/Информация : Audio Coding 3Расширение режима : CM (complete main)Идентификатор кодека : A_AC3Продолжительность : 1 ч. 50 м.Вид битрейта : ПостоянныйБитрейт : 448 Кбит/секКаналы : 6 каналовРасположение каналов : Front: L C R, Side: L R, LFEЧастота : 48,0 КГцБитовая глубина : 16 битРазмер потока : 353 Мбайт (3%)Заголовок : ДубляжЯзык : Russian

    piratbit.ru

    Добро пожаловать в рай через торрент

    Размер: 1.37 GB | Добавлен: 4 года 6 мес. назад | Торрент скачан:328 раз
    Реклама Дарим 3000 рублей за регистрацию, не упусти свой шанс получить шикарный бонус!!!

    10-04-2013 17:42 Добро пожаловать в рай Скачать торрент  

    Добро пожаловать в рай / Into the Blue [x264]

    Год выпуска: 2005Страна: СШАЖанр: боевик, триллер, криминал, приключения,Продолжительность: 110 мин. / 01:50В ролях: Пол Уокер (Jared), Джессика Альба (Samanta), Скотт Каан (Bryce), Эшли Скотт (Amanda), Джош Бролин (Bates), Джеймс Фрейн (Reyes), Тайсон Бекфорд (Primo), Дуэйн Эдвэй (Roy)Режиссер: Джон СтокуэллПродюссер: Дэвид Зелон, Брэндон Биртелл, Рик ДаллагоСценарий: Мэтт ДжонсонПеревод : Дублированный

    Мировой рейтинг IMDB 5.70 (42 410)

    Описание: Из пункта «А» в пункт «Б» летел небольшой частный самолетик и во время грозы потерпел аварию, где-то в акватории Багамских островов… Как раз в тех местах, где молодой парень Джаред, инструктор по дайвингу, мечтает в свободное от службы время о будущей лучшей жизни вместе со своей подружкой Самантой, которая работает в местном аквапарке.В гости к ним приезжают Брайс, давний приятель Джареда, и тоже с подружкой — Амандой. Весело проводя время на земле и на море, они в ходе очередного заплыва на глубину натыкаются на затонувший самолет, полный аккуратно запечатанных мешочков, как выяснится, с кокаином…

    Релиз от : Качество: HDRipФормат: MKVВидео кодек: H.264Аудио кодек: AC3Видео: AVC/x264, 720x304 (2.35:1), 23.976 fps, 1 325 Kbps (0.252 bit/pixel)Аудио#1: AC-3, 48.0 KHz, 6 ch, 448 Kbps, CBRРелиз от: xGhost

    GeneralUnique ID : 221369489829427869351071452526365456918 (0xA68A368229995FF4B2294EF5FE8D3A16)Complete name : C:UsersxGhostDesktopDobro.pozhalovat'.v.raj.2005.D.HDRip.Rus.x264.1400MB.mkvFormat : MatroskaFormat version : Version 2File size : 1.37 GiBDuration : 1h 50mnOverall bit rate : 1 775 KbpsEncoded date : UTC 2013-04-10 17:03:36Writing application : mkvmerge v4.0.0 ('The Stars were mine')Writing library : libebml v1.0.0 + libmatroska v1.0.0

    VideoID : 1Format : AVCFormat/Info : Advanced Video CodecFormat profile : [email protected] settings, CABAC : YesFormat settings, ReFrames : 12 framesCodec ID : V_MPEG4/ISO/AVCDuration : 1h 50mnBit rate : 1 325 KbpsWidth : 720 pixelsHeight : 304 pixelsDisplay aspect ratio : 2.35:1Frame rate mode : ConstantFrame rate : 23.976 fpsColor space : YUVChroma subsampling : 4:2:0Bit depth : 8 bitsScan type : ProgressiveBits/(Pixel*Frame) : 0.252Stream size : 1 018 MiB (73%)Writing library : x264 core 130 r2273 b3065e6Encoding settings : cabac=1 / ref=12 / deblock=1:-3:-3 / analyse=0x3:0x113 / me=hex / subme=7 / psy=1 / psy_rd=1.00:0.15 / mixed_ref=1 / me_range=32 / chroma_me=1 / trellis=1 / 8x8dct=1 / cqm=0 / deadzone=21,11 / fast_pskip=1 / chroma_qp_offset=-2 / threads=6 / lookahead_threads=1 / sliced_threads=0 / nr=0 / decimate=1 / interlaced=0 / bluray_compat=0 / constrained_intra=0 / bframes=3 / b_pyramid=2 / b_adapt=1 / b_bias=0 / direct=1 / weightb=1 / open_gop=0 / weightp=2 / keyint=240 / keyint_min=22 / scenecut=40 / intra_refresh=0 / rc_lookahead=40 / rc=2pass / mbtree=1 / bitrate=1325 / ratetol=1.0 / qcomp=0.60 / qpmin=10 / qpmax=51 / qpstep=4 / cplxblur=20.0 / qblur=0.5 / vbv_maxrate=50000 / vbv_bufsize=62500 / nal_hrd=none / ip_ratio=1.40 / aq=1:1.00Default : NoForced : No

    AudioID : 2Format : AC-3Format/Info : Audio Coding 3Mode extension : CM (complete main)Format settings, Endianness : BigCodec ID : A_AC3Duration : 1h 50mnBit rate mode : ConstantBit rate : 448 KbpsChannel(s) : 6 channelsChannel positions : Front: L C R, Side: L R, LFESampling rate : 48.0 KHzBit depth : 16 bitsCompression mode : LossyStream size : 353 MiB (25%)Default : YesForced : No

    Скачать Добро пожаловать в рай через торрент http://i40.fastpic.ru/big/2012/0724/f1/be6943e5dffda33cb5f4c849309e7ef1.png Скачать фильм Добро пожаловать в рай через торрент бесплантно в хорошем качестве Описание: Из пункта «А» в пункт «Б» летел небольшой частный самолетик и во время грозы потерпел аварию, где-то в акватории Багамских ... 2013-04-10 17:42 8.8 10 14

    Loading...

    Loading...

    Последний раз редактировалось: TekkenxD (2013-04-16 12:04), всего редактировалось 4 раз(а)

    Рекламный пират

    10-04-2013 18:10 Добро пожаловать в рай Скачать торрент  

    уважаемый, вы бы указали кто в фильме снялся

    10-04-2013 21:17 Добро пожаловать в рай Скачать торрент  

    TekkenxDУкажи перевод.

    Дорогой пользователь! Огромная просьба, поблагодарите релизера, оцените раздачу и оставьте свои комментарий, если Вы скачали Добро пожаловать в рай через торрент бесплатно! Внесите свою лепту в развитие PiratBit!

    Комментировать посты могут только пользователи прошедшие не сложную регистрацию

    Добро пожаловать в рай через торрент Скачать бесплатно Добро пожаловать в рай Добро пожаловать в рай скачать торрент Добро пожаловать в рай смотреть онлайн Cкачать фильм Добро пожаловать в рай бесплатно Добро пожаловать в рай скачать торрент в хорошем качестве Добро пожаловать в рай смотреть онлайн бесплатно в хорошем качестве

    Вы не можете начинать темыВы не можете отвечать на сообщенияВы не можете редактировать свои сообщенияВы не можете удалять свои сообщенияВы не можете голосовать в опросахВы не можете прикреплять файлы к сообщениямВы можете скачивать файлы

    piratbit.ru


    Смотрите также