Скачать фильм дом у озера через торрент в хорошем качестве бесплатно


Скачать фильм Дом у озера через торрент в хорошем качестве бесплатно BDRip

Раздают: 1 [ 0 KB/s ]
Размер: 1.46 GB | Добавлен: 4 года 10 мес. назад | Торрент скачан:359 раз
Реклама Дарим 3000 рублей за регистрацию, не упусти свой шанс получить шикарный бонус!!!

15-10-2012 19:54 Дом у озера Скачать торрент  

Дом у озера / Lake House, TheГод выпуска: 2006Страна: США, АвстралияЖанр: Мелодрама, любовный романПродолжительность: 01:38:32Перевод: Дубляж, ЛицензияРежиссер: Алехандро АгрестиПродюссер: Даг Дэвисон, Рой Ли, Брюс БерманСценарий: Дэвид Обёрн, Юн-Йонг Ким, Джи-На Ео Бюджет: $40 000 000Премьера в мире: 16 июня 2006В ролях: Киану Ривз, Сандра Буллок, Кристофер Пламмер, Эбон Мосс-Бакрак, Виллеке ван Аммельрой, Дилан Уолш, Шохре Агдашлу, Линн Коллинз, Майк Бакарелла, Кевин БреннанОписание: Доктор Кейт Фостер, сменив работу, покидает свой дом на берегу озера, оставляя в почтовом ящике послание для будущих жильцов. Однако каким-то мистическим образом письмо получает Алекс Вайлер, живший здесь двумя годами ранее. В результате, между ними завязывается романтическая переписка...Качество: BDRipФормат: AVIВидео кодек: XviDАудио кодек: AC3Видео: 720x304 (2.37:1), 23.976 fps, ~1724 kbps avg, 0.33 bit/pixelАудио#1: AC3 Dolby Digital, 3/2 (L,C,R,l,r) + LFE ch, 384.00 kbps avg

E:ЗагрузкиРаздачи!!!Dom.U.Ozera.2006.RUS.BDRip.XviD.AC3.aviGeneralComplete name : E:ЗагрузкиРаздачи!!!Dom.U.Ozera.2006.RUS.BDRip.XviD.AC3.aviFormat : AVIFormat/Info : Audio Video InterleaveFile size : 1.46 GiBDuration : 1h 38mnOverall bit rate : 2 118 KbpsMovie name : Дом у озера / Lake House, The (2006)Director : SENATOR (BDRip 720)Writing application : VirtualDubMod 1.5.10.2 (build 2540/release)Copyright : HQ-ViDEO (www.hq-video.ru)Comment : 17.09.2008Video #0ID : 0Format : MPEG-4 VisualFormat profile : Advanced [email protected] settings, BVOP : 2Format settings, QPel : NoFormat settings, GMC : No warppointsFormat settings, Matrix : Default (MPEG)Muxing mode : Packed bitstreamCodec ID : XVIDCodec ID/Hint : XviDDuration : 1h 38mnBit rate : 1 725 KbpsWidth : 720 pixelsHeight : 304 pixelsDisplay aspect ratio : 2.35:1Frame rate : 23.976 fpsColor space : YUVChroma subsampling : 4:2:0Bit depth : 8 bitsScan type : ProgressiveCompression mode : LossyBits/(Pixel*Frame) : 0.329Stream size : 1.19 GiB (81%)Writing library : XviD 1.2.0.dev47 (UTC 2006-11-01)Audio #1ID : 1Format : AC-3Format/Info : Audio Coding 3Mode extension : CM (complete main)Format settings, Endianness : BigCodec ID : 2000Duration : 1h 38mnBit rate mode : ConstantBit rate : 384 KbpsChannel(s) : 6 channelsChannel positions : Front: L C R, Side: L R, LFESampling rate : 48.0 KHzBit depth : 16 bitsCompression mode : LossyStream size : 270 MiB (18%)Alignment : Split accross interleavesInterleave, duration : 42 ms (1.00 video frame)Interleave, preload duration : 500 ms

Скачать Дом у озера через торрент http://pic.pb.wtf/images/1/p9pr5lh6lm.png Скачать фильм Дом у озера через торрент бесплантно в хорошем качестве Описание: Доктор Кейт Фостер, сменив работу, покидает свой дом на берегу озера, оставляя в почтовом ящике послание для будущих жильцов. ... 2012-12-07 18:28 10 10 11

Loading...

Loading...

Последний раз редактировалось: Моряк (2012-10-15 20:06), всего редактировалось 2 раз(а)

Рекламный пират

15-10-2012 19:56 Дом у озера Скачать торрент  

отличный фильм!

15-10-2012 19:58 Дом у озера Скачать торрент  

sdolotov Очень даже отличный:) вчера посмотрел очень понравился вот решил залить:)

Дорогой пользователь! Огромная просьба, поблагодарите релизера, оцените раздачу и оставьте свои комментарий, если Вы скачали Дом у озера через торрент бесплатно! Внесите свою лепту в развитие PiratBit!

Комментировать посты могут только пользователи прошедшие не сложную регистрацию

Дом у озера через торрент Скачать бесплатно Дом у озера Дом у озера скачать торрент Дом у озера смотреть онлайн Cкачать фильм Дом у озера бесплатно Дом у озера скачать торрент в хорошем качестве Дом у озера смотреть онлайн бесплатно в хорошем качестве

Вы не можете начинать темыВы не можете отвечать на сообщенияВы не можете редактировать свои сообщенияВы не можете удалять свои сообщенияВы не можете голосовать в опросахВы не можете прикреплять файлы к сообщениямВы можете скачивать файлы

piratbit.ru

Дом у озера 2006 - скачать бесплатно через торрент в хорошем качестве. Без регистрации

Название: Дом у озера / The Lake House (2006) HDRip от Scarabey | D
Качество видео: HDRip
Перевод: Профессиональный (полное дублирование)
Видео: 720x304 (2.37:1), 23.976 fps, XviD build 73 ~921 kbps avg, 0.17 bit/pixel
Аудио: 48 kHz, MPEG Layer 3, 2 ch, ~128.00 kbps avg
Скачать

Загрузка начнется в течение 5 сек.

746.18 MB

Название: Дом у озера / The Lake House (2006) BDRip | A
Качество видео: ВDRip
Перевод: Авторский (одноголосый закадровый) Михаил Иванов
Видео: XviD 720x304 (2.37:1), 23.976 fps, XviD build 73 ~1667 kbps avg, 0.32 bit/pixel
Аудио: 48 kHz, AC3 Dolby Digital, 3/2 (L,C,R,l,r) + LFE ch, ~448 kbps
Скачать

Загрузка начнется в течение 5 сек.

1.46 GB

Название: Дом у озера / The Lake House (2006) HDRip от Scarabey | D
Качество видео: HDRip
Перевод: Профессиональный (полное дублирование)
Видео: 720x304 (2.37:1), 23.976 fps, XviD build 73 ~1646 kbps avg, 0.31 bit/pixel
Аудио: 48 kHz, AC3 Dolby Digital, 3/2 (L,C,R,l,r) + LFE ch, ~448.00 kbps avg
Скачать

Загрузка начнется в течение 5 сек.

1.45 GB

Название: Дом у озера / The Lake House (2006) BDRip 720p от Leonardo and Scarabey
Качество видео: BDRip 720p Исходник: Blu-ray
Перевод: Профессиональный (полное дублирование) Лицензия
Формат видео: MKV Видео кодек: MPEG-4 AVC Аудио кодек: AC3
Видео: 1280x530 (2.40:1) at 23.976 fps, AVC at 3634 kbps avg, 0.223 bit/pixel
Аудио: 48 kHz, AC3 Dolby Digital, 3/2 (L,C,R,l,r) + LFE ch, 448 kbps avg
Скачать

Загрузка начнется в течение 5 сек.

2.87 GB

Название: Дом у озера / The Lake House (2006) DVDRip | КПК от Generalfilm
Качество видео: DVDRip | КПК
Видео: кодек: x264, формат: mp4, размер кадра: 480x208, битрейт: 350 кб/с
Аудио: язык: русский, перевод: дублированный (дубляж), кодек: AAC LC 2.0, битрейт: 100 кб/с
Скачать

Загрузка начнется в течение 5 сек.

319.18 MB

Название: Дом у озера / The Lake House (2006) BDRip 720p от FREEISLAND
Качество видео: BDRip720p
Перевод: Дублированный
Видео: H.264 English, 5710 Кбит/сек, 1280*528 (2,40:1), в 23,976 кадр/сек, AVC ([email protected])
Аудио: Russian, 448 Кбит/сек, 48,0 КГц, 16 бит, 6 канала(ов), AC-3 | дубляж
Скачать

Загрузка начнется в течение 5 сек.

4.38 GB

Название: Дом у озера / The Lake House (2006) BDRip1080p от Freeisland
Качество видео: BDRip 1080p
Перевод: Русский(дубляж) + Украинский(проф. многоголосый)
Видео: Н.264 1920x800 (2,40:1) , 5708 Кбит/сек , 23,976 кадр/сек , 0.155 bit/pixel
Аудио: 1: 48 kHz, AC3, 3/2 (L,C,R,l,r) + LFE ch, ~448.00 kbps avg (RUS)
Скачать

Загрузка начнется в течение 5 сек.

4.38 GB

www.kinovit.net

Скачать фильм Дом у озера через торрент в хорошем качестве бесплатно DVDRip

Размер: 696 MB | Добавлен: 6 лет 6 мес. назад | Торрент скачан:802 раза
Реклама Дарим 3000 рублей за регистрацию, не упусти свой шанс получить шикарный бонус!!!

10-04-2011 14:38 Дом у озера Скачать торрент  

Дом у озера / Lake House, TheГод выпуска: 2006Страна: США, АвстралияЖанр: фэнтези, драма, мелодрамаПродолжительность: 99 мин.Перевод: Профессиональный (многоголосый, закадровый) [Лицензия] Тип релиза: ЛицензияРежиссер: Алехандро АгрестиПродюссер: Даг Дэвисон, Рой Ли, Брюс БерманСценарий: Дэвид Обёрн, Юн-Йонг Ким, Джи-На ЕоБюджет: $40 000 000PG-Рекомендуется присутствие родителейМировой рейтинг IMDB 6.80 (39 700) В ролях: Киану Ривз, Сандра Буллок, Кристофер Пламмер, Эбон Мосс-Бакрак, Виллеке ван Аммельрой, Дилан Уолш, Шохре Агдашлу, Линн Коллинз, Майк Бакарелла, Кевин БреннОписание: Зима 2006 года. Ощутив необходимость изменить свою жизнь, доктор Кейт Форестер покидает свой необычный дом у озера в пригороде Иллинойса и устраивается на работу в чикагскую больницу. Единственное, о чем жалеет Кейт, так это о своем красивом доме с огромными окнами, который дарил ей душевное спокойствие. По дороге в город Кейт оставляет в почтовом ящике письмо, которое должен получить новый обитатель дома.Когда же в него вселяется талантливый, но разочаровавшийся в жизни архитектор Алекс Уайлер, он видит этот дом совсем не таким, каким описала его в своем письме Кейт. Для Алекса это жилище имеет особое значение, поскольку оно было построено его отцом, знаменитым архитектором, который ради карьеры оставил свою семью. В итоге Алекс решает придать дому его первоначальный вид. Однажды странный случай заставляет Алекса написать ответное письмо Кейт; в процессе их переписки выясняется, что он живет в 2004 году, а она — в 2006-м. И лишь загадочный почтовый ящик служит неким соединяющим их мостиком.В письмах они делятся друг с другом самым сокровенным, и постепенно между ними возникает заочный любовный роман. Испытывая неодолимое желание встретиться, Кейт и Алекс идут на все, чтобы добиться невозможного, рискуя при этом навсегда потерять друг друга…Качество: DVDRipФормат: AVIВидео кодек: XviDАудио кодек: MP3 Видео: MPEG4, XviD, 640x272 (2.35), 23.976 fps, 850 Kbps (0.204 bit/pixel)Аудио: MP3 , 48.0 KHz, 2 ch, 128 Kbps, CBR[img]http://pb.wtf/goo.php?url=http://pb.wtf/goo.php?url=http://imageban.ru/out/2009/10/02/3b4239e85ca17b9ab63f4e450479e43f.gif[/img] Скачать Дом у озера через торрент http://ib1.keep4u.ru/b/2011/04/10/f2/f27dcf926d2a9ac22edd8cddc406f0b2.jpg Скачать фильм Дом у озера через торрент бесплантно в хорошем качестве Описание: Зима 2006 года. Ощутив необходимость изменить свою жизнь, доктор Кейт Форестер покидает свой необычный дом у озера в пригороде ... 2011-04-10 14:38 10 10 4

Loading...

Loading...

Рекламный пират

10-04-2011 19:00 Дом у озера Скачать торрент  

Я хоть и не любитель мелодрам, но этот фильм супер!!! Советую всем.

10-04-2011 19:17 Дом у озера Скачать торрент  

Замечательный фильм! Спасибо!

12-11-2011 07:20 Дом у озера Скачать торрент  

Дорогой пользователь! Огромная просьба, поблагодарите релизера, оцените раздачу и оставьте свои комментарий, если Вы скачали Дом у озера через торрент бесплатно! Внесите свою лепту в развитие PiratBit!

Комментировать посты могут только пользователи прошедшие не сложную регистрацию

Дом у озера через торрент Скачать бесплатно Дом у озера Дом у озера скачать торрент Дом у озера смотреть онлайн Cкачать фильм Дом у озера бесплатно Дом у озера скачать торрент в хорошем качестве Дом у озера смотреть онлайн бесплатно в хорошем качестве

Вы не можете начинать темыВы не можете отвечать на сообщенияВы не можете редактировать свои сообщенияВы не можете удалять свои сообщенияВы не можете голосовать в опросахВы не можете прикреплять файлы к сообщениямВы можете скачивать файлы

piratbit.ru

Скачать фильм Дом у озера через торрент в хорошем качестве бесплатно 720p

GeneralUnique ID                                : 218157200628784613851445463951070615160 (0xA41F8C6C4BCBCFA5B13D62082A5A5678)Complete name                            : H:\Дом у озера\Дом у озера_2006_BDRip 720p.mkvFormat                                   : MatroskaFormat version                           : Version 2File size                                : 4.60 GiBDuration                                 : 1h 38mnOverall bit rate                         : 6 682 KbpsMovie name                               : The Lake House (2006) - Release for HDCLUBEncoded date                             : UTC 2011-10-14 09:26:46Writing application                      : mkvmerge v3.4.0 ('Rapunzel') built on May 15 2010 09:38:20Writing library                          : libebml v0.8.0 + libmatroska v0.9.0

VideoID                                       : 1Format                                   : AVCFormat/Info                              : Advanced Video CodecFormat profile                           : [email protected] settings, CABAC                   : YesFormat settings, ReFrames                : 11 framesCodec ID                                 : V_MPEG4/ISO/AVCDuration                                 : 1h 38mnBit rate                                 : 4 181 KbpsWidth                                    : 1 280 pixelsHeight                                   : 532 pixelsDisplay aspect ratio                     : 2.40:1Frame rate                               : 23.976 fpsColor space                              : YUVChroma subsampling                       : 4:2:0Bit depth                                : 8 bitsScan type                                : ProgressiveBits/(Pixel*Frame)                       : 0.256Stream size                              : 2.88 GiB (63%)Title                                    : Release for HDCLUBWriting library                          : x264 core 116 r2074kMod 2641b9eEncoding settings                        : cabac=1 / ref=11 / deblock=1:-3:-3 / analyse=0x3:0x113 / me=umh / subme=10 / psy=1 / fade_compensate=0.00 / psy_rd=1.00:0.00 / mixed_ref=1 / me_range=32 / chroma_me=1 / trellis=2 / 8x8dct=1 / cqm=0 / deadzone=21,11 / fast_pskip=0 / chroma_qp_offset=-2 / threads=6 / sliced_threads=0 / nr=0 / decimate=0 / interlaced=0 / bluray_compat=0 / constrained_intra=0 / bframes=10 / b_pyramid=2 / b_adapt=2 / b_bias=0 / direct=3 / weightb=1 / open_gop=0 / weightp=2 / keyint=240 / keyint_min=24 / scenecut=40 / intra_refresh=0 / rc=crf / mbtree=0 / crf=17.0000 / qcomp=0.60 / qpmin=0 / qpmax=69 / qpstep=4 / ip_ratio=1.40 / pb_ratio=1.30 / aq=1:0.80Language                                 : EnglishDefault                                  : NoForced                                   : No

Audio #1ID                                       : 2Format                                   : AC-3Format/Info                              : Audio Coding 3Mode extension                           : CM (complete main)Codec ID                                 : A_AC3Duration                                 : 1h 38mnBit rate mode                            : ConstantBit rate                                 : 448 KbpsChannel(s)                               : 6 channelsChannel positions                        : Front: L C R, Side: L R, LFESampling rate                            : 48.0 KHzBit depth                                : 16 bitsCompression mode                         : LossyStream size                              : 316 MiB (7%)Title                                    : AC3 5.1ch 448 kbps - ДубляжLanguage                                 : RussianDefault                                  : YesForced                                   : No

Audio #2ID                                       : 3Format                                   : AC-3Format/Info                              : Audio Coding 3Mode extension                           : CM (complete main)Codec ID                                 : A_AC3Duration                                 : 1h 38mnBit rate mode                            : ConstantBit rate                                 : 448 KbpsChannel(s)                               : 6 channelsChannel positions                        : Front: L C R, Side: L R, LFESampling rate                            : 48.0 KHzBit depth                                : 16 bitsCompression mode                         : LossyStream size                              : 316 MiB (7%)Title                                    : AC3 5.1ch 448 kbps - Двухголосый закадровый, SuperbitLanguage                                 : RussianDefault                                  : NoForced                                   : No

Audio #3ID                                       : 4Format                                   : AC-3Format/Info                              : Audio Coding 3Mode extension                           : CM (complete main)Codec ID                                 : A_AC3Duration                                 : 1h 38mnBit rate mode                            : ConstantBit rate                                 : 640 KbpsChannel(s)                               : 6 channelsChannel positions                        : Front: L C R, Side: L R, LFESampling rate                            : 48.0 KHzBit depth                                : 16 bitsCompression mode                         : LossyStream size                              : 451 MiB (10%)Title                                    : AC3 5.1ch 640 kbps - Одноголосый закадровый, В.КоролёвLanguage                                 : RussianDefault                                  : NoForced                                   : No

Audio #4ID                                       : 5Format                                   : AC-3Format/Info                              : Audio Coding 3Mode extension                           : CM (complete main)Codec ID                                 : A_AC3Duration                                 : 1h 38mnBit rate mode                            : ConstantBit rate                                 : 192 KbpsChannel(s)                               : 2 channelsChannel positions                        : Front: L RSampling rate                            : 48.0 KHzBit depth                                : 16 bitsCompression mode                         : LossyStream size                              : 135 MiB (3%)Title                                    : AC3 2.0ch 192 kbps - Многоголосый закадровыйLanguage                                 : UkrainianDefault                                  : NoForced                                   : No

Audio #5ID                                       : 6Format                                   : AC-3Format/Info                              : Audio Coding 3Mode extension                           : CM (complete main)Codec ID                                 : A_AC3Duration                                 : 1h 38mnBit rate mode                            : ConstantBit rate                                 : 640 KbpsChannel(s)                               : 6 channelsChannel positions                        : Front: L C R, Side: L R, LFESampling rate                            : 48.0 KHzBit depth                                : 16 bitsCompression mode                         : LossyStream size                              : 451 MiB (10%)Title                                    : AC3 5.1ch 640 kbpsLanguage                                 : EnglishDefault                                  : NoForced                                   : No

Text #1ID                                       : 7Format                                   : UTF-8Codec ID                                 : S_TEXT/UTF8Codec ID/Info                            : UTF-8 Plain TextLanguage                                 : RussianDefault                                  : NoForced                                   : No

Text #2ID                                       : 8Format                                   : UTF-8Codec ID                                 : S_TEXT/UTF8Codec ID/Info                            : UTF-8 Plain TextLanguage                                 : RussianDefault                                  : NoForced                                   : No

Text #3ID                                       : 9Format                                   : UTF-8Codec ID                                 : S_TEXT/UTF8Codec ID/Info                            : UTF-8 Plain TextTitle                                    : Вита АлаяLanguage                                 : RussianDefault                                  : NoForced                                   : No

Text #4ID                                       : 10Format                                   : UTF-8Codec ID                                 : S_TEXT/UTF8Codec ID/Info                            : UTF-8 Plain TextLanguage                                 : EnglishDefault                                  : NoForced                                   : No

Text #5ID                                       : 11Format                                   : UTF-8Codec ID                                 : S_TEXT/UTF8Codec ID/Info                            : UTF-8 Plain TextTitle                                    : SDHLanguage                                 : EnglishDefault                                  : NoForced                                   : No

Menu00:00:00.000                             : en:00:00:00.00000:03:35.381                             : en:00:03:35.38100:07:38.291                             : en:00:07:38.29100:13:18.130                             : en:00:13:18.13000:17:17.202                             : en:00:17:17.20200:23:39.417                             : en:00:23:39.41700:26:58.450                             : en:00:26:58.45000:32:44.629                             : en:00:32:44.62900:36:40.364                             : en:00:36:40.36400:40:25.422                             : en:00:40:25.42200:45:45.742                             : en:00:45:45.74200:50:27.858                             : en:00:50:27.85800:59:24.727                             : en:00:59:24.72701:03:21.297                             : en:01:03:21.29701:09:23.993                             : en:01:09:23.99301:13:14.890                             : en:01:13:14.89001:15:48.543                             : en:01:15:48.54301:20:21.483                             : en:01:20:21.48301:24:50.752                             : en:01:24:50.75201:28:11.119                             : en:01:28:11.11901:35:03.531                             : en:01:35:03.531

piratbit.ru

Дом у озера через торрент

Disc Title: Дом у озера BD-RemuxDisc Size: 13 425 905 948 bytesProtection: AACSBD-Java: NoBDInfo: 0.5.8

Notes:

BDINFO HOME:Cinema Squid

INCLUDES FORUMS REPORT FOR:AVS Forum Blu-ray Audio and Video Specifications Thread

WARNING: Report is incomplete because: Scan is still running.

********************PLAYLIST: 00000.MPLS********************

Код:Total VideoTitle Codec Length Movie Size Disc Size Bitrate Bitrate Main Audio Track Secondary Audio Track----- ------ ------- -------------- -------------- ------- ------- ------------------ ---------------------00000.MPLS VC-1 1:38:33 703 905 024 13 425 905 948 0,95 14,90 DD AC3 5.1 448Kbps DD AC3 5.1 448KbpsКод:DISC INFO:

Disc Title: Дом у озера BD-RemuxDisc Size: 13 425 905 948 bytesProtection: AACSBD-Java: NoBDInfo: 0.5.8

PLAYLIST REPORT:

Name: 00000.MPLSLength: 1:38:33.728 (h:m:s.ms)Size: 703 905 024 bytesTotal Bitrate: 0,95 Mbps

VIDEO:

Codec Bitrate Description----- ------- -----------VC-1 Video 14903 kbps 1080p / 23,976 fps / 16:9 / Advanced Profile 3

AUDIO:

Codec Language Bitrate Description----- -------- ------- -----------Dolby Digital Audio Russian 448 kbps 5.1 / 48 kHz / 448 kbpsDolby Digital Audio Russian 448 kbps 5.1 / 48 kHz / 448 kbps / DN -4dBDolby Digital Audio Russian 640 kbps 5.1 / 48 kHz / 640 kbps / DN -4dBDolby Digital Audio Ukrainian 192 kbps 2.0 / 48 kHz / 192 kbps / DN -4dBDolby Digital Audio English 640 kbps 5.1 / 48 kHz / 640 kbps / DN -4dBDolby Digital Audio English 192 kbps 2.0 / 48 kHz / 192 kbps / DN -4dB / Dolby Surround

SUBTITLES:

Codec Language Bitrate Description----- -------- ------- -----------Presentation Graphics Russian 12,652 kbpsPresentation Graphics Russian 14,139 kbpsPresentation Graphics Russian 13,969 kbpsPresentation Graphics English 26,996 kbpsPresentation Graphics English 30,263 kbps

FILES:

Name Time In Length Size Total Bitrate---- ------- ------ ---- -------------00000.M2TS 0:00:00.000 1:38:33.728 704 095 296 18 597

CHAPTERS:

Number Time In Length Avg Video Rate Max 1-Sec Rate Max 1-Sec Time Max 5-Sec Rate Max 5-Sec Time Max 10Sec Rate Max 10Sec Time Avg Frame Size Max Frame Size Max Frame Time------ ------- ------ -------------- -------------- -------------- -------------- -------------- -------------- -------------- -------------- -------------- --------------1 0:00:00.000 0:03:35.380 15 286 kbps 36 269 kbps 00:02:14.759 23 695 kbps 00:02:10.672 21 567 kbps 00:02:05.959 80 037 bytes 547 711 bytes 00:02:34.0702 0:03:35.380 0:04:02.909 5 047 kbps 20 263 kbps 00:04:15.922 16 874 kbps 00:04:13.211 16 203 kbps 00:04:52.875 72 905 bytes 356 424 bytes 00:04:52.9593 0:07:38.290 0:05:39.839 0 kbps 0 kbps 00:00:00.000 0 kbps 00:00:00.000 0 kbps 00:00:00.000 0 bytes 0 bytes 00:00:00.0004 0:13:18.130 0:03:59.071 0 kbps 0 kbps 00:00:00.000 0 kbps 00:00:00.000 0 kbps 00:00:00.000 0 bytes 0 bytes 00:00:00.0005 0:17:17.202 0:06:22.214 0 kbps 0 kbps 00:00:00.000 0 kbps 00:00:00.000 0 kbps 00:00:00.000 0 bytes 0 bytes 00:00:00.0006 0:23:39.416 0:03:19.033 0 kbps 0 kbps 00:00:00.000 0 kbps 00:00:00.000 0 kbps 00:00:00.000 0 bytes 0 bytes 00:00:00.0007 0:26:58.449 0:05:46.179 0 kbps 0 kbps 00:00:00.000 0 kbps 00:00:00.000 0 kbps 00:00:00.000 0 bytes 0 bytes 00:00:00.0008 0:32:44.629 0:03:55.735 0 kbps 0 kbps 00:00:00.000 0 kbps 00:00:00.000 0 kbps 00:00:00.000 0 bytes 0 bytes 00:00:00.0009 0:36:40.364 0:03:45.058 0 kbps 0 kbps 00:00:00.000 0 kbps 00:00:00.000 0 kbps 00:00:00.000 0 bytes 0 bytes 00:00:00.00010 0:40:25.422 0:05:20.320 0 kbps 0 kbps 00:00:00.000 0 kbps 00:00:00.000 0 kbps 00:00:00.000 0 bytes 0 bytes 00:00:00.00011 0:45:45.742 0:04:42.116 0 kbps 0 kbps 00:00:00.000 0 kbps 00:00:00.000 0 kbps 00:00:00.000 0 bytes 0 bytes 00:00:00.00012 0:50:27.858 0:08:56.868 0 kbps 0 kbps 00:00:00.000 0 kbps 00:00:00.000 0 kbps 00:00:00.000 0 bytes 0 bytes 00:00:00.00013 0:59:24.727 0:03:56.569 0 kbps 0 kbps 00:00:00.000 0 kbps 00:00:00.000 0 kbps 00:00:00.000 0 bytes 0 bytes 00:00:00.00014 1:03:21.296 0:06:02.696 0 kbps 0 kbps 00:00:00.000 0 kbps 00:00:00.000 0 kbps 00:00:00.000 0 bytes 0 bytes 00:00:00.00015 1:09:23.993 0:03:50.896 0 kbps 0 kbps 00:00:00.000 0 kbps 00:00:00.000 0 kbps 00:00:00.000 0 bytes 0 bytes 00:00:00.00016 1:13:14.890 0:02:33.652 0 kbps 0 kbps 00:00:00.000 0 kbps 00:00:00.000 0 kbps 00:00:00.000 0 bytes 0 bytes 00:00:00.00017 1:15:48.542 0:04:32.940 0 kbps 0 kbps 00:00:00.000 0 kbps 00:00:00.000 0 kbps 00:00:00.000 0 bytes 0 bytes 00:00:00.00018 1:20:21.483 0:04:29.269 0 kbps 0 kbps 00:00:00.000 0 kbps 00:00:00.000 0 kbps 00:00:00.000 0 bytes 0 bytes 00:00:00.00019 1:24:50.752 0:03:20.366 0 kbps 0 kbps 00:00:00.000 0 kbps 00:00:00.000 0 kbps 00:00:00.000 0 bytes 0 bytes 00:00:00.00020 1:28:11.119 0:06:52.412 0 kbps 0 kbps 00:00:00.000 0 kbps 00:00:00.000 0 kbps 00:00:00.000 0 bytes 0 bytes 00:00:00.00021 1:35:03.531 0:03:30.197 0 kbps 0 kbps 00:00:00.000 0 kbps 00:00:00.000 0 kbps 00:00:00.000 0 bytes 0 bytes 00:00:00.000

STREAM DIAGNOSTICS:

File PID Type Codec Language Seconds Bitrate Bytes Packets---- --- ---- ----- -------- -------------- -------------- ------------- -----00000.M2TS 4113 (0x1011) 0xEA VC-1 302,969 14 914 565 017 866 3 075 08800000.M2TS 4352 (0x1100) 0x81 AC3 rus (Russian) 303,094 448 16 979 200 94 75000000.M2TS 4353 (0x1101) 0x81 AC3 rus (Russian) 303,094 448 16 979 200 94 75000000.M2TS 4354 (0x1102) 0x81 AC3 rus (Russian) 303,094 640 24 256 000 142 12500000.M2TS 4355 (0x1103) 0x81 AC3 ukr (Ukrainian) 303,094 192 7 276 800 47 37500000.M2TS 4356 (0x1104) 0x81 AC3 eng (English) 303,094 640 24 256 000 142 12500000.M2TS 4357 (0x1105) 0x81 AC3 eng (English) 303,094 192 7 276 800 47 37500000.M2TS 4608 (0x1200) 0x90 PGS rus (Russian) 303,094 13 479 032 2 78300000.M2TS 4609 (0x1201) 0x90 PGS rus (Russian) 303,094 14 535 298 3 10100000.M2TS 4610 (0x1202) 0x90 PGS rus (Russian) 303,094 14 528 877 3 07300000.M2TS 4611 (0x1203) 0x90 PGS eng (English) 303,094 27 1 022 101 5 72100000.M2TS 4612 (0x1204) 0x90 PGS eng (English) 303,094 30 1 145 797 6 402

QUICK SUMMARY:

Disc Title: Дом у озера BD-RemuxDisc Size: 13 425 905 948 bytesProtection: AACSBD-Java: NoPlaylist: 00000.MPLSSize: 703 905 024 bytesLength: 1:38:33.728Total Bitrate: 0,95 MbpsVideo: VC-1 Video / 14903 kbps / 1080p / 23,976 fps / 16:9 / Advanced Profile 3Audio: Russian / Dolby Digital Audio / 5.1 / 48 kHz / 448 kbpsAudio: Russian / Dolby Digital Audio / 5.1 / 48 kHz / 448 kbps / DN -4dBAudio: Russian / Dolby Digital Audio / 5.1 / 48 kHz / 640 kbps / DN -4dBAudio: Ukrainian / Dolby Digital Audio / 2.0 / 48 kHz / 192 kbps / DN -4dBAudio: English / Dolby Digital Audio / 5.1 / 48 kHz / 640 kbps / DN -4dBAudio: English / Dolby Digital Audio / 2.0 / 48 kHz / 192 kbps / DN -4dB / Dolby SurroundSubtitle: Russian / 12,652 kbpsSubtitle: Russian / 14,139 kbpsSubtitle: Russian / 13,969 kbpsSubtitle: English / 26,996 kbpsSubtitle: English / 30,263 kbps

piratbit.ru


Смотрите также