Скачать фильм два ствола через торрент бесплатно в хорошем качестве


Два ствола (2013) скачать торрент в хорошем качестве бесплатно. Скачать Два ствола (2013) через торрент фильм в HD качестве

Название: Два стволаОригинальное название: 2 GunsГод выпуска: 2013Выпущено: СШАЖанр: криминал, боевик, комедия, триллер, крутые парни, полицейскиеПродолжительность: 01:27:42Перевод: Дублированный (лицензия)

Качество видео: HDRip (Лицензия)Формат видео: aviРазмер: 1450 MB

Режиссер: Бальтасар КормакурВ ролях: Дензел Вашингтон, Марк Уолберг, Пола Пэттон, Билл Пэкстон, Фред Уорд, Джеймс Марсден, Эдвард Джеймс Олмос и др.

Описание:Фильм режиссера Бальтасара Кормакура («Контрабанда»). Постановщик также известен своей исландской криминальной драмой «Рейкьявик-Роттердам». Потом он стал работать в Голливуде. Эта картина будет вторым проектом вместе с актером Марком Уолбергом («Кровь за кровь»). Также к ним присоединился Дензел Вашингтон («Тренировочный день»).

Два бандита грабят банк. У них какие-то терки с местным картелем. Так что это просто очередное задание. Но оказывается, что в хранилище во много раз больше зеленых, чем должно было быть. Как бы то ни было, при небольшом конфликте один герой подстреливает другого. И тут выясняется, что они оба работают в силовых структурах. Один – в Управлении по борьбе с наркотиками, а второй – служит в морских котиках.

 

Рецензия от сайта Igrhost.ruБальтасару Кормакура! Именно благодаря ему я окончательно не разочаровался в современных боевиках. Наконец-то я смог дождаться чего-то стоящего и неординарного. Перед просмотром киноленты Два ствола через торрент я традиционно просмотрел трейлер. Честно говоря, он настолько сильно меня зацепил, что вопрос касательно просмотра или не просмотра фильма отпал сам по себе. Я был действительно заинтригован, т.к. короткометражка не дает зрителю полностью разобраться в том, что же происходит. Она ставит множество вопросов, показывается экшн, отражаются напряженные, но, в то же время, забавные отношения между главными героями, но окончательно ни на один возникший вопрос нет ответа.После трейлера для меня было очевидно одно: Дензел Вашингтон и Марк Уолберг грабят банк, а затем начинают расследовать дело, направленное против мафии, в которую они и были внедрены. Дальше я немного запутался, но мысленно понимал, что очень похоже на то, что оба героя сами являются секретными агентами. За разъяснениями я обратился к полной версии картины. И действительно, оказалось, что один из героев является тайным агентом ВМС, а второй агент по борьбе с наркотиками. Оба персонажа до последнего уверены, что имеют дело с представителем мафии. Распутывается ситуация крайне любопытно, с огромным количеством погонь, перестрелок и юмора.При первом просмотре, кинолента Два ствола торрент очень смахивает на молодежные боевики 80-ых годов, которые миновали залы кинотеатров и сразу же выходили на видео носителях. Но, возможно, современным боевикам именно подобной изюминки и не хватало. Неординарный сценарий, нелепый и запутанный сюжет,…в общем, классика.Лично мне кинолента очень понравилась. Я давно не получал такое удовольствие от просмотра классического боевика. Кроме запутанного сценария, было в нем что-то этакое, особенное, притягивающее. Разумеется, последнюю роль в своей притягательности сыграл актерский состав: Вашингтон и Уолберг в одном фильме – это сильно.Помимо актерской игры порадовал и юмор, без которого современные боевики обойтись ну никак не могут. Но шутки были отнюдь не плоскими. На протяжении всего фильма Вашингтон и Уолберг подкалывают друг друга, отпускают тонкие колкости.Отлично подобранные саундтреки, только добавляют положительных эмоций. Ну, здесь, что называется, надо слышать, поэтому долго распыляться не буду.В общем, фильм действительно достоин просмотра. Главное, за что я ценю боевики подобного калибра – это их легкость при просмотре. Никакой напряженности, никакой путаницы (и это несмотря на не самый простой сюжет), никакой загруженности «серого вещества». Честно говоря, после напряженного рабочего дня, или во время вечернего просмотра телевизора в выходные, лучшей киноленты найти сложно. Я получил от фильма Два ствола скачать торрент все, что и ожидал. Вдоволь посмеялся, насладился многообразием погонь, перестрелок и драк, а так же полюбовался на великолепного и несравненного Вашингтона, который, безусловно, не получит очередной «Оскар» за картину подобного калибра, но, который, в очередной раз идеально сыграл свою излюбленную роль.

Для того чтобы скачать фильм Два ствола (2013) через торрент, Вам необходимо нажать на кнопку скачать торрент, которая находится над постером сверху, или на текстовую ссылку с надписью - Два ствола (2013) скачать торрент в хорошем качестве.

igrhost.ru

Скачать фильм Два ствола через торрент в хорошем качестве бесплатно 1080p)

ОбщееУникальный идентификатор : 243387179330967281780511344928268351855 (0xB71AAA69B30F1CD1A7E96E4B2071F96F)Полное имя : E:\Popoz.2015.paravozik.1080p.mkvФормат : MatroskaВерсия формата : Version 4 / Version 2Размер файла : 6,02 ГбайтПродолжительность : 1 ч. 25 м.Общий поток : 10,1 Мбит/секНазвание фильма : Popoz.rg.paravozikДата кодирования : UTC 2016-02-21 07:31:05Программа кодирования : mkvmerge v8.6.1 ('Flying') 64bitБиблиотека кодирования : libebml v1.3.3 + libmatroska v1.4.4DURATION : 01:25:41.016000000NUMBER_OF_FRAMES : 214209NUMBER_OF_BYTES : 82256256_STATISTICS_WRITING_APP : mkvmerge v8.6.1 ('Flying') 64bit_STATISTICS_WRITING_DATE_UTC : 2016-02-21 07:31:05_STATISTICS_TAGS : BPS DURATION NUMBER_OF_FRAMES NUMBER_OF_BYTES

ВидеоИдентификатор : 1Формат : AVCФормат/Информация : Advanced Video CodecПрофиль формата : [email protected]Параметр CABAC формата : ДаПараметр ReFrames формата : 4 кадраИдентификатор кодека : V_MPEG4/ISO/AVCПродолжительность : 1 ч. 25 м.Битрейт : 9734 Кбит/секШирина : 1920 пикселейВысота : 804 пикселяСоотношение сторон : 2,40:1Режим частоты кадров : ПостоянныйЧастота кадров : 24,000 кадра/секЦветовое пространство : YUVСубдискретизация насыщенности : 4:2:0Битовая глубина : 8 битТип развёртки : ПрогрессивнаяБит/(Пиксели*Кадры) : 0.263Размер потока : 5,83 Гбайт (97%)Библиотека кодирования : x264 core 130 r2273 b3065e6Настройки программы : cabac=1 / ref=3 / deblock=1:0:0 / analyse=0x3:0x133 / me=hex / subme=5 / psy=1 / psy_rd=1.00:0.00 / mixed_ref=0 / me_range=16 / chroma_me=1 / trellis=1 / 8x8dct=1 / cqm=0 / deadzone=21,11 / fast_pskip=1 / chroma_qp_offset=0 / threads=12 / lookahead_threads=3 / sliced_threads=0 / nr=0 / decimate=1 / interlaced=0 / bluray_compat=0 / constrained_intra=0 / bframes=16 / b_pyramid=2 / b_adapt=1 / b_bias=0 / direct=1 / weightb=0 / open_gop=0 / weightp=2 / keyint=250 / keyint_min=24 / scenecut=40 / intra_refresh=0 / rc_lookahead=40 / rc=crf / mbtree=1 / crf=15.0 / qcomp=0.60 / qpmin=0 / qpmax=69 / qpstep=4 / ip_ratio=1.40 / aq=1:1.00Default : ДаForced : Нет

АудиоИдентификатор : 2Формат : MPEG AudioВерсия формата : Version 1Профиль формата : Layer 3Режим : Joint stereoРасширение режима : MS StereoИдентификатор кодека : A_MPEG/L3Идентификатор кодека/Подсказка : MP3Продолжительность : 1 ч. 25 м.Вид битрейта : ПостоянныйБитрейт : 128 Кбит/секКаналы : 2 каналаЧастота : 48,0 КГцМетод сжатия : С потерямиРазмер потока : 78,4 Мбайт (1%)Заголовок : Popoz.rg.paravozik.RUSDefault : ДаForced : Нет

piratbit.ru

Скачать фильм Два ствола через торрент в хорошем качестве бесплатно 720p)

ОбщееУникальный идентификатор : 172716675566033834488951029964736911398 (0x81F005908A626A45A323E2769FC55826)Полное имя : E:\Popoz.2015.L.BDRip.720p.mkvФормат : MatroskaВерсия формата : Version 2Размер файла : 4,00 ГбайтПродолжительность : 1 ч. 25 м.Общий поток : 6719 Кбит/секДата кодирования : UTC 2016-02-22 20:19:24Программа кодирования : mkvmerge v7.8.0 ('River Man') 32bit built on Apr 3 2015 12:11:22Библиотека кодирования : libebml v1.3.1 + libmatroska v1.4.2

ВидеоИдентификатор : 1Формат : AVCФормат/Информация : Advanced Video CodecПрофиль формата : [email protected]Параметр CABAC формата : ДаПараметр ReFrames формата : 9 кадровИдентификатор кодека : V_MPEG4/ISO/AVCПродолжительность : 1 ч. 25 м.Битрейт : 5855 Кбит/секШирина : 1280 пикселейВысота : 534 пикселяСоотношение сторон : 2,40:1Режим частоты кадров : ПостоянныйЧастота кадров : 24,000 кадра/секЦветовое пространство : YUVСубдискретизация насыщенности : 4:2:0Битовая глубина : 8 битТип развёртки : ПрогрессивнаяБит/(Пиксели*Кадры) : 0.357Размер потока : 3,41 Гбайт (85%)Библиотека кодирования : x264 core 142 r2431+42 c69a006 tMod [[email protected]:2:0 X86_64]Настройки программы : cabac=1 / ref=9 / deblock=1:-3:-3 / analyse=0x3:0x133 / me=umh / subme=11 / psy=1 / fade_compensate=0.00 / psy_rd=1.05:0.10 / mixed_ref=1 / me_range=32 / chroma_me=1 / trellis=2 / 8x8dct=1 / cqm=0 / deadzone=21,11 / fast_pskip=0 / chroma_qp_offset=-3 / threads=18 / lookahead_threads=3 / sliced_threads=0 / nr=0 / decimate=0 / interlaced=0 / bluray_compat=0 / constrained_intra=0 / fgo=0 / bframes=8 / b_pyramid=2 / b_adapt=2 / b_bias=0 / direct=3 / weightb=1 / open_gop=0 / weightp=2 / keyint=250 / keyint_min=23 / scenecut=40 / intra_refresh=0 / rc_lookahead=80 / rc=2pass / mbtree=1 / bitrate=5855 / ratetol=1.0 / qcomp=0.60 / qpmin=0:0:0 / qpmax=69:69:69 / qpstep=4 / cplxblur=20.0 / qblur=0.5 / ip_ratio=1.40 / aq=1:1.00 / aq-sensitivity=10.00 / aq-factor=1.00:1.00:1.00 / aq2=0 / aq3=0Язык : DutchDefault : ДаForced : Нет

Аудио #1Идентификатор : 2Формат : AC-3Формат/Информация : Audio Coding 3Расширение режима : CM (complete main)Параметр Endianness формата : BigИдентификатор кодека : A_AC3Продолжительность : 1 ч. 25 м.Вид битрейта : ПостоянныйБитрейт : 224 Кбит/секКаналы : 2 каналаРасположение каналов : Front: L RЧастота : 48,0 КГцБитовая глубина : 16 битМетод сжатия : С потерямиРазмер потока : 137 Мбайт (3%)Язык : RussianDefault : ДаForced : Нет

Аудио #2Идентификатор : 3Формат : AC-3Формат/Информация : Audio Coding 3Расширение режима : CM (complete main)Параметр Endianness формата : BigИдентификатор кодека : A_AC3Продолжительность : 1 ч. 25 м.Вид битрейта : ПостоянныйБитрейт : 640 Кбит/секКаналы : 6 каналовРасположение каналов : Front: L C R, Side: L R, LFEЧастота : 48,0 КГцБитовая глубина : 16 битМетод сжатия : С потерямиРазмер потока : 391 Мбайт (10%)Язык : DutchDefault : НетForced : Нет

piratbit.ru

Карты, деньги, два ствола через торрент

ОбщееУникальный идентификатор : 193288986522388585207702695530790606067 (0x916A1ACE096F4CE794CC112E638354F3)Полное имя : D:Lock, Stock and Two Smoking Barrels.1998.BDRip-AVC.mkvФормат : MatroskaВерсия формата : Version 2Размер файла : 2,18 ГбайтПродолжительность : 1 ч. 47 м.Общий поток : 2901 Кбит/секНазвание фильма : Карты, деньги и два ствола / Lock, Stock and Two Smoking Barrels (1998) BDRip-AVC rip by Rulya74Дата кодирования : UTC 2012-08-16 12:25:19Программа кодирования : mkvmerge v5.6.0 ('Kenya Kane') built on May 27 2012 16:44:04Библиотека кодирования : libebml v1.2.3 + libmatroska v1.3.0

ВидеоИдентификатор : 1Формат : AVCФормат/Информация : Advanced Video CodecПрофиль формата : [email protected]Параметр CABAC формата : ДаПараметр ReFrames формата : 12 кадровИдентификатор кодека : V_MPEG4/ISO/AVCПродолжительность : 1 ч. 47 м.Битрейт : 1812 Кбит/секШирина : 1024 пикселяВысота : 554 пикселяСоотношение сторон : 16:9Частота кадров : 23,976 кадра/секЦветовое пространство : YUVСубдискретизация насыщенности : 4:2:0Битовая глубина : 8 битТип развёртки : ПрогрессивнаяБит/(Пиксели*Кадры) : 0.133Размер потока : 1,32 Гбайт (61%)Библиотека кодирования : x264 core 125 r2200 999b753Настройки программы : cabac=1 / ref=12 / deblock=1:-2:-1 / analyse=0x3:0x113 / me=umh / subme=10 / psy=1 / psy_rd=1.00:0.00 / mixed_ref=1 / me_range=36 / chroma_me=1 / trellis=2 / 8x8dct=1 / cqm=0 / deadzone=21,11 / fast_pskip=1 / chroma_qp_offset=-2 / threads=14 / lookahead_threads=2 / sliced_threads=0 / nr=0 / decimate=1 / interlaced=0 / bluray_compat=0 / constrained_intra=0 / bframes=11 / b_pyramid=2 / b_adapt=1 / b_bias=0 / direct=3 / weightb=1 / open_gop=0 / weightp=2 / keyint=240 / keyint_min=23 / scenecut=40 / intra_refresh=0 / rc=2pass / mbtree=0 / bitrate=1812 / ratetol=1.0 / qcomp=0.60 / qpmin=10 / qpmax=51 / qpstep=4 / cplxblur=20.0 / qblur=0.5 / ip_ratio=1.40 / pb_ratio=1.30 / aq=1:1.00Default : ДаForced : Нет

Аудио #1Идентификатор : 2Формат : AC-3Формат/Информация : Audio Coding 3Расширение режима : CM (complete main)Идентификатор кодека : A_AC3Продолжительность : 1 ч. 47 м.Вид битрейта : ПостоянныйБитрейт : 320 Кбит/секКаналы : 6 каналовРасположение каналов : Front: L C R, Side: L R, LFEЧастота : 48,0 КГцБитовая глубина : 16 битМетод сжатия : С потерямиРазмер потока : 246 Мбайт (11%)Заголовок : Многоголосый закадровый (Киномания)Язык : RussianDefault : ДаForced : Нет

Аудио #2Идентификатор : 3Формат : AC-3Формат/Информация : Audio Coding 3Расширение режима : CM (complete main)Идентификатор кодека : A_AC3Продолжительность : 1 ч. 47 м.Вид битрейта : ПостоянныйБитрейт : 320 Кбит/секКаналы : 6 каналовРасположение каналов : Front: L C R, Side: L R, LFEЧастота : 48,0 КГцБитовая глубина : 16 битМетод сжатия : С потерямиРазмер потока : 246 Мбайт (11%)Заголовок : Авторский одноголосый (Гоблин)Язык : RussianDefault : НетForced : Нет

Аудио #3Идентификатор : 4Формат : AC-3Формат/Информация : Audio Coding 3Расширение режима : CM (complete main)Идентификатор кодека : A_AC3Продолжительность : 1 ч. 47 м.Вид битрейта : ПостоянныйБитрейт : 320 Кбит/секКаналы : 6 каналовРасположение каналов : Front: L C R, Side: L R, LFEЧастота : 48,0 КГцБитовая глубина : 16 битМетод сжатия : С потерямиРазмер потока : 246 Мбайт (11%)Заголовок : Двухголосый закадровый ("ТК" Кино)Язык : UkrainianDefault : НетForced : Нет

Аудио #4Идентификатор : 5Формат : AC-3Формат/Информация : Audio Coding 3Расширение режима : CM (complete main)Идентификатор кодека : A_AC3Продолжительность : 1 ч. 47 м.Вид битрейта : ПостоянныйБитрейт : 128 Кбит/секКаналы : 2 каналаРасположение каналов : Front: L RЧастота : 48,0 КГцБитовая глубина : 16 битМетод сжатия : С потерямиРазмер потока : 98,3 Мбайт (4%)Заголовок : ОригиналЯзык : EnglishDefault : НетForced : Нет

Текст #1Идентификатор : 6Формат : UTF-8Идентификатор кодека : S_TEXT/UTF8Идентификатор кодека/Информация : UTF-8 Plain TextЗаголовок : КиноманияЯзык : RussianDefault : НетForced : Нет

Текст #2Идентификатор : 7Формат : UTF-8Идентификатор кодека : S_TEXT/UTF8Идентификатор кодека/Информация : UTF-8 Plain TextЗаголовок : ГоблинЯзык : RussianDefault : НетForced : Нет

Текст #3Идентификатор : 8Формат : UTF-8Идентификатор кодека : S_TEXT/UTF8Идентификатор кодека/Информация : UTF-8 Plain TextЯзык : UkrainianDefault : ДаForced : Нет

Текст #4Идентификатор : 9Формат : UTF-8Идентификатор кодека : S_TEXT/UTF8Идентификатор кодека/Информация : UTF-8 Plain TextЯзык : EnglishDefault : НетForced : Нет

piratbit.ru


Смотрите также