Скачать фильм фантастическая четверка через торрент в хорошем качестве 2015


Скачать торрент Фантастическая четверка / Fantastic Four (2015) HDRip-AVC

«Всё изменится»Информация о фильмеНазвание: Фантастическая четверкаОригинальное название: Fantastic FourГод выхода: 2015Жанр: фантастика, боевик, приключенияРежиссер: Джош ТранкВ ролях: Майлз Теллер, Майкл Б. Джордан, Кейт Мара, Джейми Белл, Тоби Кеббелл, Рег Э. Кэти, Тим Блейк Нельсон, Джошуа Монтес, Дэн Кастелланета, Оуэн Джадж

О фильме: История о четырех молодых астронавтах, которые отважились на авантюрное путешествие в параллельное измерение для исследования аномальной волны космической энергии. Вернувшись из путешествия, они обнаружили у себя суперспособности, которые навсегда изменили их жизни… Страна: СШАПродолжительность: 01:39:58Перевод: Дублированный (лицензия)Субтитры: Русские (форс,полные), Английские

ФайлКодек: x264Качество: HDRip-AVC (Исх | BDRip 1080p)Видео: 912x382 (2,40:1), 23,976 fps, x264 ~968 kbps avg, 0.116 bit/pixelАудио: 48 kHz, AAC-HE, 2 ch, Front: L R ~72 kbps avg

MediaInfo▼

Общее Уникальный идентификатор : 200835605652701848174460168897448701839 (0x971787DAD01438E58192E141CA14EF8F) Полное имя : D:Фантастическая четверка.(2015).HDRip-AVC.mkv Формат : Matroska Версия формата : Version 4 / Version 2 Размер файла : 743 Мбайт Продолжительность : 1 ч. 39 м. Общий поток : 1039 Кбит/сек Название фильма : -=rip by Sergei91=- (TorrentPMR.com) Дата кодирования : UTC 2016-01-28 10:56:56 Программа кодирования : mkvmerge v6.1.0 ('Old Devil') built on Mar 2 2013 14:32:37 Библиотека кодирования : libebml v1.3.0 + libmatroska v1.4.0 Attachements : cover.jpg

Видео Идентификатор : 1 Формат : AVC Формат/Информация : Advanced Video Codec Профиль формата : [email protected] Параметр CABAC формата : Да Параметр ReFrames формата : 13 кадров Идентификатор кодека : V_MPEG4/ISO/AVC Продолжительность : 1 ч. 39 м. Номинальный битрейт : 968 Кбит/сек Ширина : 912 пикселей Высота : 382 пикселя Соотношение сторон : 2,40:1 Режим частоты кадров : Постоянный Частота кадров : 23,976 кадра/сек Цветовое пространство : YUV Субдискретизация насыщенности : 4:2:0 Битовая глубина : 8 бит Тип развёртки : Прогрессивная Бит/(Пиксели*Кадры) : 0.116 Заголовок : Fantastic Four Библиотека кодирования : x264 core 146 r2538 121396c Настройки программы : cabac=1 / ref=13 / deblock=1:-2:-2 / analyse=0x3:0x113 / me=umh / subme=10 / psy=1 / psy_rd=1.00:0.15 / mixed_ref=1 / me_range=32 / chroma_me=1 / trellis=2 / 8x8dct=1 / cqm=0 / deadzone=21,11 / fast_pskip=0 / chroma_qp_offset=-3 / threads=2 / lookahead_threads=1 / sliced_threads=0 / nr=0 / decimate=0 / interlaced=0 / bluray_compat=0 / constrained_intra=0 / bframes=12 / b_pyramid=2 / b_adapt=2 / b_bias=0 / direct=3 / weightb=1 / open_gop=0 / weightp=2 / keyint=240 / keyint_min=23 / scenecut=40 / intra_refresh=0 / rc_lookahead=40 / rc=2pass / mbtree=0 / bitrate=968 / ratetol=1.0 / qcomp=0.60 / qpmin=0 / qpmax=69 / qpstep=4 / cplxblur=20.0 / qblur=0.5 / vbv_maxrate=14000 / vbv_bufsize=14000 / nal_hrd=none / filler=0 / ip_ratio=1.40 / pb_ratio=1.30 / aq=1:1.00 Язык : English Default : Да Forced : Нет

Аудио Идентификатор : 2 Формат : AAC Формат/Информация : Advanced Audio Codec Профиль формата : HE-AAC / LC Идентификатор кодека : A_AAC Продолжительность : 1 ч. 39 м. Каналы : 2 канала Расположение каналов : Front: L R Частота : 48,0 КГц / 24,0 КГц Метод сжатия : С потерями Задержка видео : 31 мс. Заголовок : Дубляж (72,0 Кбит/сек) Язык : Russian Default : Да Forced : Нет

Текст #1 Идентификатор : 3 Формат : UTF-8 Идентификатор кодека : S_TEXT/UTF8 Идентификатор кодека/Информация : UTF-8 Plain Text Заголовок : форсированные Язык : Russian Default : Да Forced : Нет

Текст #2 Идентификатор : 4 Формат : UTF-8 Идентификатор кодека : S_TEXT/UTF8 Идентификатор кодека/Информация : UTF-8 Plain Text Заголовок : Полные Язык : Russian Default : Нет Forced : Нет

Текст #3 Идентификатор : 5 Формат : UTF-8 Идентификатор кодека : S_TEXT/UTF8 Идентификатор кодека/Информация : UTF-8 Plain Text Заголовок : Английские Язык : English Default : Нет Forced : Нет

Меню 00:00:00.000 : :Chapter 01 00:02:30.024 : :Chapter 02 00:07:22.608 : :Chapter 03 00:11:00.159 : :Chapter 04 00:14:59.523 : :Chapter 05 00:17:57.785 : :Chapter 06 00:22:03.321 : :Chapter 07 00:24:44.483 : :Chapter 08 00:27:49.876 : :Chapter 09 00:30:19.776 : :Chapter 10 00:34:56.010 : :Chapter 11 00:38:16.377 : :Chapter 12 00:43:10.087 : :Chapter 13 00:48:16.059 : :Chapter 14 00:51:35.300 : :Chapter 15 00:54:27.055 : :Chapter 16 00:57:18.101 : :Chapter 17 01:00:27.832 : :Chapter 18 01:04:34.912 : :Chapter 19 01:08:04.497 : :Chapter 20 01:12:08.282 : :Chapter 21 01:15:09.963 : :Chapter 22 01:19:10.162 : :Chapter 23 01:22:16.514 : :Chapter 24 01:24:49.542 : :Chapter 25 01:27:01.341 : :Chapter 26 01:30:49.569 : :Chapter 27 01:33:00.449 : :Chapter 28 01:39:58.242 : :Chapter 29

Log x264▼

avs [info]: 912x382p 1:1 @ 2997/125 fps (cfr) x264 [info]: using SAR=1/1 x264 [info]: using cpu capabilities: MMX2 SSE2 SSE3 Cache64 x264 [info]: profile High, level 4.1

x264 [info]: frame I:1434 Avg QP:14.27 size: 43613 x264 [info]: frame P:32550 Avg QP:18.64 size: 10940 x264 [info]: frame B:109836 Avg QP:19.91 size: 2775 x264 [info]: consecutive B-frames: 4.8% 2.7% 7.3% 17.4% 14.5% 32.0% 8.0% 3.8% 1.6% 2.4% 0.9% 1.4% 3.2% x264 [info]: mb I I16..4: 14.9% 59.4% 25.7% x264 [info]: mb P I16..4: 2.8% 9.9% 1.5% P16..4: 38.2% 21.3% 12.2% 0.0% 0.0% skip:14.2% x264 [info]: mb B I16..4: 0.3% 0.7% 0.1% B16..8: 34.4% 8.9% 2.2% direct: 3.1% skip:50.3% L0:44.0% L1:46.1% BI: 9.9% x264 [info]: 8x8 transform intra:67.0% inter:57.7% x264 [info]: direct mvs spatial:96.5% temporal:3.5% x264 [info]: coded y,uvDC,uvAC intra: 69.3% 71.5% 47.6% inter: 12.7% 11.6% 5.0% x264 [info]: i16 v,h,dc,p: 41% 14% 12% 33% x264 [info]: i8 v,h,dc,ddl,ddr,vr,hd,vl,hu: 11% 10% 14% 8% 11% 11% 12% 10% 13% x264 [info]: i4 v,h,dc,ddl,ddr,vr,hd,vl,hu: 13% 12% 6% 9% 13% 13% 13% 10% 13% x264 [info]: i8c dc,h,v,p: 42% 25% 18% 15% x264 [info]: Weighted P-Frames: Y:6.9% UV:4.3% x264 [info]: ref P L0: 48.8% 8.4% 15.8% 6.2% 5.0% 3.5% 3.0% 1.7% 1.8% 1.4% 1.2% 1.1% 1.3% 0.7% 0.0% x264 [info]: ref B L0: 69.2% 13.1% 6.3% 3.1% 2.2% 1.8% 1.4% 0.9% 0.7% 0.7% 0.4% 0.2% x264 [info]: ref B L1: 91.3% 8.7% x264 [info]: kb/s:964.79

x264 [total]: encoded 143820 frames, 2.80 fps, 964.79 kb/s

krutor.org

Скачать фильм Фантастическая четверка через торрент в хорошем качестве бесплатно Фантастическая четверка / Fantastic Four (Джошуа Транк) [2015 г.

Размер: 25.19 GB | Добавлен: 1 год 10 мес. назад | Торрент скачан:9 раз
Реклама Дарим 3000 рублей за регистрацию, не упусти свой шанс получить шикарный бонус!!!

02-12-2015 20:16 Фантастическая четверка Скачать торрент  

Фантастическая четверка / Fantastic Four

Год выпуска: 2015Страна: СШАЖанр: Фантастика, боевик, приключенияПродолжительность: 01:39:58Перевод: Дубляж Лицензия+ Украинский+ ОригиналСубтитры: Русские, английские, украинские

Режиссер: Джошуа Транк

В ролях: Майлз Теллер, Майкл Б. Джордан, Кейт Мара, Джейми Белл, Тоби Кеббелл, Рег Э. Кэти, Тим Блэйк Нельсон, Джошуа Монтес, Дэн Кастелланета, Оуэн Джадж

Описание: История о четырех молодых астронавтах, которые отважились на авантюрное путешествие в параллельное измерение для исследования аномальной волны космической энергии. Вернувшись из путешествия, они обнаружили у себя суперспособности, которые навсегда изменили их жизни…

Качество: BD RemuxФормат: MKVВидео кодек: H.264Видео: MPEG-4 AVC, (1920x1080),30297 Кбит/с, 23.976 кадра/секАудио#1: DTS, 6 ch,768 kbps (Rus) 48.0 KHz Дублированный (Лицензия)Аудио#2: AC3, 6 ch,448 kbps (Ukr) 48.0 KHz УкраинскийАудио#3: DTS, 6 ch,1509 kbps (Eng) 48.0 KHz Оригинал

Тип потока: ВидеоДлительность: 01:39:58Кодек: AVCКодек/описание: Advanced Video CodecКодек/профиль: [email protected]Кодек/ID: V_MPEG4/ISO/AVCКодек/CABAC: YesКодек/ReFrames: 4 framesРазмеры изображения: 1920 x 1080 (16:9)Частота кадров: 23.976 fpsЧастота кадров/тип: ConstantБитрейт/макс: 33.0 MbpsБитрейт/тип: VBRЦветовое пространство: YUVТип развёртки: ProgressiveКолориметрия: 4:2:0Глубина: 8 bits: Тип потока: Звук #1Язык: RussianНазвание: Blu-ray EURДлительность: 01:39:58.517Кодек: DTSКодек/описание: Digital Theater SystemsКодек/ID: A_DTSЧастота дискретизации: 48.0 KHzКаналов: 6 channelsБитрейт: 768 KbpsБитрейт/тип: ConstantРазмер потока: 549 MiB (2%)Глубина: 24 bitsМетод сжатия: Lossy: Тип потока: Звук #2Язык: UkrainianНазвание: Blu-ray EURДлительность: 01:39:58.517Кодек: AC-3Кодек/описание: Audio Coding 3Кодек/ID: A_AC3Частота дискретизации: 48.0 KHzКаналов: 6 channelsБитрейт: 448 KbpsБитрейт/тип: ConstantРазмер потока: 320 MiB (1%)Глубина: 16 bitsМетод сжатия: Lossy: Тип потока: Звук #3Язык: EnglishДлительность: 01:39:58.517Кодек: DTSКодек/описание: Digital Theater SystemsКодек/профиль: MA / CoreКодек/ID: A_DTSЧастота дискретизации: 48.0 KHzКаналов: 8 channels / 6 channelsБитрейт: Unknown / 1 509 KbpsБитрейт/тип: VariableГлубина: 24 bitsМетод сжатия: Lossless / Lossy: Тип потока: Субтитры #1Язык: RussianФормат: UTF-8Формат/подробно: UTF-8 Plain TextНазвание: Forced, iTunes: Тип потока: Субтитры #2Язык: RussianФормат: UTF-8Формат/подробно: UTF-8 Plain TextНазвание: iTunes: Тип потока: Субтитры #3Язык: UkrainianФормат: UTF-8Формат/подробно: UTF-8 Plain TextНазвание: iTunes: Тип потока: Субтитры #4Язык: EnglishФормат: UTF-8Формат/подробно: UTF-8 Plain Text: Тип потока: Субтитры #5Язык: EnglishФормат: UTF-8Формат/подробно: UTF-8 Plain TextНазвание: SDH

Скачать Фантастическая четверка через торрент http://pic1.pb.wtf/images/10/88547.jpg Скачать фильм Фантастическая четверка через торрент бесплантно в хорошем качестве Описание: История о четырех молодых астронавтах, которые отважились на авантюрное путешествие в параллельное измерение для исследования ... 2015-12-02 20:16 10 10 2

Loading...

Loading...

% Раздел Тема Автор DL S | L
# Фильмы (HD 720p, 1080p) (48-60 fps) [ 7.27 GB ] Фантастическая четверка / Fantastic Four [2005 BDRip 720p 60 FPS Amantaigo Скачать
Фильмы 2015 [DVDrip, WEB-DLRip, HDrip] [ 1.44 GB ] Фантастическая четверка / Fantastic Four [2015 Германия BDRip-AVC от sokol_ok] DUB sokol_ok Скачать
Фильмы [HD 720p, 1080p] (Хороший звук DUB, MVO) [ 4.28 GB ] Фантастическая четверка / Fantastic Four [2015 BDRip 720p] DUB potroks Скачать
Фильмы 2015 [DVDrip, WEB-DLRip, HDrip] [ 2.17 GB ] Фантастическая четверка / Fantastic Four [2015 Германия BDRip-AVC от sokol_ok] DUB sokol_ok Скачать
Фильмы (Blu-ray, BD-Remux, HDDVD) [ 42.41 GB ] Фантастическая четверка / Fantastic Four [2015 Blu-Ray ] Russian Mafia Скачать
Фильмы 2015 [DVDrip, WEB-DLRip, HDrip] [ 1.46 GB ] Фантастическая четверка / Fantastic Four [2015 BDRip-AVC] DUB potroks Скачать
Фильмы 2015 [DVDrip, WEB-DLRip, HDrip] [ 2.18 GB ] Фантастическая четверка / Fantastic Four [2015 BDRip-AVC] DUB potroks Скачать

Рекламный пират

Дорогой пользователь! Огромная просьба, поблагодарите релизера, оцените раздачу и оставьте свои комментарий, если Вы скачали Фантастическая четверка через торрент бесплатно! Внесите свою лепту в развитие PiratBit!

Комментировать посты могут только пользователи прошедшие не сложную регистрацию

Фантастическая четверка через торрент Скачать бесплатно Фантастическая четверка Фантастическая четверка скачать торрент Фантастическая четверка смотреть онлайн Cкачать фильм Фантастическая четверка бесплатно Фантастическая четверка скачать торрент в хорошем качестве Фантастическая четверка смотреть онлайн бесплатно в хорошем качестве

Вы не можете начинать темыВы не можете отвечать на сообщенияВы не можете редактировать свои сообщенияВы не можете удалять свои сообщенияВы не можете голосовать в опросахВы не можете прикреплять файлы к сообщениямВы можете скачивать файлы

piratbit.ru

Скачать фильм Фантастическая четверка через торрент в хорошем качестве бесплатно 720p от potroks

GeneralUnique ID                   : 214869249743756558911098648289139590866 (0xA1A64FEDB65A0900A7C72E63A17986D2)Complete name               : Fantasticheskaya.Chetverka.2015.TRIPLE.BDRip.x264.-HELLYWOOD.mkvFormat                      : MatroskaFormat version              : Version 4 / Version 2File size                   : 4.28 GiBDuration                    : 1h 39mnOverall bit rate            : 6 126 KbpsMovie name                  :  Fantastic Four (2015) - HELLYWOODEncoded date                : UTC 2010-02-22 21:41:31Writing application         : mkvmerge v5.8.0 ('No Sleep / Pillow') built on Sep 30 2012 10:57:14Writing library             : libebml v1.3.0 + libmatroska v1.4.0

VideoID                          : 1Format                      : AVCFormat/Info                 : Advanced Video CodecFormat profile              : [email protected] settings, CABAC      : YesFormat settings, ReFrames   : 9 framesCodec ID                    : V_MPEG4/ISO/AVCDuration                    : 1h 39mnBit rate                    : 4 270 KbpsWidth                       : 1 280 pixelsHeight                      : 536 pixelsDisplay aspect ratio        : 2.40:1Frame rate mode             : ConstantFrame rate                  : 23.976 fpsColor space                 : YUVChroma subsampling          : 4:2:0Bit depth                   : 8 bitsScan type                   : ProgressiveBits/(Pixel*Frame)          : 0.260Stream size                 : 2.90 GiB (68%)Title                       : potroksWriting library             : x264 core 146 r2538 121396cEncoding settings           : cabac=1 / ref=9 / deblock=1:-3:-3 / analyse=0x3:0x113 / me=umh / subme=11 / psy=1 / psy_rd=1.00:0.05 / mixed_ref=1 / me_range=48 / chroma_me=1 / trellis=2 / 8x8dct=1 / cqm=0 / deadzone=21,11 / fast_pskip=0 / chroma_qp_offset=-3 / threads=9 / lookahead_threads=2 / sliced_threads=0 / nr=0 / decimate=0 / interlaced=0 / bluray_compat=0 / constrained_intra=0 / bframes=10 / b_pyramid=2 / b_adapt=2 / b_bias=0 / direct=3 / weightb=1 / open_gop=0 / weightp=2 / keyint=240 / keyint_min=23 / scenecut=40 / intra_refresh=0 / rc_lookahead=60 / rc=2pass / mbtree=0 / bitrate=4270 / ratetol=1.0 / qcomp=0.70 / qpmin=0 / qpmax=69 / qpstep=4 / cplxblur=20.0 / qblur=0.5 / vbv_maxrate=14000 / vbv_bufsize=14000 / nal_hrd=none / filler=0 / ip_ratio=1.40 / pb_ratio=1.30 / aq=1:0.80Language                    : EnglishDefault                     : YesForced                      : No

Audio #1ID                          : 2Format                      : DTSFormat/Info                 : Digital Theater SystemsMode                        : 16Format settings, Endianness : BigCodec ID                    : A_DTSDuration                    : 1h 39mnBit rate mode               : ConstantBit rate                    : 768 KbpsChannel(s)                  : 6 channelsChannel positions           : Front: L C R, Side: L R, LFESampling rate               : 48.0 KHzFrame rate                  : 93.750 fps (512 spf)Bit depth                   : 24 bitsCompression mode            : LossyStream size                 : 549 MiB (13%)Title                       : Dub | DTS 5.1 @ 768 kbps - Blu-Ray CEELanguage                    : RussianDefault                     : YesForced                      : No

Audio #2ID                          : 3Format                      : AC-3Format/Info                 : Audio Coding 3Mode extension              : CM (complete main)Format settings, Endianness : BigCodec ID                    : A_AC3Duration                    : 1h 39mnBit rate mode               : ConstantBit rate                    : 448 KbpsChannel(s)                  : 6 channelsChannel positions           : Front: L C R, Side: L R, LFESampling rate               : 48.0 KHzFrame rate                  : 31.250 fps (1536 spf)Compression mode            : LossyStream size                 : 320 MiB (7%)Title                       : Dub | DD 5.1 @ 448 kbps - Blu-Ray CEELanguage                    : UkrainianDefault                     : NoForced                      : No

Audio #3ID                          : 4Format                      : AC-3Format/Info                 : Audio Coding 3Mode extension              : CM (complete main)Format settings, Endianness : BigCodec ID                    : A_AC3Duration                    : 1h 39mnBit rate mode               : ConstantBit rate                    : 640 KbpsChannel(s)                  : 6 channelsChannel positions           : Front: L C R, Side: L R, LFESampling rate               : 48.0 KHzFrame rate                  : 31.250 fps (1536 spf)Compression mode            : LossyStream size                 : 458 MiB (10%)Title                       : Original | DD 5.1 @ 640 kbpsLanguage                    : EnglishDefault                     : NoForced                      : No

Text #1ID                          : 5Format                      : UTF-8Codec ID                    : S_TEXT/UTF8Codec ID/Info               : UTF-8 Plain TextTitle                       : ForcedLanguage                    : RussianDefault                     : YesForced                      : No

Text #2ID                          : 6Format                      : UTF-8Codec ID                    : S_TEXT/UTF8Codec ID/Info               : UTF-8 Plain TextTitle                       : iTunesLanguage                    : RussianDefault                     : NoForced                      : No

Text #3ID                          : 7Format                      : UTF-8Codec ID                    : S_TEXT/UTF8Codec ID/Info               : UTF-8 Plain TextTitle                       : ForcedLanguage                    : UkrainianDefault                     : NoForced                      : No

Text #4ID                          : 8Format                      : UTF-8Codec ID                    : S_TEXT/UTF8Codec ID/Info               : UTF-8 Plain TextTitle                       : iTunesLanguage                    : UkrainianDefault                     : NoForced                      : No

Text #5ID                          : 9Format                      : UTF-8Codec ID                    : S_TEXT/UTF8Codec ID/Info               : UTF-8 Plain TextTitle                       : FullLanguage                    : EnglishDefault                     : NoForced                      : No

Text #6ID                          : 10Format                      : UTF-8Codec ID                    : S_TEXT/UTF8Codec ID/Info               : UTF-8 Plain TextTitle                       : SDHLanguage                    : EnglishDefault                     : NoForced                      : No

Text #7ID                          : 11Format                      : UTF-8Codec ID                    : S_TEXT/UTF8Codec ID/Info               : UTF-8 Plain TextTitle                       : SDH-ColoredLanguage                    : EnglishDefault                     : NoForced                      : No

Menu00:00:00.000                : en:(01)00:00:00:00000:02:30.024                : en:(02)00:02:30:02400:07:22.608                : en:(03)00:07:22:60800:11:00.159                : en:(04)00:11:00:15900:14:59.523                : en:(05)00:14:59:52300:17:57.785                : en:(06)00:17:57:78500:22:03.322                : en:(07)00:22:03:32200:24:44.483                : en:(08)00:24:44:48300:27:49.876                : en:(09)00:27:49:87600:30:19.776                : en:(10)00:30:19:77600:34:56.010                : en:(11)00:34:56:01000:38:16.377                : en:(12)00:38:16:37700:43:10.087                : en:(13)00:43:10:08700:48:16.059                : en:(14)00:48:16:05900:51:35.300                : en:(15)00:51:35:30000:54:27.055                : en:(16)00:54:27:05500:57:18.101                : en:(17)00:57:18:10101:00:27.832                : en:(18)01:00:27:83201:04:34.912                : en:(19)01:04:34:91201:08:04.497                : en:(20)01:08:04:49701:12:08.282                : en:(21)01:12:08:28201:15:09.963                : en:(22)01:15:09:96301:19:10.162                : en:(23)01:19:10:16201:22:16.514                : en:(24)01:22:16:51401:24:49.542                : en:(25)01:24:49:54201:27:01.341                : en:(26)01:27:01:34101:30:49.569                : en:(27)01:30:49:56901:33:00.449                : en:(28)01:33:00:449

piratbit.ru

Скачать фильм Фантастическая четверка через торрент в хорошем качестве бесплатно BDRip от Twi7ter

Размер: 1.46 GB | Добавлен: 1 год 10 мес. назад | Торрент скачан:198 раз
Реклама Дарим 3000 рублей за регистрацию, не упусти свой шанс получить шикарный бонус!!!

21-11-2015 13:46 Фантастическая четверка Скачать торрент  

Фантастическая четверка / Fantastic Four

«Всё изменится»

Год выпуска: 2015Страна: США, Германия, Великобритания, КанадаЖанр: фантастика, боевик, приключенияПродолжительность: 01:39:58Перевод: Профессиональный (полное дублирование) [Лицензия Blu-ray EUR]Субтитры: НетРежиссер: Джош Транк / Josh TrankВ ролях: Майлз Теллер (Reed Richards), Майкл Б. Джордан (Johnny Storm), Кейт Мара (Sue Storm), Джейми Белл (Ben Grimm / The Thing), Тоби Кеббелл (Victor Von Doom / Dr. Doom), Рег Э. Кэти (Dr. Franklin Storm), Тим Блейк Нельсон (Dr. Allen), Джошуа Монтес (Quarterback Speech School Kid), Дэн Кастелланета (Mr. Kenny), Оуэн Джадж (Young Reed), Кайлен Дэвис (Teasing School Kid), Ивэн Ханнеманн (Young Ben)Описание: История о четырех молодых астронавтах, которые отважились на авантюрное путешествие в параллельное измерение для исследования аномальной волны космической энергии. Вернувшись из путешествия, они обнаружили у себя суперспособности, которые навсегда изменили их жизни...Рейтинг:

MPAA: PG-13 - Детям до 13 лет просмотр не желателен

Качество: BDRip | исх. FANTASTIC_FOUR_2015_REMUX_HDCLUB |Формат: AVIВидео кодек: XviDАудио кодек: AC3Видео: 720x304 (2.37:1), 23.976 fps, XviD build 73 ~1635 kbps avg, 0.31 bit/pixelАудио: 48 kHz, AC3 Dolby Digital, 3/2 (L,C,R,l,r) + LFE ch, ~448 kbps

Релиз: & MegaPeer

Скачать Фантастическая четверка через торрент http://s018.radikal.ru/i520/1511/80/473a689e7f13.png Скачать фильм Фантастическая четверка через торрент бесплантно в хорошем качестве Описание: История о четырех молодых астронавтах, которые отважились на авантюрное путешествие в параллельное измерение для исследования ... 2015-12-02 14:13 9.1 10 15

Loading...

Loading...

% Раздел Тема Автор DL S | L
Фильмы 2015 [DVDrip, WEB-DLRip, HDrip] [ 1.44 GB ] Фантастическая четверка / Fantastic Four [2015 Германия BDRip-AVC от sokol_ok] DUB sokol_ok Скачать
Фильмы [HD 720p, 1080p] (Хороший звук DUB, MVO) [ 4.28 GB ] Фантастическая четверка / Fantastic Four [2015 BDRip 720p] DUB potroks Скачать
Фильмы 2015 [DVDrip, WEB-DLRip, HDrip] [ 2.17 GB ] Фантастическая четверка / Fantastic Four [2015 Германия BDRip-AVC от sokol_ok] DUB sokol_ok Скачать
Фильмы 2015 [DVDrip, WEB-DLRip, HDrip] [ 1.46 GB ] Фантастическая четверка / Fantastic Four [2015 BDRip-AVC] DUB potroks Скачать
Фильмы 2015 [DVDrip, WEB-DLRip, HDrip] [ 2.18 GB ] Фантастическая четверка / Fantastic Four [2015 BDRip-AVC] DUB potroks Скачать

Последний раз редактировалось: Twi7ter (2015-12-02 14:23), всего редактировалось 1 раз

Рекламный пират

02-12-2015 14:22 Фантастическая четверка Скачать торрент  

Замена на Лицензию!

Дорогой пользователь! Огромная просьба, поблагодарите релизера, оцените раздачу и оставьте свои комментарий, если Вы скачали Фантастическая четверка через торрент бесплатно! Внесите свою лепту в развитие PiratBit!

Комментировать посты могут только пользователи прошедшие не сложную регистрацию

Фантастическая четверка через торрент Скачать бесплатно Фантастическая четверка Фантастическая четверка скачать торрент Фантастическая четверка смотреть онлайн Cкачать фильм Фантастическая четверка бесплатно Фантастическая четверка скачать торрент в хорошем качестве Фантастическая четверка смотреть онлайн бесплатно в хорошем качестве

Вы не можете начинать темыВы не можете отвечать на сообщенияВы не можете редактировать свои сообщенияВы не можете удалять свои сообщенияВы не можете голосовать в опросахВы не можете прикреплять файлы к сообщениямВы можете скачивать файлы

piratbit.ru

Скачать фильм Фантастическая четверка через торрент в хорошем качестве бесплатно BDRip-AVC от potroks

GeneralUnique ID                                : 178959273041559791435622041806439681212 (0x86A24D621171F5DB8A30B06A72938CBC)Complete name                            : N:\Фантастика\Fantasticheskaya.Chetverka.2015.RUS.BDRip.x264.-HELLYWOOD.mkvFormat                                   : MatroskaFormat version                           : Version 4 / Version 2File size                                : 1.46 GiBDuration                                 : 1h 39mnOverall bit rate                         : 2 093 KbpsMovie name                               :  Fantastic Four (2015) - HELLYWOODEncoded date                             : UTC 2010-02-22 21:41:31Writing application                      : mkvmerge v5.8.0 ('No Sleep / Pillow') built on Sep 30 2012 10:57:14Writing library                          : libebml v1.3.0 + libmatroska v1.4.0

VideoID                                       : 1Format                                   : AVCFormat/Info                              : Advanced Video CodecFormat profile                           : [email protected] settings, CABAC                   : YesFormat settings, ReFrames                : 11 framesCodec ID                                 : V_MPEG4/ISO/AVCDuration                                 : 1h 39mnBit rate                                 : 1 707 KbpsWidth                                    : 1 032 pixelsHeight                                   : 432 pixelsDisplay aspect ratio                     : 2.40:1Frame rate                               : 23.976 fpsColor space                              : YUVChroma subsampling                       : 4:2:0Bit depth                                : 8 bitsScan type                                : ProgressiveBits/(Pixel*Frame)                       : 0.160Stream size                              : 1.16 GiB (80%)Writing library                          : x264 core 146 r2538 121396cEncoding settings                        : cabac=1 / ref=11 / deblock=1:-2:-2 / analyse=0x3:0x113 / me=umh / subme=11 / psy=1 / psy_rd=1.04:0.09 / mixed_ref=1 / me_range=48 / chroma_me=1 / trellis=2 / 8x8dct=1 / cqm=0 / deadzone=21,11 / fast_pskip=0 / chroma_qp_offset=-3 / threads=9 / lookahead_threads=2 / sliced_threads=0 / nr=0 / decimate=0 / interlaced=0 / bluray_compat=0 / constrained_intra=0 / bframes=12 / b_pyramid=2 / b_adapt=2 / b_bias=0 / direct=3 / weightb=1 / open_gop=0 / weightp=2 / keyint=250 / keyint_min=23 / scenecut=40 / intra_refresh=0 / rc_lookahead=60 / rc=2pass / mbtree=0 / bitrate=1707 / ratetol=1.0 / qcomp=0.70 / qpmin=0 / qpmax=69 / qpstep=4 / cplxblur=20.0 / qblur=0.5 / vbv_maxrate=14000 / vbv_bufsize=14000 / nal_hrd=none / filler=0 / ip_ratio=1.35 / pb_ratio=1.25 / aq=1:0.80Language                                 : EnglishDefault                                  : YesForced                                   : No

AudioID                                       : 2Format                                   : AC-3Format/Info                              : Audio Coding 3Mode extension                           : CM (complete main)Codec ID                                 : A_AC3Duration                                 : 1h 39mnBit rate mode                            : ConstantBit rate                                 : 384 KbpsChannel(s)                               : 6 channelsChannel positions                        : Front: L C R, Side: L R, LFESampling rate                            : 48.0 KHzBit depth                                : 16 bitsCompression mode                         : LossyStream size                              : 275 MiB (18%)Title                                    : Dub | DD 5.1 @ 384 kbps - iTunesLanguage                                 : RussianDefault                                  : YesForced                                   : No

Text #1ID                                       : 3Format                                   : UTF-8Codec ID                                 : S_TEXT/UTF8Codec ID/Info                            : UTF-8 Plain TextTitle                                    : ForcedLanguage                                 : RussianDefault                                  : YesForced                                   : No

Text #2ID                                       : 4Format                                   : UTF-8Codec ID                                 : S_TEXT/UTF8Codec ID/Info                            : UTF-8 Plain TextTitle                                    : iTunesLanguage                                 : RussianDefault                                  : NoForced                                   : No

Menu00:00:00.000                             : en:(01)00:00:00:00000:02:30.024                             : en:(02)00:02:30:02400:07:22.608                             : en:(03)00:07:22:60800:11:00.159                             : en:(04)00:11:00:15900:14:59.523                             : en:(05)00:14:59:52300:17:57.785                             : en:(06)00:17:57:78500:22:03.322                             : en:(07)00:22:03:32200:24:44.483                             : en:(08)00:24:44:48300:27:49.876                             : en:(09)00:27:49:87600:30:19.776                             : en:(10)00:30:19:77600:34:56.010                             : en:(11)00:34:56:01000:38:16.377                             : en:(12)00:38:16:37700:43:10.087                             : en:(13)00:43:10:08700:48:16.059                             : en:(14)00:48:16:05900:51:35.300                             : en:(15)00:51:35:30000:54:27.055                             : en:(16)00:54:27:05500:57:18.101                             : en:(17)00:57:18:10101:00:27.832                             : en:(18)01:00:27:83201:04:34.912                             : en:(19)01:04:34:91201:08:04.497                             : en:(20)01:08:04:49701:12:08.282                             : en:(21)01:12:08:28201:15:09.963                             : en:(22)01:15:09:96301:19:10.162                             : en:(23)01:19:10:16201:22:16.514                             : en:(24)01:22:16:51401:24:49.542                             : en:(25)01:24:49:54201:27:01.341                             : en:(26)01:27:01:34101:30:49.569                             : en:(27)01:30:49:56901:33:00.449                             : en:(28)01:33:00:449

piratbit.ru


Смотрите также