Скачать фильм гостья из будущего через торрент в хорошем качестве бесплатно


Гостья из будущего (1984) DVDRip скачать торрент в хорошем качестве

Информация о фильмеНазвание: Гостья из будущегоГод выхода: 1984Жанр: Фантастика, приключения, семейный, экранизацияРежиссер: Павел АрсеновВ ролях: Наталья Гусева (I), Алексей Фомкин, Илья Наумов, Вячеслав Невинный ст., Михаил Кононов, Евгений Герасимов, Владимир Носик, Юрий Григорьев (II), Игорь Ясулович, Георгий Бурков, Валентина Талызина, Вячеслав Баранов, Наталья Варлей, Андрей Градов, Елена Цыплакова, Борис Щербаков, Светлана Харитонова, Людмила Аринина, Татьяна Божок, Мария Скворцова, Инна Гомес, Марьяна Ионесян, Елена Метёлкина, Мария Стерникова, Екатерина Васильева (II), Антон Суховерко, Семён Бузган, Алексей Муравьев, Екатерина Авербах, Елена Коляскина, Мария Баукина, Наталья Шанаева, Рубен Симонов, Сергей Рошинец, Раднэр Муратов, Манефа Соболевская

О фильме: 13 апреля 1984 года, в пятницу, ученик 6-го «Б» класса 20-й московской школы Коля Герасимов, отправившись после уроков в магазин за кефиром, встречает на оживлённой улице друга и одноклассника Фиму Королёва, который, в свою очередь, увлекает его слежкой за таинственной незнакомкой. Выслеживая её, ребята забираются в старый заброшенный двухэтажный дом, но незнакомки там не оказывается. В подвале, в потайной комнате, вход в которую замаскирован под обычный шкаф и закрыт подвижной кирпичной стеной, Коля обнаруживает машину времени. Борьба с космическими пиратами, захватывающее путешествие во времени, знакомство с роботом Вертером, говорящим козлом и девочкой из будущего Алисой Селезневой - вот к чему привел Колю обычный поход за кефиром. Фильм поставлен по мотивам фантастического романа Кира Булычева «Сто лет тому вперед»...

Страна: СССРСтудия: Киностудия им. М. ГорькогоПродолжительность: 01:03:28 + 01:03:51 + 01:03:11 + 01:03:28 + 01:03:11Перевод: не требуется

ФайлКодек: h.264Качество: DVDRipВидео: MPEG-4 AVC, 720x536, 4500 Кбит/с, 25.000 кадр/сЗвук: Аудио #1: Русский ( AC3, 6ch, 448 Кбит/с, 48.0 KHz)Субтитры: русскиеСемпл

GeneralUnique ID : 176225326510826770585564701534878057267 (0x8493C36981D6FECB806A6DE6214A4333)Complete name : Gostya_1984.DVDRip-AVC Format : MatroskaFormat version : Version 4 / Version 2File size : 2.19 GiBDuration : 1 h 3 minOverall bit rate : 4 951 kb/sEncoded date : UTC 2017-06-03 09:44:01Writing application : mkvmerge v7.8.0 ('River Man') 64bit built on Mar 27 2015 16:31:37Writing library : libebml v1.3.1 + libmatroska v1.4.2

VideoID : 1Format : AVCFormat/Info : Advanced Video CodecFormat profile : [email protected] settings, CABAC : YesFormat settings, ReFrames : 12 framesCodec ID : V_MPEG4/ISO/AVCDuration : 1 h 3 minBit rate : 4 500 kb/sWidth : 720 pixelsHeight : 536 pixelsDisplay aspect ratio : 4:3Frame rate mode : ConstantFrame rate : 25.000 FPSColor space : YUVChroma subsampling : 4:2:0Bit depth : 8 bitsScan type : ProgressiveBits/(Pixel*Frame) : 0.466Stream size : 2.00 GiB (91%)Title : Video-h364Writing library : x264 core 146 r2538 121396cEncoding settings : cabac=1 / ref=12 / deblock=1:-3:-3 / analyse=0x3:0x133 / me=umh / subme=11 / psy=1 / psy_rd=1.00:0.00 / mixed_ref=1 / me_range=32 / chroma_me=1 / trellis=2 / 8x8dct=1 / cqm=0 / deadzone=21,11 / fast_pskip=1 / chroma_qp_offset=-2 / threads=6 / lookahead_threads=1 / sliced_threads=0 / nr=0 / decimate=1 / interlaced=0 / bluray_compat=0 / constrained_intra=0 / bframes=10 / b_pyramid=2 / b_adapt=2 / b_bias=0 / direct=3 / weightb=1 / open_gop=0 / weightp=2 / keyint=250 / keyint_min=23 / scenecut=40 / intra_refresh=0 / rc_lookahead=60 / rc=2pass / mbtree=1 / bitrate=4500 / ratetol=1.0 / qcomp=0.60 / qpmin=0 / qpmax=69 / qpstep=4 / cplxblur=20.0 / qblur=0.5 / ip_ratio=1.40 / aq=1:1.00Language : RussianDefault : YesForced : No

AudioID : 2Format : AC-3Format/Info : Audio Coding 3Mode extension : CM (complete main)Format settings, Endianness : BigCodec ID : A_AC3Duration : 1 h 3 minBit rate mode : ConstantBit rate : 448 kb/sChannel(s) : 6 channelsChannel positions : Front: L C R, Side: L R, LFESampling rate : 48.0 kHzFrame rate : 31.250 FPS (1536 spf)Bit depth : 16 bitsCompression mode : LossyStream size : 203 MiB (9%)Language : RussianDefault : YesForced : No

TextID : 3Format : UTF-8Codec ID : S_TEXT/UTF8Codec ID/Info : UTF-8 Plain TextDuration : 58 min 58 sBit rate : 47 b/sCount of elements : 370Stream size : 20.6 KiB (0%)Language : RussianDefault : NoForced : No

24 42 5-06-2017, 11:30 10.97 GB Связанные раздачи

rutorg2.ru

Гостья из будущего [1984 детский фильм научная DVDRip] скачать через торрент

Размер: 3.63 GB | Добавлен: 6 лет 9 мес. назад | Торрент скачан:546 раз
Реклама Дарим 3000 рублей за регистрацию, не упусти свой шанс получить шикарный бонус!!!

10-01-2011 13:08 Гостья из будущего Скачать торрент  

Гостья из будущего (5 серий из 5)Год выпуска: 1984Страна: СССРЖанр: детский фильм, научная фантастика, приключения, фэнтезиПродолжительность: 01:03:28 + 01:03:51 + 01:03:11 + 01:03:28 + 01:03:11Перевод: Не требуется

Режиссер: Павел АрсеновСценарий: Павел Арсенов, Кир Булычёв

Премьера в мире: 25 марта 1985 (ТВ)

В ролях: Наталья Гусева, Алексей Фомкин, Илья Наумов, Вячеслав Невинный, Михаил Кононов, Марьяна (Марианна) Ионесян, Елена Метелкина, Евгений Герасимов, Владимир Носик, Юрий Григорьев (II), Игорь Ясулович, Георгий Бурков, Валентина Талызина, Мария Стерникова, Людмила Аринина, Татьяна Божок, Екатерина Васильева (II), Антон Суховерко, Семён Бузган, Алексей Муравьёв, Екатерина Авербах, Елена Коляскина, Мария Баукина, Наталья Шанаева, Вячеслав Баранов, Наталья Варлей, Андрей Градов, Елена Цыплакова, Борис Щербаков, Рубен Симонов (II)

Описание: Борьба с космическими пиратами, захватывающее путешествие во времени, знакомство с девочкой из будущего Алисой Селезневой - вот к чему привел обычный поход за кефиром мальчика Колю из 6 - Б класса. Фильм поставлен по мотивам фантастического романа Кира Булычева "Сто лет тому вперед".Качество: DVDRipФормат: AVIВидео кодек: XviDАудио кодек: MP3 Видео: MPEG4, XviD, 640x480 (4/3), 25.000 fps, 1 501 Kbps (0.195 bit/pixel)Аудио: MP3 , 48.0 KHz, 2 ch, 128 Kbps, CBRРелиз от: ALL Films

Скачать Гостья из будущего через торрент http://i4.imageban.ru/out/2011/01/10/1a5f8854254680259bd41106a0b296d3.jpg Скачать фильм Гостья из будущего через торрент бесплантно в хорошем качестве Описание: Борьба с космическими пиратами, захватывающее путешествие во времени, знакомство с девочкой из будущего Алисой Селезневой - вот к ... 2011-01-10 13:08 9.2 10 13

Loading...

Loading...

Рекламный пират

10-01-2011 15:30 Гостья из будущего Скачать торрент  

Фильм детства!!!Супер!!!

Дорогой пользователь! Огромная просьба, поблагодарите релизера, оцените раздачу и оставьте свои комментарий, если Вы скачали Гостья из будущего через торрент бесплатно! Внесите свою лепту в развитие PiratBit!

Комментировать посты могут только пользователи прошедшие не сложную регистрацию

Гостья из будущего через торрент Скачать бесплатно Гостья из будущего Гостья из будущего скачать торрент Гостья из будущего смотреть онлайн Cкачать фильм Гостья из будущего бесплатно Гостья из будущего скачать торрент в хорошем качестве Гостья из будущего смотреть онлайн бесплатно в хорошем качестве

Вы не можете начинать темыВы не можете отвечать на сообщенияВы не можете редактировать свои сообщенияВы не можете удалять свои сообщенияВы не можете голосовать в опросахВы не можете прикреплять файлы к сообщениямВы можете скачивать файлы

piratbit.ru

Гостья из будущего [1984 2xDVD9] скачать через торрент

Title: 2Size: 6.47 Gb ( 6 785 646,00 KBytes ) - DVD-9Enabled regions: 1, 2, 3, 4, 5, 6, 7, 8

VTS_01 :  Play Length: 00:00:13  Video: PAL 4:3 (720x576) VBR  Audio:      Not specified (Dolby AC3, 6 ch)

VTS_02 :  Play Length: 01:03:28  Video: PAL 4:3 (720x576) VBR  Audio:      Russian (Dolby AC3, 6 ch)  Subtitles:      Russian

VTS_03 :  Play Length: 01:03:11  Video: PAL 4:3 (720x576) VBR  Audio:      Russian (Dolby AC3, 6 ch)  Subtitles:      Russian

VTS_04 :  Play Length: 00:02:08  Video: PAL 16:9 (720x576) VBR, Auto Letterboxed  Audio:      Not specified (Dolby AC3, 6 ch)

VTS_05 :  Play Length: 00:07:20  Video: PAL 4:3 (720x576) VBR  Audio:      Russian (Dolby AC3, 2 ch)

VTS_06 :  Play Length: 00:09:11  Video: PAL 4:3 (720x576) VBR  Audio:      Russian (Dolby AC3, 2 ch)

VTS_07 :  Play Length: 00:10:04  Video: PAL 4:3 (720x576) VBR  Audio:      Russian (Dolby AC3, 2 ch)

VTS_08 :  Play Length: 00:02:42  Video: PAL 4:3 (720x576) VBR  Audio:      Russian (Dolby AC3, 2 ch)

VTS_09 :  Play Length: 00:00:48  Video: PAL 4:3 (720x576) VBR  Audio:      Russian (Dolby AC3, 6 ch)

VTS_10 :  Play Length: 00:01:14  Video: PAL 4:3 (720x576) VBR  Audio:      Russian (Dolby AC3, 6 ch)

VTS_11 :  Play Length: 00:00:50  Video: PAL 4:3 (720x576) VBR  Audio:      Russian (Dolby AC3, 6 ch)

VTS_12 :  Play Length: 00:01:28  Video: PAL 4:3 (720x576) VBR  Audio:      Russian (Dolby AC3, 6 ch)

VTS_13 :  Play Length: 00:01:09  Video: PAL 4:3 (720x576) VBR  Audio:      Russian (Dolby AC3, 6 ch)

VTS_14 :  Play Length: 00:03:05  Video: PAL 4:3 (720x576) VBR  Audio:      Russian (Dolby AC3, 6 ch)

VTS_15 :  Play Length: 00:00:43  Video: PAL 4:3 (720x576) VBR  Audio:      Russian (Dolby AC3, 6 ch)

VTS_16 :  Play Length: 00:00:14  Video: PAL 4:3 (720x576) VBR  Audio:      Russian (Dolby AC3, 6 ch)

VTS_17 :  Play Length: 00:00:09  Video: PAL 4:3 (720x576) VBR  Audio:      Russian (Dolby AC3, 6 ch)

VTS_18 :  Play Length: 00:00:13  Video: PAL 4:3 (720x576) VBR  Audio:      Russian (Dolby AC3, 6 ch)

VTS_19 :  Play Length: 00:00:24  Video: PAL 4:3 (720x576) VBR  Audio:      Russian (Dolby AC3, 6 ch)

VTS_20 :  Play Length: 00:00:15  Video: PAL 4:3 (720x576) VBR  Audio:      Russian (Dolby AC3, 6 ch)

VTS_21 :  Play Length: 00:01:36  Video: PAL 4:3 (720x576) VBR  Audio:      Russian (Dolby AC3, 6 ch)

VTS_22 :  Play Length: 00:00:07  Video: PAL 4:3 (720x576) VBR  Audio:      Russian (Dolby AC3, 6 ch)

VTS_23 :  Play Length: 00:00:02  Video: PAL 4:3 (720x576) VBR  Audio:      Russian (Dolby AC3, 6 ch)

VTS_24 :  Play Length: 00:00:39  Video: PAL 4:3 (720x576) VBR  Audio:      Russian (Dolby AC3, 6 ch)

VTS_25 :  Play Length: 00:00:48  Video: PAL 4:3 (720x576) VBR  Audio:      Russian (Dolby AC3, 6 ch)

* Menus Information *

VIDEO_TS MenuVideo:      PAL 4:3 (720x576) VBREnglish Language Unit :      Title Menu

VTS_01 MenuVideo:      PAL 4:3 (720x576) VBRAudio:      Not specified (Dolby AC3, 2 ch)English Language Unit :      Root Menu

VTS_02 MenuVideo:      PAL 4:3 (720x576) VBREnglish Language Unit :      Root Menu

VTS_03 MenuVideo:      PAL 4:3 (720x576) VBREnglish Language Unit :      Root Menu

VTS_04 MenuVideo:      PAL 4:3 (720x576) VBREnglish Language Unit :      Root Menu

VTS_05 MenuVideo:      PAL 4:3 (720x576) VBREnglish Language Unit :      Root Menu

VTS_06 MenuVideo:      PAL 4:3 (720x576) VBREnglish Language Unit :      Root Menu

VTS_07 MenuVideo:      PAL 4:3 (720x576) VBREnglish Language Unit :      Root Menu

VTS_08 MenuVideo:      PAL 4:3 (720x576) VBREnglish Language Unit :      Root Menu

VTS_09 MenuVideo:      PAL 4:3 (720x576) VBREnglish Language Unit :      Root Menu

VTS_10 MenuVideo:      PAL 4:3 (720x576) VBREnglish Language Unit :      Root Menu

VTS_11 MenuVideo:      PAL 4:3 (720x576) VBREnglish Language Unit :      Root Menu

VTS_12 MenuVideo:      PAL 4:3 (720x576) VBREnglish Language Unit :      Root Menu

VTS_13 MenuVideo:      PAL 4:3 (720x576) VBREnglish Language Unit :      Root Menu

VTS_14 MenuVideo:      PAL 4:3 (720x576) VBREnglish Language Unit :      Root Menu

VTS_15 MenuVideo:      PAL 4:3 (720x576) VBREnglish Language Unit :      Root Menu

VTS_16 MenuVideo:      PAL 4:3 (720x576) VBREnglish Language Unit :      Root Menu

VTS_17 MenuVideo:      PAL 4:3 (720x576) VBREnglish Language Unit :      Root Menu

VTS_18 MenuVideo:      PAL 4:3 (720x576) VBREnglish Language Unit :      Root Menu

VTS_19 MenuVideo:      PAL 4:3 (720x576) VBREnglish Language Unit :      Root Menu

VTS_20 MenuVideo:      PAL 4:3 (720x576) VBREnglish Language Unit :      Root Menu

VTS_21 MenuVideo:      PAL 4:3 (720x576) VBREnglish Language Unit :      Root Menu

VTS_22 MenuVideo:      PAL 4:3 (720x576) VBREnglish Language Unit :      Root Menu

VTS_23 MenuVideo:      PAL 4:3 (720x576) VBREnglish Language Unit :      Root Menu

VTS_24 MenuVideo:      PAL 4:3 (720x576) VBREnglish Language Unit :      Root Menu

VTS_25 MenuVideo:      PAL 4:3 (720x576) VBREnglish Language Unit :      Root Menu

piratbit.ru

Гостья из будущего / Серии 1

Размер: 5 GB | Добавлен: 2 года 2 мес. назад | Торрент скачан:91 раз
Реклама Дарим 3000 рублей за регистрацию, не упусти свой шанс получить шикарный бонус!!!

28-07-2015 13:41 Гостья из будущего Скачать торрент  

Гостья из будущего Страна: СССР / Студия Горького, Гостелерадио

Жанр: фантастика, триллер, драма, мелодрама, приключения, семейныйГод выпуска: 1984Продолжительность: 01:03:30 / серия

Перевод: Не требуетсяCубтитры: русские от RUSCICO, русские от Твиттера, английскиеОригинальная аудиодорожка: русский

Режиссер: Павел Арсенов

В ролях: Наталья Гусева, Алексей Фомкин, Илья Наумов, Вячеслав Невинный, Михаил Кононов, Марьяна (Марианна) Ионесян, Елена Метелкина, Евгений Герасимов, Владимир Носик, Юрий Григорьев, Игорь Ясулович, Георгий Бурков, Валентина Талызина, Мария Стерникова, Людмила Аринина, Татьяна Божок, Екатерина Васильева, Антон Суховерко, Семён Бузган, Алексей Муравьёв, Екатерина Авербах, Елена Коляскина, Мария Баукина, Наталья Шанаева, Вячеслав Баранов, Наталья Варлей, Андрей Градов, Елена Цыплакова, Борис Щербаков, Рубен Симонов

Роли дублировали: Татьяна Дасковская, Михаил Кокшенов

Описание: 13 апреля 1984 года, в пятницу, ученик 6-го «Б» класса 20-й московской школы Коля Герасимов, отправившись после уроков в магазин за кефиром, встречает на оживлённой улице друга и одноклассника Фиму Королёва, который, в свою очередь, увлекает его слежкой за таинственной незнакомкой. Выслеживая её, ребята забираются в старый заброшенный двухэтажный дом, но незнакомки там не оказывается. В подвале, в потайной комнате, вход в которую замаскирован под обычный шкаф и закрыт подвижной кирпичной стеной, Коля обнаруживает машину времени. Борьба с космическими пиратами, захватывающее путешествие во времени, знакомство с роботом Вертером, говорящим козлом и девочкой из будущего Алисой Селезневой - вот к чему привел Колю обычный поход за кефиром. Фильм поставлен по мотивам фантастического романа Кира Булычева «Сто лет тому вперед».

Качество: DVDRip / 2 х DVD9 R5 - полная реставрация изображения и звука от RUSCICO.

Формат: AVIВидео кодек: XviDАудио кодек: АС3Видео: 720x544 (4:3), 25.000 fps, XviD ~ 1800 kbps avg, 0.184 bit/pixelАудио: 48 kHz, Dolby AC3, 6 ch, 448 kbpsФормат субтитров: SoftSub (srt)

О релизе: Я бы скорее всего не взялся за эту работу, если бы на дисках не было русских субтитров, я даже включил в раздачу двое русских субтитров, от RUSCICO и от Твиттера . Наши издатели фильмов практически никогда не думают о глухих людях, поэтому те и смотрят в основном не наши фильмы. В данном случае большой респект издателю!!!

Раздача от:

GeneralFormat : AVIFormat/Info : Audio Video InterleaveFile size : 1 022 MiBDuration : 1h 3mnOverall bit rate : 2 256 KbpsWriting application : VirtualDubMod 1.5.10.3 | www.virtualdub-fr.org || (build 2550/release)Writing library : VirtualDubMod build 2550/release

VideoID : 0Format : MPEG-4 VisualFormat profile : Advanced [email protected] settings, BVOP : 1Format settings, QPel : NoFormat settings, GMC : No warppointsFormat settings, Matrix : CustomCodec ID : XVIDCodec ID/Hint : XviDDuration : 1h 3mnBit rate : 1 798 KbpsWidth : 720 pixelsHeight : 544 pixelsDisplay aspect ratio : 4:3Frame rate : 25.000 fpsColor space : YUVChroma subsampling : 4:2:0Bit depth : 8 bitsScan type : ProgressiveCompression mode : LossyBits/(Pixel*Frame) : 0.184Stream size : 815 MiB (80%)Writing library : XviD 73

AudioID : 1Format : AC-3Format/Info : Audio Coding 3Mode extension : CM (complete main)Format settings, Endianness : BigCodec ID : 2000Duration : 1h 3mnBit rate mode : ConstantBit rate : 448 KbpsChannel(s) : 6 channelsChannel positions : Front: L C R, Side: L R, LFESampling rate : 48.0 KHzBit depth : 16 bitsCompression mode : LossyStream size : 203 MiB (20%)Alignment : Split accross interleavesInterleave, duration : 40 ms (1.00 video frame)Interleave, preload duration : 500 ms

Видео: ссылка это сравнение первых серий релизов. Особенного отличия нет, просто картинка у меня помягче и кое-где почётче. Но в том релизе нет никаких субтитров! Скачать Гостья из будущего через торрент http://s018.radikal.ru/i500/1507/cf/61c3f2fa9cf3.jpg Скачать фильм Гостья из будущего через торрент бесплантно в хорошем качестве Описание: 13 апреля 1984 года, в пятницу, ученик 6-го «Б» класса 20-й московской школы Коля Герасимов, отправившись после уроков в магазин ... 2015-07-28 13:41 9.9 10 28

Loading...

Loading...

Последний раз редактировалось: keeper.52 (2015-07-30 09:54), всего редактировалось 2 раз(а)

Рекламный пират

28-07-2015 14:23 Гостья из будущего Скачать торрент  

что за олень этому суперфильму 9 баллов поставил! капец!

28-07-2015 14:23 Гостья из будущего Скачать торрент  

вот бы в блюрей посмотреть 1080р !

02-08-2015 15:56 Гостья из будущего Скачать торрент  

02-04-2016 12:56 Гостья из будущего Скачать торрент  

классика советского кино

Дорогой пользователь! Огромная просьба, поблагодарите релизера, оцените раздачу и оставьте свои комментарий, если Вы скачали Гостья из будущего через торрент бесплатно! Внесите свою лепту в развитие PiratBit!

Комментировать посты могут только пользователи прошедшие не сложную регистрацию

Гостья из будущего через торрент Скачать бесплатно Гостья из будущего Гостья из будущего скачать торрент Гостья из будущего смотреть онлайн Cкачать фильм Гостья из будущего бесплатно Гостья из будущего скачать торрент в хорошем качестве Гостья из будущего смотреть онлайн бесплатно в хорошем качестве

Вы не можете начинать темыВы не можете отвечать на сообщенияВы не можете редактировать свои сообщенияВы не можете удалять свои сообщенияВы не можете голосовать в опросахВы не можете прикреплять файлы к сообщениямВы можете скачивать файлы

piratbit.ru

Гостья из будущего [1984 DVDRip-AVC] скачать через торрент

Размер: 4.3 GB | Добавлен: 3 года 5 мес. назад | Торрент скачан:170 раз
Реклама Дарим 3000 рублей за регистрацию, не упусти свой шанс получить шикарный бонус!!!

09-05-2014 15:30 Гостья из будущего Скачать торрент  

Гостья из будущего

Год выпуска: 1984Страна: СССРЖанр: фантастика, драма, мелодрама, приключения, семейныйПродолжительность: 01:03:28 + 01:03:51 + 01:03:11 + 01:03:28 + 01:03:11Субтитры: русские

Режиссер: Павел АрсеновСценарий: Павел Арсенов, Кир Булычёв

Премьера в мире: 25 марта 1985

В ролях: Наташа Гусева, Алеша Фомкин, Илюша Наумов, Вячеслав Невинный, Михаил Кононов, Елена Метелкина, Евгений Герасимов, Владимир Носик, Игорь Ясулович, Владимир Харитонов, Елена Перова, Андрей Жиров, Елена Цыплакова, Марьяна Ионесян, Вячеслав Баранов, Наталья Варлей, Мария Стерникова, Татьяна Божок, Екатерина Васильева, Андрей Градов, Георгий Бурков, Валентина Талызина, Людмила Аринина, Юрий Григорьев, Борис Щербаков, Рубен Симонов

Описание: Борьба с космическими пиратами, захватывающее путешествие во времени, знакомство с девочкой из будущего Алисой Селезневой — вот к чему привел обычный поход за кефиром мальчика Колю из 6 — Б класса. Фильм поставлен по мотивам фантастического романа Кира Булычева «Сто лет тому вперед».

Качество: DVDRip-AVCФормат: MKVВидео кодек: H.264Аудио кодек: AC3Видео: серия 1: 720x544 (1.324:1), 25.000 fps, 1 455 kbps, 0.149 bits/(pixel*frame)серия 2: 720x544 (1.324:1), 25.000 fps, 1 444 kbps, 0.147 bits/(pixel*frame)серия 3: 720x544 (1.324:1), 25.000 fps, 1 464 kbps, 0.149 bits/(pixel*frame)серия 4: 720x544 (1.324:1), 25.000 fps, 1 455 kbps, 0.149 bits/(pixel*frame)серия 5: 720x544 (1.324:1), 25.000 fps, 1 464 kbps, 0.149 bits/(pixel*frame)Аудио: для всех серий: AC3, 48.0 KHz, 6 channels (Front: L C R, Surround: L R, LFE), 448 Kbps, CBRАвтор рипа: Alex_LON

General- Name : GiB_s1.mkv- Format : Matroska- File size : 881 MiB- Duration : 1h 3mn- Overall bit rate : 1 941 Kbps- Encoded date : UTC 2011-07-30 17:07:57- Writing application : mkvmerge v2.1.0 ('Another Place To Fall') built on Aug 19 2007 13:40:07- Writing library : libebml v0.7.7 + libmatroska v0.8.1Video #1- ID : 1- Format : AVC- Format/Info : Advanced Video Codec- Format profile : [email protected] Format settings, CABAC : Yes- Format settings, ReFrames : 4 frames- Muxing mode : Container [email protected] Codec ID : V_MPEG4/ISO/AVC- Duration : 1h 3mn- Bit rate : 1 455 Kbps- Nominal bit rate : 1 490 Kbps- Width : 720 pixels- Height : 544 pixels- Display aspect ratio : 4:3- Frame rate : 25.000 fps- Resolution : 24 bits- Colorimetry : 4:2:0- Scan type : Progressive- Bits/(Pixel*Frame) : 0.149- Stream size : 660 MiB (75%)- Title : video- Writing library : x264 core 115 r1995 c1e60b9- Encoding settings : cabac=1 / ref=3 / deblock=1:-1:-1 / analyse=0x3:0x113 / me=umh / subme=7 // psy=1 / psy_rd=1.00:0.15 / mixed_ref=1 / me_range=32 / chroma_me=1 / trellis=1 / 8x8dct=1 // cqm=0 / deadzone=21,11 / fast_pskip=1 / chroma_qp_offset=-3 / threads=6 / sliced_threads=0 // nr=0 / decimate=1 / interlaced=0 / bluray_compat=0 / constrained_intra=0 / bframes=3 // b_pyramid=2 / b_adapt=1 / b_bias=0 / direct=1 / weightb=1 / open_gop=0 / weightp=2 // keyint=250 / keyint_min=25 / scenecut=40 / intra_refresh=0 / rc_lookahead=40 / rc=2pass // mbtree=1 / bitrate=1490 / ratetol=1.0 / qcomp=0.60 / qpmin=0 / qpmax=69 / qpstep=4 // cplxblur=20.0 / qblur=0.5 / vbv_maxrate=17500 / vbv_bufsize=14000 / nal_hrd=none // ip_ratio=1.40 / aq=1:1.00Audio #2- ID : 2- Format : AC-3- Format/Info : Audio Coding 3- Codec ID : A_AC3- Duration : 1h 3mn- Bit rate mode : Constant- Bit rate : 448 Kbps- Channel(s) : 6 channels- Channel positions : Front: L C R, Surround: L R, LFE- Sampling rate : 48.0 KHz- Stream size : 203 MiB (23%)- Title : sound- Language : RussianText #3- ID : 3- Format : UTF-8- Codec ID : S_TEXT/UTF8- Codec ID/Info : UTF-8 Plain Text- Title : sub- Language : Russian

General- Name : GiB_s2.mkv- Format : Matroska- File size : 882 MiB- Duration : 1h 3mn- Overall bit rate : 1 930 Kbps- Encoded date : UTC 2011-07-30 17:10:33- Writing application : mkvmerge v2.1.0 ('Another Place To Fall') built on Aug 19 2007 13:40:07- Writing library : libebml v0.7.7 + libmatroska v0.8.1Video #1- ID : 1- Format : AVC- Format/Info : Advanced Video Codec- Format profile : [email protected] Format settings, CABAC : Yes- Format settings, ReFrames : 4 frames- Muxing mode : Container [email protected] Codec ID : V_MPEG4/ISO/AVC- Duration : 1h 3mn- Bit rate : 1 444 Kbps- Nominal bit rate : 1 479 Kbps- Width : 720 pixels- Height : 544 pixels- Display aspect ratio : 4:3- Frame rate : 25.000 fps- Resolution : 24 bits- Colorimetry : 4:2:0- Scan type : Progressive- Bits/(Pixel*Frame) : 0.147- Stream size : 660 MiB (75%)- Title : video- Writing library : x264 core 115 r1995 c1e60b9- Encoding settings : cabac=1 / ref=3 / deblock=1:-1:-1 / analyse=0x3:0x113 / me=umh / subme=7 // psy=1 / psy_rd=1.00:0.15 / mixed_ref=1 / me_range=32 / chroma_me=1 / trellis=1 / 8x8dct=1 // cqm=0 / deadzone=21,11 / fast_pskip=1 / chroma_qp_offset=-3 / threads=6 / sliced_threads=0 // nr=0 / decimate=1 / interlaced=0 / bluray_compat=0 / constrained_intra=0 / bframes=3 // b_pyramid=2 / b_adapt=1 / b_bias=0 / direct=1 / weightb=1 / open_gop=0 / weightp=2 // keyint=250 / keyint_min=25 / scenecut=40 / intra_refresh=0 / rc_lookahead=40 / rc=2pass // mbtree=1 / bitrate=1479 / ratetol=1.0 / qcomp=0.60 / qpmin=0 / qpmax=69 / qpstep=4 // cplxblur=20.0 / qblur=0.5 / vbv_maxrate=17500 / vbv_bufsize=14000 / nal_hrd=none // ip_ratio=1.40 / aq=1:1.00Audio #2- ID : 2- Format : AC-3- Format/Info : Audio Coding 3- Codec ID : A_AC3- Duration : 1h 3mn- Bit rate mode : Constant- Bit rate : 448 Kbps- Channel(s) : 6 channels- Channel positions : Front: L C R, Surround: L R, LFE- Sampling rate : 48.0 KHz- Stream size : 205 MiB (23%)- Title : sound- Language : RussianText #3- ID : 3- Format : UTF-8- Codec ID : S_TEXT/UTF8- Codec ID/Info : UTF-8 Plain Text- Title : sub- Language : Russian

General- Name : GiB_s3.mkv- Format : Matroska- File size : 882 MiB- Duration : 1h 3mn- Overall bit rate : 1 951 Kbps- Encoded date : UTC 2011-07-30 17:13:08- Writing application : mkvmerge v2.1.0 ('Another Place To Fall') built on Aug 19 2007 13:40:07- Writing library : libebml v0.7.7 + libmatroska v0.8.1Video #1- ID : 1- Format : AVC- Format/Info : Advanced Video Codec- Format profile : [email protected] Format settings, CABAC : Yes- Format settings, ReFrames : 4 frames- Muxing mode : Container [email protected] Codec ID : V_MPEG4/ISO/AVC- Duration : 1h 3mn- Bit rate : 1 464 Kbps- Nominal bit rate : 1 499 Kbps- Width : 720 pixels- Height : 544 pixels- Display aspect ratio : 4:3- Frame rate : 25.000 fps- Resolution : 24 bits- Colorimetry : 4:2:0- Scan type : Progressive- Bits/(Pixel*Frame) : 0.149- Stream size : 662 MiB (75%)- Title : video- Writing library : x264 core 115 r1995 c1e60b9- Encoding settings : cabac=1 / ref=3 / deblock=1:-1:-1 / analyse=0x3:0x113 / me=umh / subme=7 // psy=1 / psy_rd=1.00:0.15 / mixed_ref=1 / me_range=32 / chroma_me=1 / trellis=1 / 8x8dct=1 // cqm=0 / deadzone=21,11 / fast_pskip=1 / chroma_qp_offset=-3 / threads=6 / sliced_threads=0 // nr=0 / decimate=1 / interlaced=0 / bluray_compat=0 / constrained_intra=0 / bframes=3 // b_pyramid=2 / b_adapt=1 / b_bias=0 / direct=1 / weightb=1 / open_gop=0 / weightp=2 // keyint=250 / keyint_min=25 / scenecut=40 / intra_refresh=0 / rc_lookahead=40 / rc=2pass // mbtree=1 / bitrate=1499 / ratetol=1.0 / qcomp=0.60 / qpmin=0 / qpmax=69 / qpstep=4 // cplxblur=20.0 / qblur=0.5 / vbv_maxrate=17500 / vbv_bufsize=14000 / nal_hrd=none // ip_ratio=1.40 / aq=1:1.00Audio #2- ID : 2- Format : AC-3- Format/Info : Audio Coding 3- Codec ID : A_AC3- Duration : 1h 3mn- Bit rate mode : Constant- Bit rate : 448 Kbps- Channel(s) : 6 channels- Channel positions : Front: L C R, Surround: L R, LFE- Sampling rate : 48.0 KHz- Stream size : 202 MiB (23%)- Title : sound- Language : RussianText #3- ID : 3- Format : UTF-8- Codec ID : S_TEXT/UTF8- Codec ID/Info : UTF-8 Plain Text- Title : sub- Language : Russian

General- Name : GiB_s4.mkv- Format : Matroska- File size : 881 MiB- Duration : 1h 3mn- Overall bit rate : 1 942 Kbps- Encoded date : UTC 2011-07-30 17:15:55- Writing application : mkvmerge v2.1.0 ('Another Place To Fall') built on Aug 19 2007 13:40:07- Writing library : libebml v0.7.7 + libmatroska v0.8.1Video #1- ID : 1- Format : AVC- Format/Info : Advanced Video Codec- Format profile : [email protected] Format settings, CABAC : Yes- Format settings, ReFrames : 4 frames- Muxing mode : Container [email protected] Codec ID : V_MPEG4/ISO/AVC- Duration : 1h 3mn- Bit rate : 1 455 Kbps- Nominal bit rate : 1 490 Kbps- Width : 720 pixels- Height : 544 pixels- Display aspect ratio : 4:3- Frame rate : 25.000 fps- Resolution : 24 bits- Colorimetry : 4:2:0- Scan type : Progressive- Bits/(Pixel*Frame) : 0.149- Stream size : 661 MiB (75%)- Title : video- Writing library : x264 core 115 r1995 c1e60b9- Encoding settings : cabac=1 / ref=3 / deblock=1:-1:-1 / analyse=0x3:0x113 / me=umh / subme=7 // psy=1 / psy_rd=1.00:0.15 / mixed_ref=1 / me_range=32 / chroma_me=1 / trellis=1 / 8x8dct=1 // cqm=0 / deadzone=21,11 / fast_pskip=1 / chroma_qp_offset=-3 / threads=6 / sliced_threads=0 // nr=0 / decimate=1 / interlaced=0 / bluray_compat=0 / constrained_intra=0 / bframes=3 // b_pyramid=2 / b_adapt=1 / b_bias=0 / direct=1 / weightb=1 / open_gop=0 / weightp=2 // keyint=250 / keyint_min=25 / scenecut=40 / intra_refresh=0 / rc_lookahead=40 / rc=2pass // mbtree=1 / bitrate=1490 / ratetol=1.0 / qcomp=0.60 / qpmin=0 / qpmax=69 / qpstep=4 // cplxblur=20.0 / qblur=0.5 / vbv_maxrate=17500 / vbv_bufsize=14000 / nal_hrd=none // ip_ratio=1.40 / aq=1:1.00Audio #2- ID : 2- Format : AC-3- Format/Info : Audio Coding 3- Codec ID : A_AC3- Duration : 1h 3mn- Bit rate mode : Constant- Bit rate : 448 Kbps- Channel(s) : 6 channels- Channel positions : Front: L C R, Surround: L R, LFE- Sampling rate : 48.0 KHz- Stream size : 203 MiB (23%)- Title : sound- Language : RussianText #3- ID : 3- Format : UTF-8- Codec ID : S_TEXT/UTF8- Codec ID/Info : UTF-8 Plain Text- Title : sub- Language : Russian

General- Name : GiB_s5.mkv- Format : Matroska- File size : 882 MiB- Duration : 1h 3mn- Overall bit rate : 1 951 Kbps- Encoded date : UTC 2011-07-30 17:18:25- Writing application : mkvmerge v2.1.0 ('Another Place To Fall') built on Aug 19 2007 13:40:07- Writing library : libebml v0.7.7 + libmatroska v0.8.1Video #1- ID : 1- Format : AVC- Format/Info : Advanced Video Codec- Format profile : [email protected] Format settings, CABAC : Yes- Format settings, ReFrames : 4 frames- Muxing mode : Container [email protected] Codec ID : V_MPEG4/ISO/AVC- Duration : 1h 3mn- Bit rate : 1 464 Kbps- Nominal bit rate : 1 499 Kbps- Width : 720 pixels- Height : 544 pixels- Display aspect ratio : 4:3- Frame rate : 25.000 fps- Resolution : 24 bits- Colorimetry : 4:2:0- Scan type : Progressive- Bits/(Pixel*Frame) : 0.149- Stream size : 662 MiB (75%)- Title : video- Writing library : x264 core 115 r1995 c1e60b9- Encoding settings : cabac=1 / ref=3 / deblock=1:-1:-1 / analyse=0x3:0x113 / me=umh / subme=7 // psy=1 / psy_rd=1.00:0.15 / mixed_ref=1 / me_range=32 / chroma_me=1 / trellis=1 / 8x8dct=1 // cqm=0 / deadzone=21,11 / fast_pskip=1 / chroma_qp_offset=-3 / threads=6 / sliced_threads=0 // nr=0 / decimate=1 / interlaced=0 / bluray_compat=0 / constrained_intra=0 / bframes=3 // b_pyramid=2 / b_adapt=1 / b_bias=0 / direct=1 / weightb=1 / open_gop=0 / weightp=2 // keyint=250 / keyint_min=25 / scenecut=40 / intra_refresh=0 / rc_lookahead=40 / rc=2pass // mbtree=1 / bitrate=1499 / ratetol=1.0 / qcomp=0.60 / qpmin=0 / qpmax=69 / qpstep=4 // cplxblur=20.0 / qblur=0.5 / vbv_maxrate=17500 / vbv_bufsize=14000 / nal_hrd=none // ip_ratio=1.40 / aq=1:1.00Audio #2- ID : 2- Format : AC-3- Format/Info : Audio Coding 3- Codec ID : A_AC3- Duration : 1h 3mn- Bit rate mode : Constant- Bit rate : 448 Kbps- Channel(s) : 6 channels- Channel positions : Front: L C R, Surround: L R, LFE- Sampling rate : 48.0 KHz- Stream size : 202 MiB (23%)- Title : sound- Language : RussianText #3- ID : 3- Format : UTF-8- Codec ID : S_TEXT/UTF8- Codec ID/Info : UTF-8 Plain Text- Title : sub- Language : Russian

Скачать Гостья из будущего через торрент http://i62.fastpic.ru/big/2014/0509/82/e9b66a13745aff61ce88e0a5d51a7682.gif Скачать фильм Гостья из будущего через торрент бесплантно в хорошем качестве Описание: Борьба с космическими пиратами, захватывающее путешествие во времени, знакомство с девочкой из будущего Алисой Селезневой — вот к ... 2014-05-09 15:30 10 10 23

Loading...

Loading...

Последний раз редактировалось: -Lexx- (2014-05-09 19:44), всего редактировалось 1 раз

Рекламный пират

09-05-2014 17:29 Гостья из будущего Скачать торрент  

Фильм - Супер!!!

09-05-2014 17:43 Гостья из будущего Скачать торрент  

Спасибо за фильм детства!

09-05-2014 17:52 Гостья из будущего Скачать торрент  

Azazel писал(а):

Фильм - Супер!!!

Валис писал(а):

Спасибо за фильм детства!

Приятного просмотра! :this:

09-05-2014 18:08 Гостья из будущего Скачать торрент  

Когда скачал фильм, заинтересовался дальнейшей судьбой актеров. Может быть, кому-то тоже будет интересно:1. Наташа Гусева (Алиса Селезнёва) в школьные годы после «Гостьи из будущего» снялась ещё в 3 фильмах, по разным причинам не имевших, однако, такого большого успеха у зрителей, как «Гостья из будущего». После школы, по причине своего давнего увлечения биологией, артистической карьере уверенно и осознанно предпочла профессию биохимика. Окончила Московский Институт Тонкой Химической Технологии им. М. В. Ломоносова. Из телеинтервью Наталии Мурашкевич (Гусевой) известно, что по профессии она является биохимиком и работает начальником производства иммунобиологических препаратов в научном институте. В 2008 году озвучила роль капитана космического корабля в полнометражном детском мультфильме «День рождения Алисы». Снялась в эпизодической роли телеведущей Ирины в пятой серии («Лицо») второго сезона телесериала «Литейный», вышедшей на телеэкран в 2009 году.

2. Коля Герасимов (Алексей Фомкин, фильм “Гостья из будущего”) был неблагополучным подростком уже во время съёмок в «Гостье из будущего». Снялся в роли второго плана в фильме «Повод». Принял участие в съёмках нескольких выпусков киножурнала «Ералаш». По окончании школы в 1986 году не смог получить аттестат зрелости. В 1987 году снялся ещё в одном фильме. Из-за полугодового отсутствия предложений о съёмках ушёл в армию. После демобилизации устроился работать в МХАТ, но через 3 месяца был уволен за прогулы. Работал маляром на стройке, но был уволен и оттуда. Начались проблемы с алкоголем. А потом Алексей уехал в деревню Безводное Владимирской области, где отдыхал в детстве. Работал мельником, затем женился и переехал к супруге во Владимир. 23 февраля 1996 года Фомкин с женой отмечали у друзей праздник, и ночью случился пожар. Спящий Алексей задохнулся в дыму. Похоронили его под Владимиром.

3. Марьяна Ионесян (Юля Грибкова) больше не снималась. Окончила философский факультет МГУ, эмигрировала в США, работает бизнес-консультантом.

4. Илья Наумов (Фима Королёв) все такой же упитанный, работает в строительной отрасли.

5. Вячеслав Невинный (Весельчак У) стал Народным артистом СССР (1986). Продолжал озвучивать мультфильмы (до 1991) и сниматься в кино (до 2003 года), в частности, в 1987 году снялся в фильме «Лиловый шар» в роли Громозеки. В 2005 году из-за осложнения диабета перенёс ампутацию стопы левой ноги, а в 2006 — ампутацию правой ноги. 31 мая 2009 года скончался на 75-м году жизни в своей московской квартире.

6. Михаил Кононов (Крыс) после 1990-го года снимался всё реже, негативно отзывался о состоянии современного российского кинематографа. Умер 16 июля 2007 года от сердечного приступа, забытый друзьями и коллегами, в полной нищете.

7. Евгений Герасимов (робот Вертер), актёр и режиссёр, много снимался в фильмах, и сам снимал фильмы как до, так и после «Гостьи из будущего». По состоянию на 2010 год депутат Московской гордумы, и. о. главы Союза Кинематографистов России. Член политсовета Московской организации партии «Единая Россия».

8. Елена Метёлкина (Полина) работает менеджером по работе с клиентами в образовательном центре.

9. Коля Садовский (Семен Бузган). Экранный остряк и умник после школы поступил в МАДИ, но не окончил институт. Уехал в Израиль, там работал на русском радио, был рекламным агентом. Сейчас – продавец в магазине электротоваров. Любит фантастику и шансон.

10. Боря Мессерер (Алексей Муравьев). Будущий знаменитый (по предсказанию Алисы) художник в жизни занимается историей христианского Востока, пишет научные книги. Воспитывает детей, увлекается классической музыкой.

09-05-2014 18:58 Гостья из будущего Скачать торрент  

09-05-2014 19:46 Гостья из будущего Скачать торрент  

Azazel, Благодарю!

14-05-2014 14:55 Гостья из будущего Скачать торрент  

SmiKSV, спасибо за рассказ о дальнейшей судьбе актеров. Тронуло. Особенно в контексте главной песни из фильма...

22-05-2014 18:42 Гостья из будущего Скачать торрент  

дааа каждое лето его смотрю! Скоро вот опять планирую)

Pекламный агент PB

19-09-2014 06:16 Гостья из будущего Скачать торрент  

Спасибо за филь это фильм моего детства очень благодарен за релиз

Дорогой пользователь! Огромная просьба, поблагодарите релизера, оцените раздачу и оставьте свои комментарий, если Вы скачали Гостья из будущего через торрент бесплатно! Внесите свою лепту в развитие PiratBit!

Комментировать посты могут только пользователи прошедшие не сложную регистрацию

Гостья из будущего через торрент Скачать бесплатно Гостья из будущего Гостья из будущего скачать торрент Гостья из будущего смотреть онлайн Cкачать фильм Гостья из будущего бесплатно Гостья из будущего скачать торрент в хорошем качестве Гостья из будущего смотреть онлайн бесплатно в хорошем качестве

Вы не можете начинать темыВы не можете отвечать на сообщенияВы не можете редактировать свои сообщенияВы не можете удалять свои сообщенияВы не можете голосовать в опросахВы не можете прикреплять файлы к сообщениямВы можете скачивать файлы

piratbit.ru


Смотрите также