Скачать фильм груз через торрент в хорошем качестве бесплатно


Скачать фильм Груз (2009) через торрент

12 мая 2016 11:47 Груз / Cargo (2009) BDRip-AVC от Rulya74 .torrent   [Информация о файле (нажмите для просмотра)] Перевод: Профессиональный (многоголосый закадровый) TB3Кодек: x.264Качество: BDRip-AVCВидео: 1024x432 (2,40:1), 23,976 fps, 1565 kbps, 0.148 bit/pixelЗвук: 48 kHz, AC3 Dolby Digital, 2 ch, ~192.00 kbpsСубтитры: Русские, Английские (отключаемые)Видео: Идентификатор : 1 Формат : AVC Формат/Информация : Advanced Video Codec Профиль формата : [email protected] Параметр CABAC формата : Да Параметр ReFrames формата : 8 кадров Идентификатор кодека : V_MPEG4/ISO/AVC Продолжительность : 1 ч. 51 м. Битрейт : 1565 Кбит/сек Ширина : 1024 пикселя Высота : 432 пикселя Соотношение сторон : 2,40:1 Режим частоты кадров : Постоянный Частота кадров : 23,976 кадра/сек Цветовое пространство : YUV Субдискретизация насыщенности : 4:2:0 Битовая глубина : 8 бит Тип развёртки : Прогрессивная Бит/(Пиксели*Кадры) : 0.148 Размер потока : 1,20 Гбайт (87%) Библиотека кодирования : x264 core 130 r2273 b3065e6 Настройки программы : cabac=1 / ref=8 / deblock=1:-1:-1 / analyse=0x3:0x2 / me=umh / subme=11 / psy=1 / psy_rd=1.00:0.06 / mixed_ref=1 / me_range=48 / chroma_me=1 / trellis=2 / 8x8dct=1 / cqm=0 / deadzone=21,11 / fast_pskip=0 / chroma_qp_offset=-3 / threads=8 / lookahead_threads=1 / sliced_threads=0 / nr=0 / decimate=1 / interlaced=0 / bluray_compat=0 / constrained_intra=0 / bframes=9 / b_pyramid=2 / b_adapt=2 / b_bias=0 / direct=3 / weightb=1 / open_gop=0 / weightp=2 / keyint=250 / keyint_min=25 / scenecut=40 / intra_refresh=0 / rc_lookahead=50 / rc=2pass / mbtree=1 / bitrate=1565 / ratetol=1.0 / qcomp=0.60 / qpmin=10 / qpmax=69 / qpstep=4 / cplxblur=20.0 / qblur=0.5 / ip_ratio=1.40 / aq=1:1.00 Default : Да Forced : Нет Аудио: Идентификатор : 2 Формат : AC-3 Формат/Информация : Audio Coding 3 Расширение режима : CM (complete main) Параметр Endianness формата : Big Идентификатор кодека : A_AC3 Продолжительность : 1 ч. 51 м. Вид битрейта : Постоянный Битрейт : 192 Кбит/сек Каналы : 2 канала Расположение каналов : Front: L R Частота : 48,0 КГц Битовая глубина : 16 бит Метод сжатия : С потерями Размер потока : 154 Мбайт (11%) Заголовок : Профессиональный (многоголосый закадровый) TB3 Язык : Russian Default : Да Forced : Нет 1,37 Gb 6 3 12 мая 2016 11:47 Груз / Cargo (2009) BDRemux 1080p от GORESEWAGE .torrent   [Информация о файле (нажмите для просмотра)] Перевод 1: Профессиональный (многоголосый закадровый) TB3Перевод 2: Любительский (двухголосый закадровый) ELEKTRI4KAПеревод 3: Одноголосый закадровый А. ДасевичПеревод 4: Одноголосый закадровый -Anubis-Субтитры: Русские (Full ТутНахОМОН999), английские (Full)Качество: BDRemux 1080p(Cargo 2009 1080p Ger Blu-ray REMUX AVC DTS-HD MA5.1-CHD)Контейнер: MKVВидео: MPEG-4 AVC Video / 20003 kbps / 1920x1080p / 23,976 fps / 16:9 / High Profile 4.1Аудио 1: Russian / AC3 / 2.0 / 48 kHz / 192 kbps / 16-bit / MVO TB3 Аудио 2: Russian / AC3 / 5.1 / 48 kHz / 448 kbps / 16-bit / DVO ELEKTRI4KAАудио 3: Russian / DTS-HD MA / 5.1 / 48 kHz / 2480 kbps / 16-bit (DTS Core: 5.1 / 48 kHz / 1536 kbps / 16-bit) / VO А. ДасевичАудио 4: Russian / AC3 / 5.1 / 48 kHz / 448 kbps / 16-bit / VO -Anubis- Аудио 5: German / DTS-HD MA / 5.1 / 48 kHz / 2477 kbps / 16-bit (DTS Core: 5.1 / 48 kHz / 1536 kbps / 16-bit) / OriginalАудио 6: German / AC3 / 2.0 / 48 kHz / 192 kbps / 16-bit / Commentary #1Аудио 7: German / AC3 / 2.0 / 48 kHz / 192 kbps / 16-bit / Commentary #2 20,64 Gb 4 2 12 мая 2016 11:47 Груз / Cargo (2009) BDRip от HQCLUB .torrent   [Информация о файле (нажмите для просмотра)] Перевод: профессиональный (многоголосый, закадровый)|ТВ3| + оригинал (немецкий) + Авторский (одноголосый, закадровый) А. ДасевичСубтитры: русские, английскиеФормат: AVIКачество: BDRip (источник:Видео: 720x304 (2.37:1), 23.976 fps, XviD build 63 ~2147 kbps avg, 0.41 bit/pixelАудио #1: 48 kHz, AC3 Dolby Digital, 2/0 (L,R) ch, ~192 kbps avgАудио #2: 48 kHz, AC3 Dolby Digital, 3/2 (L,C,R,l,r) + LFE ch, ~448.00 kbps avgАудио #3: 48 kHz, AC3 Dolby Digital, 3/2 (L,C,R,l,r) + LFE ch, ~448.00 kbps avg(отдельно, http) 2,18 Gb 3 3 12 мая 2016 11:47 Груз / Cargo (2009) BDRip 720p от PskovLine .torrent   [Информация о файле (нажмите для просмотра)] Перевод: Любительский (одноголосый) -Anubis-Кодек: x264Качество: BDRip 720pВидео: AVC at 6682 Кбит/сек, 1280 x 544 (2.353) at 23.976 fpsЗвук: RU: AC-3 at 448 Кбит/сек, 6 канала(ов), 48,0 КГц DE: DTS at 1510 Кбит/сек, 6 канала(ов), 48,0 КГцСубтитры: Русские (ТутНахОМОН999) и английские. 6,89 Gb 5 3 12 мая 2016 11:46 Груз / Cargo (2009) HDRip .torrent   [Информация о файле (нажмите для просмотра)] Перевод: Профессиональный (многоголосый)Формат: AVI //СОВМЕСТИМО С БЫТОВЫМИ ПЛЕЕРАМИ//Видео: 720x304 (2.37:1), 23.976 fps, XviD MPEG-4 ~1284 kbps avg, 0.11 bit/pixelАудио: 48 kHz, AC3 Dolby Digital, 3/2 (L,C,R,l,r) + LFE ch, ~448.00 kbps avg 1,37 Gb 7 1

gig-torrent.net

» . torrent

Gruz.SATRip/Gruz.01.SATRip.avi 519,65 Mb / (544895024)
Gruz.SATRip/Gruz.02.SATRip.avi 513,18 Mb / (538105854)
Gruz.SATRip/Gruz.03.SATRip.avi 510,34 Mb / (535127058)
Gruz.SATRip/Gruz.04.SATRip.avi 517,81 Mb / (542967988)
Gruz.SATRip/Gruz.05.SATRip.avi 545,39 Mb / (571882322)
Gruz.SATRip/Gruz.06.SATRip.avi 538,13 Mb / (564271826)
Gruz.SATRip/Gruz.07.SATRip.avi 530,09 Mb / (555838454)
Gruz.SATRip/Gruz.08.SATRip.avi 542,24 Mb / (568580404)
Gruz.SATRip/Gruz.09.SATRip.avi 515,48 Mb / (540521328)
Gruz.SATRip/Gruz.10.SATRip.avi 498,77 Mb / (522996480)
Gruz.SATRip/Gruz.11.SATRip.avi 507,76 Mb / (532429572)
Gruz.SATRip/Gruz.12.SATRip.avi 537,88 Mb / (564008058)
Gruz.SATRip/Gruz.13.SATRip.avi 528,18 Mb / (553835170)
Gruz.SATRip/Gruz.14.SATRip.avi 523,75 Mb / (549193086)
Gruz.SATRip/Gruz.15.SATRip.avi 528,53 Mb / (554203056)
Gruz.SATRip/Gruz.16.SATRip.avi 523,31 Mb / (548731326)
Gruz.SATRip/Gruz.17.SATRip.avi 543,36 Mb / (569749502)
Gruz.SATRip/Gruz.18.SATRip.avi 522,57 Mb / (547955072)
Gruz.SATRip/Gruz.19.SATRip.avi 518,67 Mb / (543863380)
Gruz.SATRip/Gruz.20.SATRip.avi 526,67 Mb / (552252046)
Gruz.SATRip/Gruz.21.SATRip.avi 540,99 Mb / (567271466)
Gruz.SATRip/Gruz.22.SATRip.avi 542,08 Mb / (568414862)
Gruz.SATRip/Gruz.23.SATRip.avi 536,33 Mb / (562384858)
Gruz.SATRip/Gruz.24.SATRip.avi 538,94 Mb / (565124556)

films-torrent.ru

Скачать фильм Груз через торрент в хорошем качестве бесплатно HDRip

Размер: 1.37 GB | Добавлен: 7 лет 6 мес. назад | Торрент скачан:448 раз
Реклама Дарим 3000 рублей за регистрацию, не упусти свой шанс получить шикарный бонус!!!

16-04-2010 05:44 Груз Скачать торрент  

Груз / Cargo

Год выпуска: 2009Страна: ШвейцарияЖанр: фантастикаПродолжительность: 01:51:49Перевод: Любительский (двухголосый)

Режиссер: Иван Энглер, Ральф Эттер

В ролях: Анна-Катарина Швэбро, Мартин Рэполд, Регула Гроувиллер, Пьер Сэмлер, Клод-Оливер Рудольф, Майкл Фингер, Янгзом Брауэн, Мария Бётнер, Джилес Тсхуди

Описание: Год 2267. Земля стала необитаемой из-за экологической катастрофы, а выжившие живут в переполненных космических станциях на орбите Земли. Молодой доктор Лора Портман одна из них. Она надеется на лучшее будущее далекой планеты Рея. Но чтобы попасть на нее - нужны деньги. Лаура подписывает контракт и устраивается в корпорацию "Maschinen Stuerme" для работы на старом грузовом корабле "Кассандра", который проделает путь к станции №42 и обратно за 8 лет.Полет полностью автоматический, во время которого члены экипажа проводят большую часть в состоянии глубокого сна, пока один дежурит 8,5 месяцев. Из-за террористической угрозы на корабле присутствует дополнительно Самуэль Деккер, ответственный за безопасность.К концу своей смены, Лора Портман слышит необычный шум из грузового отсека. Она поднимает членов экипажа, чтобы исследовать холодные грузовые трюмы корабля.После первых смертей, все начинают не доверять друг другу. Лаура и Самуэль раскрывают истинное содержание груза и назначение корабля...

Качество: HDRipФормат: AVIВидео кодек: XviDАудио кодек: AC3Видео: 720x304 (2.37:1), 23.976 fps, XviD MPEG-4 ~1297 kbps avg, 0.25 bit/pixelАудио: 48 kHz, AC3 Dolby Digital, 3/2 (L,C,R,l,r) + LFE ch, ~448 kbps

Скачать Груз через торрент http://piratbit.in.ua/7ee2b89c679e2532c930b61acbd1dbb9.jpeg Скачать фильм Груз через торрент бесплантно в хорошем качестве Описание: Год 226 Земля стала необитаемой из-за экологической катастрофы, а выжившие живут в переполненных космических станциях на орбите ... 2010-04-16 05:44 10 10 7

Loading...

Loading...

% Раздел Тема Автор DL S | L
Фильмы [HD 720p, 1080p] (Хороший звук DUB, MVO) [ 8.1 GB ] Ценный груз / Precious Cargo [2016 BDRip 1080p] bober100 Скачать
T Фильмы (WEB-DL 720p, 1080p) [ 3.22 GB ] Живой груз / Live Cargo [2016 WEB-DLRip 1080р Любительский ] Dusster Скачать
Фильмы [HD 720p, 1080p] (Хороший звук DUB, MVO) [ 4.2 GB ] Ценный груз / Precious Cargo [2016 BDRip 720p] bober100 Скачать
Фильмы 2016 [DVDrip, WEB-DLRip, HDrip] (DUB, MVO) [ 700 MB ] Ценный груз / Precious Cargo [2016 HDRip] Sherif Скачать
Фильмы 2016 [DVDrip, WEB-DLRip, HDrip] (DUB, MVO) [ 1.42 GB ] Ценный груз / Precious Cargo [2016 HDRip] bober100 Скачать
Порно фильмы без сюжета [ 2.63 GB ] Горячий Грузовой / Hot Cargo [2016 Public Sex WEB-DL Оригинальный] DJASFUL Скачать
Порно фильмы с русским переводом [ 891 MB ] Грузовой корабль / Cargo ) [1998 Feature Anal VHSRip Любительский одноголосый] 19alexei87 Скачать

Рекламный пират

16-04-2010 07:46 Груз Скачать торрент  

Качну,оценим!Благодарю!

16-04-2010 07:52 Груз Скачать торрент  

Что-то странновато HD-качество, 1,3 гига. Может ДВДрип - а?

16-04-2010 09:37 Груз Скачать торрент  

16-04-2010 19:13 Груз Скачать торрент  

супер ,особенно финал

17-04-2010 08:12 Груз Скачать торрент  

редкостное гзря качал

17-04-2010 16:25 Груз Скачать торрент  

Какаето мутью

19-04-2010 15:07 Груз Скачать торрент  

Фильм неплохой,только много не понятного,но для любителей космоса раз глянуть стоит!

20-04-2010 10:14 Груз Скачать торрент  

а дубляж вообще ожидается ? )))

Pекламный агент PB

27-04-2010 16:18 Груз Скачать торрент  

11-07-2010 22:18 Груз Скачать торрент  

Да идея нечего так, но фильм такой в стиле триллера. Долгие напряжённые моменты опастности(когда в темноте герой отчаянно светит фонариком в камеру, или его морду крупным планом, напрягающюю музыку, и тут на него кто нибудь набрасывается сверху).

Дорогой пользователь! Огромная просьба, поблагодарите релизера, оцените раздачу и оставьте свои комментарий, если Вы скачали Груз через торрент бесплатно! Внесите свою лепту в развитие PiratBit!

Комментировать посты могут только пользователи прошедшие не сложную регистрацию

Груз через торрент Скачать бесплатно Груз Груз скачать торрент Груз смотреть онлайн Cкачать фильм Груз бесплатно Груз скачать торрент в хорошем качестве Груз смотреть онлайн бесплатно в хорошем качестве

Вы не можете начинать темыВы не можете отвечать на сообщенияВы не можете редактировать свои сообщенияВы не можете удалять свои сообщенияВы не можете голосовать в опросахВы не можете прикреплять файлы к сообщениямВы можете скачивать файлы

piratbit.ru

Скачать фильм Груз через торрент в хорошем качестве бесплатно HDRip

Размер: 2.06 GB | Добавлен: 7 лет 6 мес. назад | Торрент скачан:174 раза
Реклама Дарим 3000 рублей за регистрацию, не упусти свой шанс получить шикарный бонус!!!

09-04-2010 05:35 Груз Скачать торрент  

Груз / Cargo

Год выпуска: 2009Страна: ШвейцарияЖанр: фантастикаПродолжительность: 01:51:49Перевод: Любительский (одноголосый) -Anubis-

Субтитры: Русские,Английские

Режиссер: Иван Энглер, Ральф Эттер

В ролях: Анна-Катарина Швэбро, Мартин Рэполд, Регула Гроувиллер, Пьер Сэмлер, Клод-Оливер Рудольф, Майкл Фингер, Янгзом Брауэн, Мария Бётнер, Джилес Тсхуди

Описание: Год 2267. Земля стала необитаемой из-за экологической катастрофы, а выжившие живут в переполненных космических станциях на орбите Земли. Молодой доктор Лора Портман одна из них. Она надеется на лучшее будущее далекой планеты Рея. Но чтобы попасть на нее - нужны деньги. Лаура подписывает контракт и устраивается в корпорацию "Maschinen Stuerme" для работы на старом грузовом корабле "Кассандра", который проделает путь к станции №42 и обратно за 8 лет.Полет полностью автоматический, во время которого члены экипажа проводят большую часть в состоянии глубокого сна, пока один дежурит 8,5 месяцев. Из-за террористической угрозы на корабле присутствует дополнительно Самуэль Деккер, ответственный за безопасность.К концу своей смены, Лора Портман слышит необычный шум из грузового отсека. Она поднимает членов экипажа, чтобы исследовать холодные грузовые трюмы корабля.После первых смертей, все начинают не доверять друг другу. Лаура и Самуэль раскрывают истинное содержание груза и назначение корабля...

Качество: HDRipФормат: AVIВидео кодек: XviDАудио кодек: AC3Видео: XVID 720x304 23.98fps 1725KbpsАудио:RUS: Dolby AC3 48000Hz 6ch 448Kbps GER: Dolby AC3 48000Hz 6ch 448Kbps

Скачать Груз через торрент http://piratbit.in.ua/7ee2b89c679e2532c930b61acbd1dbb9.jpeg Скачать фильм Груз через торрент бесплантно в хорошем качестве Описание: Год 226 Земля стала необитаемой из-за экологической катастрофы, а выжившие живут в переполненных космических станциях на орбите ... 2010-04-09 05:35 4.4 10 10

Loading...

Loading...

% Раздел Тема Автор DL S | L
Фильмы [HD 720p, 1080p] (Хороший звук DUB, MVO) [ 8.1 GB ] Ценный груз / Precious Cargo [2016 BDRip 1080p] bober100 Скачать
T Фильмы (WEB-DL 720p, 1080p) [ 3.22 GB ] Живой груз / Live Cargo [2016 WEB-DLRip 1080р Любительский ] Dusster Скачать
Фильмы [HD 720p, 1080p] (Хороший звук DUB, MVO) [ 4.2 GB ] Ценный груз / Precious Cargo [2016 BDRip 720p] bober100 Скачать
Фильмы 2016 [DVDrip, WEB-DLRip, HDrip] (DUB, MVO) [ 700 MB ] Ценный груз / Precious Cargo [2016 HDRip] Sherif Скачать
Фильмы 2016 [DVDrip, WEB-DLRip, HDrip] (DUB, MVO) [ 1.42 GB ] Ценный груз / Precious Cargo [2016 HDRip] bober100 Скачать
Порно фильмы без сюжета [ 2.63 GB ] Горячий Грузовой / Hot Cargo [2016 Public Sex WEB-DL Оригинальный] DJASFUL Скачать
Порно фильмы с русским переводом [ 891 MB ] Грузовой корабль / Cargo ) [1998 Feature Anal VHSRip Любительский одноголосый] 19alexei87 Скачать

Рекламный пират

09-04-2010 05:42 Груз Скачать торрент  

Фильм похоже не фуфловый,посмотреть надо!

09-04-2010 05:45 Груз Скачать торрент  

зато перевод уж точно фуфловый

09-04-2010 06:25 Груз Скачать торрент  

Да перевет фуфловый, а смотреть фильм на немецком закруто блин. На английском бы посмотрел, не не понял бы половину, зато титри бы почитал )))А так слушать одного чела как в старое видеокасетное время, или все читать по титрах нет желания.А фильм должен быть не плохой IMDB 6.3/10 .при том что американцы частенько любят заниживать оценку на европейские кино, не понимаю они его, что ли?Ждем-с лучшего перевода.

09-04-2010 08:43 Груз Скачать торрент  

ну и какое было истинное содержание груза и назначение корабля...???

09-04-2010 17:06 Груз Скачать торрент  

Kitaets писал(а):

зато перевод уж точно фуфловый

не согласен...перевод приличный, а озвучка вполне профессиональная...камрад -Anubis- много фильмов озвучил на т.ру...вполне можно ставить статус "авторский", но скромничает...ИМХО

Дорогой пользователь! Огромная просьба, поблагодарите релизера, оцените раздачу и оставьте свои комментарий, если Вы скачали Груз через торрент бесплатно! Внесите свою лепту в развитие PiratBit!

Комментировать посты могут только пользователи прошедшие не сложную регистрацию

Груз через торрент Скачать бесплатно Груз Груз скачать торрент Груз смотреть онлайн Cкачать фильм Груз бесплатно Груз скачать торрент в хорошем качестве Груз смотреть онлайн бесплатно в хорошем качестве

Вы не можете начинать темыВы не можете отвечать на сообщенияВы не можете редактировать свои сообщенияВы не можете удалять свои сообщенияВы не можете голосовать в опросахВы не можете прикреплять файлы к сообщениямВы можете скачивать файлы

piratbit.ru

Скачать фильм Ценный груз через торрент в хорошем качестве бесплатно HDRip

Раздают: 2 [ 0 KB/s ]
Размер: 1.42 GB | Добавлен: 6 мес. назад | Торрент скачан:334 раза
Реклама Дарим 3000 рублей за регистрацию, не упусти свой шанс получить шикарный бонус!!!

20-04-2017 03:08 Ценный груз Скачать торрент  

Ценный груз / Precious Cargo

Год выпуска: 2016Страна: КанадаЖанр: Боевик, триллер, драма, криминалПродолжительность: 01:29:56Перевод: Дубляж - [iTunes]Субтитры: отсутствуют

Режиссер: Макс Адамс

В ролях:

Брюс Уиллис, Марк-Пол Госселаар, Клер Форлани, Джон Бразертон, Дженна Б. Келли, Николас М. Лоб, Лидия Халл, Дэниэл Бернхард, Эшли Кирк, Тайлер Джон Олсон

Описание:

Профессиональная воровка Карен (Форлани) всегда ответственно подходит к каждому новому делу, но все на свете невозможно предугадать, и в этот раз ее план не сработал. А все потому, что она решила кинуть своего покровителя, жестокого криминального босса Эдди (Уиллис). За непослушание и обман, он требует всю долю, иначе верная смерть. Теперь ей придется выполнить задание для Эдди, чтобы расплатится за содеянное. Для этого она обращается к своему бывшему бойфренду, который должен помочь совершить ограбление грузовика перевозящего драгоценности. Это очень опасная миссия, в таком деле не должно быть не единой осечки, но всю ли правду рассказала Карен своей новой команде? Знают ли они в какую игру они ввязываются?

Качество: HDRipФормат: AVIВидео кодек: XviDАудио кодек: AC3

Видео: 720x304 (2.37:1), 23.976 fps, XviD build 50 ~1776 kbps avg, 0.34 bit/pixelАудио#1: 48 kHz, AC3 Dolby Digital, 3/2 (L,C,R,l,r) + LFE ch, ~384 kbps avg

Скачать Ценный груз через торрент http://rudb.org/img/2017_04/i58f8149299403.jpg Скачать фильм Ценный груз через торрент бесплантно в хорошем качестве Описание: Профессиональная воровка Карен (Форлани) всегда ответственно подходит к каждому новому делу, но все на свете невозможно ... 2017-04-20 03:08 9.4 10 10

Loading...

Loading...

Рекламный пират

Дорогой пользователь! Огромная просьба, поблагодарите релизера, оцените раздачу и оставьте свои комментарий, если Вы скачали Ценный груз через торрент бесплатно! Внесите свою лепту в развитие PiratBit!

Комментировать посты могут только пользователи прошедшие не сложную регистрацию

Ценный груз через торрент Скачать бесплатно Ценный груз Ценный груз скачать торрент Ценный груз смотреть онлайн Cкачать фильм Ценный груз бесплатно Ценный груз скачать торрент в хорошем качестве Ценный груз смотреть онлайн бесплатно в хорошем качестве

Вы не можете начинать темыВы не можете отвечать на сообщенияВы не можете редактировать свои сообщенияВы не можете удалять свои сообщенияВы не можете голосовать в опросахВы не можете прикреплять файлы к сообщениямВы можете скачивать файлы

piratbit.ru

Скачать фильм Ценный груз через торрент в хорошем качестве бесплатно 1080p

Общее Уникальный идентификатор : 241525545961751661536033830547550120796 (0xB5B420CD24662DD89FB7EBC4ECC82B5C) Полное имя : E:\Закачка-2\Precious.Cargo.2016.D.BDRip.1080p.mkv Формат : Matroska Версия формата : Version 2 Размер файла : 8,10 Гбайт Продолжительность : 1 ч. 29 м. Общий поток : 12,9 Мбит/сек Дата кодирования : UTC 2017-04-19 20:42:35 Программа кодирования : mkvmerge v7.8.0 ('River Man') 32bit built on Apr 3 2015 12:11:22 Библиотека кодирования : libebml v1.3.1 + libmatroska v1.4.2

Видео Идентификатор : 1 Формат : AVC Формат/Информация : Advanced Video Codec Профиль формата : [email protected] Параметр CABAC формата : Да Параметр ReFrames формата : 5 кадров Идентификатор кодека : V_MPEG4/ISO/AVC Продолжительность : 1 ч. 29 м. Битрейт : 11,0 Мбит/сек Ширина : 1920 пикселей Высота : 800 пикселей Соотношение сторон : 2,40:1 Режим частоты кадров : Постоянный Частота кадров : 23,976 (24000/1001) кадра/сек Цветовое пространство : YUV Субдискретизация насыщенности : 4:2:0 Битовая глубина : 8 бит Тип развёртки : Прогрессивная Бит/(Пиксели*Кадры) : 0.299 Размер потока : 6,75 Гбайт (83%) Библиотека кодирования : x264 core 142 r2431+42 c69a006 tMod [[email protected] X86_64] Настройки программы : cabac=1 / ref=5 / deblock=1:-3:-3 / analyse=0x3:0x133 / me=umh / subme=11 / psy=1 / fade_compensate=0.00 / psy_rd=0.90:0.00 / mixed_ref=1 / me_range=32 / chroma_me=1 / trellis=2 / 8x8dct=1 / cqm=0 / deadzone=21,11 / fast_pskip=0 / chroma_qp_offset=-2 / threads=12 / lookahead_threads=2 / sliced_threads=0 / nr=0 / decimate=0 / interlaced=0 / bluray_compat=0 / constrained_intra=0 / fgo=0 / bframes=8 / b_pyramid=2 / b_adapt=2 / b_bias=0 / direct=3 / weightb=1 / open_gop=0 / weightp=2 / keyint=240 / keyint_min=23 / scenecut=40 / intra_refresh=0 / rc_lookahead=60 / rc=2pass / mbtree=0 / bitrate=11000 / ratetol=1.0 / qcomp=0.60 / qpmin=0:0:0 / qpmax=69:69:69 / qpstep=4 / cplxblur=20.0 / qblur=0.5 / vbv_maxrate=40000 / vbv_bufsize=30000 / nal_hrd=none / filler=0 / ip_ratio=1.40 / pb_ratio=1.30 / aq=1:0.90 / aq-sensitivity=10.00 / aq-factor=1.00:1.00:1.00 / aq2=0 / aq3=0 Язык : English Default : Да Forced : Нет

Аудио #1 Идентификатор : 2 Формат : AC-3 Формат/Информация : Audio Coding 3 Параметр Endianness формата : Big Идентификатор кодека : A_AC3 Продолжительность : 1 ч. 29 м. Вид битрейта : Постоянный Битрейт : 384 Кбит/сек Каналы : 6 каналов Расположение каналов : Front: L C R, Side: L R, LFE Частота : 48,0 КГц Частота кадров : 31,250 кадров/сек (1536 spf) Битовая глубина : 16 бит Метод сжатия : С потерями Размер потока : 247 Мбайт (3%) Заголовок : iTunes Язык : Russian ServiceKind/String : Complete Main Default : Да Forced : Нет

Аудио #2 Идентификатор : 3 Формат : DTS Формат/Информация : Digital Theater Systems Режим : 16 Параметр Endianness формата : Big Идентификатор кодека : A_DTS Продолжительность : 1 ч. 29 м. Вид битрейта : Постоянный Битрейт : 1509 Кбит/сек Каналы : 6 каналов Расположение каналов : Front: L C R, Side: L R, LFE Частота : 48,0 КГц Частота кадров : 93,750 кадра/сек (512 spf) Битовая глубина : 24 бит Метод сжатия : С потерями Размер потока : 971 Мбайт (12%) Язык : English Default : Нет Forced : Нет

Текст #1 Идентификатор : 4 Формат : UTF-8 Идентификатор кодека : S_TEXT/UTF8 Идентификатор кодека/Информация : UTF-8 Plain Text Язык : English Default : Нет Forced : Нет

Текст #2 Идентификатор : 5 Формат : UTF-8 Идентификатор кодека : S_TEXT/UTF8 Идентификатор кодека/Информация : UTF-8 Plain Text Язык : English Default : Нет Forced : Нет

Меню 00:00:00.000 : en:00:00:00.000 00:08:58.621 : en:00:08:58.621 00:12:51.938 : en:00:12:51.938 00:16:55.848 : en:00:16:55.848 00:25:43.208 : en:00:25:43.208 00:32:43.128 : en:00:32:43.128 00:36:33.900 : en:00:36:33.900 00:42:13.197 : en:00:42:13.197 00:46:02.551 : en:00:46:02.551 00:52:34.360 : en:00:52:34.360 00:58:47.107 : en:00:58:47.107 01:02:41.466 : en:01:02:41.466 01:06:36.576 : en:01:06:36.576 01:08:36.696 : en:01:08:36.696 01:12:46.904 : en:01:12:46.904 01:21:35.057 : en:01:21:35.057

piratbit.ru


Смотрите также