Скачать фильм игра на понижение в хорошем качестве через торрент


Скачать фильм Игра на понижение через торрент в хорошем качестве бесплатно HDRip

Размер: 2.05 GB | Добавлен: 1 год 6 мес. назад | Торрент скачан:117 раз
Реклама Дарим 3000 рублей за регистрацию, не упусти свой шанс получить шикарный бонус!!!

18-04-2016 19:04 Игра на понижение Скачать торрент  

Игра на понижение / The Big Short

Год выпуска: 2015Страна: США / Plan B Entertainment, Regency EnterprisesЖанр: драма, комедия, биографияПродолжительность: 02:10:15Перевод: Дублированный [iTunes]Субтитры:русские(forced) отдельным файлом.Режиссер: Адам МакКей

IMDB 7.90 (101 508)

В ролях: Кристиан Бэйл, Стив Карелл, Райан Гослинг, Брэд Питт, Мелисса Лео, Хамиш Линклэйтер, Джон Магаро, Рейф Сполл, Джереми Стронг, Мариса Томей

Описание: Когда речь идет о деньгах, совесть молчит. А уж если речь об огромных деньгах!.. Это основанная на реальных событиях история нескольких провидцев, которые независимо друг от друга предсказали мировой экономический кризис 2008 года задолго до того, как о нем зашептались в кулуарах на Уолл-стрит. И предсказав, стали на нем зарабатывать. Сами того не желая.

Качество: HDRipФормат: AVIВидео: MPEG4, XviD, 720x304 (2.35:1), 23.976 fps, 1858 Kbps (0.415 bit/pixel)Аудио:AC3, 384 kb/s (6 ch), 48.0 KHz

Скачать Игра на понижение через торрент http://picsee.net/upload/2016-04-18/c24d8ae4ed3c.jpg Скачать фильм Игра на понижение через торрент бесплантно в хорошем качестве Описание: Когда речь идет о деньгах, совесть молчит. А уж если речь об огромных деньгах!.. Это основанная на реальных событиях история ... 2016-04-18 19:05 10 10 4

Loading...

Loading...

% Раздел Тема Автор DL S | L
Фильмы (Blu-ray, BD-Remux, HDDVD) [ 29.17 GB ] Игра на понижение / The Big Short [2015 биография BDRemux 1080p] от ExKinoRay / AVO Russian Mafia Скачать
Фильмы [HD 720p, 1080p] (Хороший звук DUB, MVO) [ 8.92 GB ] Игра на понижение / The Big Short [2015 биография BDRip 720p] DUB potroks Скачать
Фильмы 2015 [DVDrip, WEB-DLRip, HDrip] [ 1.46 GB ] Игра на понижение / The Big Short [2015 биография BDRip ] Twi7ter Скачать
Фильмы 2015 [DVDrip, WEB-DLRip, HDrip] [ 2.18 GB ] Игра на понижение / The Big Short [2015 биография HDRip "BD CEE"] coc900 Скачать
Фильмы 2015 [DVDrip, WEB-DLRip, HDrip] [ 2.91 GB ] Игра на понижение / The Big Short [2015 биография BDRip-AVC] DUB potroks Скачать
Фильмы 2015 [DVDrip, WEB-DLRip, HDrip] [ 1.46 GB ] Игра на понижение / The Big Short [2015 биография BDRip-AVC] DUB potroks Скачать
Фильмы 2015 [DVDrip, WEB-DLRip, HDrip] [ 1.46 GB ] Игра на понижение / The Big Short [2015 биография BDRip] DUB Twi7ter Скачать

Последний раз редактировалось: Ворон (2016-04-18 19:46), всего редактировалось 1 раз

Рекламный пират

18-04-2016 19:10 Игра на понижение Скачать торрент  

Дорогой пользователь! Огромная просьба, поблагодарите релизера, оцените раздачу и оставьте свои комментарий, если Вы скачали Игра на понижение через торрент бесплатно! Внесите свою лепту в развитие PiratBit!

Комментировать посты могут только пользователи прошедшие не сложную регистрацию

Игра на понижение через торрент Скачать бесплатно Игра на понижение Игра на понижение скачать торрент Игра на понижение смотреть онлайн Cкачать фильм Игра на понижение бесплатно Игра на понижение скачать торрент в хорошем качестве Игра на понижение смотреть онлайн бесплатно в хорошем качестве

Вы не можете начинать темыВы не можете отвечать на сообщенияВы не можете редактировать свои сообщенияВы не можете удалять свои сообщенияВы не можете голосовать в опросахВы не можете прикреплять файлы к сообщениямВы можете скачивать файлы

piratbit.ru

Игра на понижение через торрент

Общее

Уникальный идентификатор : 184544974082085226777023038432504947118 (0x8AD611B4EF21DFC191F7E1B2EE67A1AE)

Полное имя : D:загрузкиThe.Big.Short.2015.D.1080p.BDRip.mkv

Формат : Matroska

Версия формата : Version 4 / Version 2

Размер файла : 16,8 Гбайт

Продолжительность : 2 ч. 10 м.

Общий поток : 18,4 Мбит/сек

Название фильма : Игра на понижение / The Big Short (2015) BDRip 1080p by Elheym

Дата кодирования : UTC 2016-04-18 22:08:44

Программа кодирования : mkvmerge v8.3.0 ('Over the Horizon') 64bit

Библиотека кодирования : libebml v1.3.1 + libmatroska v1.4.2

DURATION : 02:02:57.864000000

NUMBER_OF_FRAMES : 1975

NUMBER_OF_BYTES : 80532

_STATISTICS_WRITING_APP : mkvmerge v8.3.0 ('Over the Horizon') 64bit

_STATISTICS_WRITING_DATE_UTC : 2016-04-18 22:08:44

_STATISTICS_TAGS : BPS DURATION NUMBER_OF_FRAMES NUMBER_OF_BYTES

Видео

Идентификатор : 1

Формат : AVC

Формат/Информация : Advanced Video Codec

Профиль формата : [email protected]

Параметр CABAC формата : Да

Параметр ReFrames формата : 4 кадра

Идентификатор кодека : V_MPEG4/ISO/AVC

Продолжительность : 2 ч. 10 м.

Битрейт : 16,2 Мбит/сек

Ширина : 1920 пикселей

Высота : 800 пикселей

Соотношение сторон : 2,40:1

Режим частоты кадров : Постоянный

Частота кадров : 23,976 кадра/сек

Цветовое пространство : YUV

Субдискретизация насыщенности : 4:2:0

Битовая глубина : 8 бит

Тип развёртки : Прогрессивная

Бит/(Пиксели*Кадры) : 0.440

Размер потока : 14,7 Гбайт (88%)

Заголовок : Игра на понижение / The Big Short (2015) BDRip 1080p by Elheym

Библиотека кодирования : x264 core 148 r2665+53 6629127 t_mod_Custom [[email protected] X86_64]

Настройки программы : cabac=1 / ref=4 / deblock=1:-3:-2 / analyse=0x3:0x113 / me=umh / subme=11 / psy=1 / fade_compensate=0.00 / psy_rd=1.20:0.00 / mixed_ref=1 / me_range=32 / chroma_me=1 / trellis=2 / 8x8dct=1 / cqm=0 / deadzone=21,11 / fast_pskip=0 / chroma_qp_offset=-2 / threads=6 / lookahead_threads=2 / sliced_threads=0 / nr=0 / decimate=0 / interlaced=0 / bluray_compat=0 / constrained_intra=0 / fgo=0 / bframes=14 / b_pyramid=2 / b_adapt=2 / b_bias=0 / direct=3 / weightb=1 / open_gop=0 / weightp=2 / keyint=240 / keyint_min=23 / scenecut=40 / intra_refresh=0 / rc_lookahead=80 / rc=crf / mbtree=0 / crf=20.0000 / qcomp=0.70 / qpmin=0:0:0 / qpmax=69:69:69 / qpstep=4 / vbv_maxrate=50000 / vbv_bufsize=62500 / crf_max=0.0 / nal_hrd=none / filler=0 / ip_ratio=1.40 / pb_ratio=1.30 / aq=2:1.10 / aq-sensitivity=10.00 / aq-factor=1.00:1.00:1.00 / aq2=0 / aq3=3:[0.50:0.50]:[0.50:0.50]:[0.50:0.50]:[0.50:0.50] / aq3-sensitivity=10.00 / aq3-factor=[1.00:1.00]:[1.00:1.00]:[1.00:1.00] / aq3-boundary=205:56:9

Язык : English

Default : Да

Forced : Нет

DURATION : 02:10:15.850000000

NUMBER_OF_FRAMES : 187393

NUMBER_OF_BYTES : 16169765449

_STATISTICS_WRITING_APP : mkvmerge v8.3.0 ('Over the Horizon') 64bit

_STATISTICS_WRITING_DATE_UTC : 2016-04-18 22:08:44

_STATISTICS_TAGS : BPS DURATION NUMBER_OF_FRAMES NUMBER_OF_BYTES

Аудио #1

Идентификатор : 2

Формат : AC-3

Формат/Информация : Audio Coding 3

Расширение режима : CM (complete main)

Параметр Endianness формата : Big

Идентификатор кодека : A_AC3

Продолжительность : 2 ч. 10 м.

Вид битрейта : Постоянный

Битрейт : 384 Кбит/сек

Каналы : 6 каналов

Расположение каналов : Front: L C R, Side: L R, LFE

Частота : 48,0 КГц

Битовая глубина : 16 бит

Метод сжатия : С потерями

Размер потока : 358 Мбайт (2%)

Заголовок : iTunes

Язык : Russian

Default : Да

Forced : Нет

Аудио #2

Идентификатор : 3

Формат : DTS

Формат/Информация : Digital Theater Systems

Режим : 16

Параметр Endianness формата : Big

Идентификатор кодека : A_DTS

Продолжительность : 2 ч. 10 м.

Вид битрейта : Постоянный

Битрейт : 1509 Кбит/сек

Каналы : 6 каналов

Расположение каналов : Front: L C R, Side: L R, LFE

Частота : 48,0 КГц

Битовая глубина : 24 бит

Метод сжатия : С потерями

Размер потока : 1,37 Гбайт (8%)

Язык : English

Default : Нет

Forced : Нет

Текст #1

Идентификатор : 4

Формат : UTF-8

Идентификатор кодека : S_TEXT/UTF8

Идентификатор кодека/Информация : UTF-8 Plain Text

Заголовок : форсированные

Язык : Russian

Default : Да

Forced : Нет

Текст #2

Идентификатор : 5

Формат : UTF-8

Идентификатор кодека : S_TEXT/UTF8

Идентификатор кодека/Информация : UTF-8 Plain Text

Заголовок : полные

Язык : Russian

Default : Нет

Forced : Нет

Текст #3

Идентификатор : 6

Формат : UTF-8

Идентификатор кодека : S_TEXT/UTF8

Идентификатор кодека/Информация : UTF-8 Plain Text

Заголовок : Оригинал

Язык : English

Default : Нет

Forced : Нет

Текст #4

Идентификатор : 7

Формат : UTF-8

Идентификатор кодека : S_TEXT/UTF8

Идентификатор кодека/Информация : UTF-8 Plain Text

Заголовок : Оригинал, SDH

Язык : English

Default : Нет

Forced : Нет

Текст #5

Идентификатор : 8

Формат : UTF-8

Идентификатор кодека : S_TEXT/UTF8

Идентификатор кодека/Информация : UTF-8 Plain Text

Заголовок : Французские

Язык : French

Default : Нет

Forced : Нет

Текст #6

Идентификатор : 9

Формат : UTF-8

Идентификатор кодека : S_TEXT/UTF8

Идентификатор кодека/Информация : UTF-8 Plain Text

Заголовок : Испанские

Язык : Spanish

Default : Нет

Forced : Нет

Меню

00:00:00.000 : :Chapter 01

00:09:24.564 : :Chapter 02

00:15:47.571 : :Chapter 03

00:19:03.058 : :Chapter 04

00:25:59.516 : :Chapter 05

00:28:49.978 : :Chapter 06

00:37:24.242 : :Chapter 07

00:42:54.488 : :Chapter 08

00:49:36.682 : :Chapter 09

00:57:01.835 : :Chapter 10

01:02:09.892 : :Chapter 11

01:10:52.957 : :Chapter 12

01:17:03.243 : :Chapter 13

01:20:57.102 : :Chapter 14

01:29:53.221 : :Chapter 15

01:34:37.046 : :Chapter 16

01:41:15.903 : :Chapter 17

01:45:30.490 : :Chapter 18

01:49:34.651 : :Chapter 19

01:55:16.075 : :Chapter 20

02:03:44.500 : :Chapter 21

02:10:15.599 : :Chapter 22

piratbit.ru

Скачать фильм Игра на понижение через торрент в хорошем качестве бесплатно HDRip

Раздают: 4 [ 0 KB/s ]
Размер: 2.17 GB | Добавлен: 1 год 7 мес. назад | Торрент скачан:3131 раз
Реклама Дарим 3000 рублей за регистрацию, не упусти свой шанс получить шикарный бонус!!!

06-03-2016 13:21 Игра на понижение Скачать торрент  

Игра на понижение / The Big Short

Год выпуска: 2015Страна: США / Plan B Entertainment, Regency EnterprisesЖанр: драма, комедия, биографияПродолжительность: 02:10:15Перевод: Дубляж (Чистый звук)

Режиссер: Адам МакКей

IMDB 7.90 (101 508)

В ролях: Кристиан Бэйл, Стив Карелл, Райан Гослинг, Брэд Питт, Мелисса Лео, Хамиш Линклэйтер, Джон Магаро, Рейф Сполл, Джереми Стронг, Мариса Томей

Описание: Когда речь идет о деньгах, совесть молчит. А уж если речь об огромных деньгах!.. Это основанная на реальных событиях история нескольких провидцев, которые независимо друг от друга предсказали мировой экономический кризис 2008 года задолго до того, как о нем зашептались в кулуарах на Уолл-стрит. И предсказав, стали на нем зарабатывать. Сами того не желая.

Качество: HDRipФормат: AVIВидео кодек: XviDАудио кодек: AC3Видео: MPEG4, XviD, 720x304 (2.35:1), 23.976 fps, 2 180 Kbps (0.415 bit/pixel)Аудио: AC-3, 48.0 KHz, 2 ch, 192 Kbps, CBR

ОбщееПолное имя : F:\кино\Игра на понижение.2015.D.HDRip.aviФормат : AVIФормат/Информация : Audio Video InterleaveПрофиль формата : OpenDMLРазмер файла : 2,17 ГбайтПродолжительность : 2 ч. 10 м.Общий поток : 2384 Кбит/секПрограмма кодирования : VirtualDubMod 1.5.10.3 | www.virtualdub-fr.org || (build 2550/release)Библиотека кодирования : VirtualDubMod build 2550/release

ВидеоИдентификатор : 0Формат : MPEG-4 VisualПрофиль формата : Advanced [email protected]Параметр BVOP формата : 2Параметр QPel формата : НетПараметр GMC формата : Без точки переходаПараметр матрицы формата : Default (H.263)Идентификатор кодека : XVIDИдентификатор кодека/Подсказка : XviDПродолжительность : 2 ч. 10 м.Битрейт : 2180 Кбит/секШирина : 720 пикселейВысота : 304 пикселяСоотношение сторон : 2,35:1Частота кадров : 23,976 (23976/1000) кадра/секЦветовое пространство : YUVСубдискретизация насыщенности : 4:2:0Битовая глубина : 8 битТип развёртки : ПрогрессивнаяМетод сжатия : С потерямиБит/(Пиксели*Кадры) : 0.415Размер потока : 1,98 Гбайт (91%)Библиотека кодирования : XviD 1.2.1 (UTC 2008-12-04)

АудиоИдентификатор : 1Формат : AC-3Формат/Информация : Audio Coding 3Расширение режима : CM (complete main)Параметр Endianness формата : BigИдентификатор кодека : 2000Продолжительность : 2 ч. 10 м.Вид битрейта : ПостоянныйБитрейт : 192 Кбит/секКаналы : 2 каналаРасположение каналов : Front: L RЧастота : 48,0 КГцЧастота кадров : 31,250 кадров/сек (1536 spf)Метод сжатия : С потерямиРазмер потока : 179 Мбайт (8%)Выравнивание : Разделение по промежуткамПродолжительность промежутка : 42 мс. (1,00 видеокадр)Время предзагрузки промежутка : 500 мс.

Скачать Игра на понижение через торрент http://pic.pb.wtf/images/11/rflwb.jpg Скачать фильм Игра на понижение через торрент бесплантно в хорошем качестве Описание: Когда речь идет о деньгах, совесть молчит. А уж если речь об огромных деньгах!.. Это основанная на реальных событиях история ... 2016-03-06 13:21 8.8 10 38

Loading...

Loading...

% Раздел Тема Автор DL S | L
Фильмы (Blu-ray, BD-Remux, HDDVD) [ 29.17 GB ] Игра на понижение / The Big Short [2015 биография BDRemux 1080p] от ExKinoRay / AVO Russian Mafia Скачать
Фильмы [HD 720p, 1080p] (Хороший звук DUB, MVO) [ 8.92 GB ] Игра на понижение / The Big Short [2015 биография BDRip 720p] DUB potroks Скачать
Фильмы 2015 [DVDrip, WEB-DLRip, HDrip] [ 1.46 GB ] Игра на понижение / The Big Short [2015 биография BDRip ] Twi7ter Скачать
Фильмы 2015 [DVDrip, WEB-DLRip, HDrip] [ 2.18 GB ] Игра на понижение / The Big Short [2015 биография HDRip "BD CEE"] coc900 Скачать
Фильмы 2015 [DVDrip, WEB-DLRip, HDrip] [ 2.91 GB ] Игра на понижение / The Big Short [2015 биография BDRip-AVC] DUB potroks Скачать
Фильмы 2015 [DVDrip, WEB-DLRip, HDrip] [ 1.46 GB ] Игра на понижение / The Big Short [2015 биография BDRip-AVC] DUB potroks Скачать
Фильмы 2015 [DVDrip, WEB-DLRip, HDrip] [ 1.46 GB ] Игра на понижение / The Big Short [2015 биография BDRip] DUB Twi7ter Скачать

Рекламный пират

06-03-2016 13:36 Игра на понижение Скачать торрент  

Как фильм?кто смотрел?

06-03-2016 13:45 Игра на понижение Скачать торрент  

RETTRECK писал(а):

Как фильм?кто смотрел?

Походу никто)Сам хотел скачать - но рука не лежит)

06-03-2016 14:47 Игра на понижение Скачать торрент  

сидя ж к экрану не поймете о чем! надо либо вникать в суть о чем говорят, похоже на мастер класс по экономике))), либо забить ну или как документалку посмотреть- минимум игры героев , максимум инфы об обвале рынка недвижимости 2008)).история о том, что одни ушлые, были прокинуты другими- короче хитрожопие, обернулось для для среднего класса поломойными судьбами. "Предел риска" полегче был, на эту же тему.

06-03-2016 15:15 Игра на понижение Скачать торрент  

соглашусь с предыдущим оратором надо вникать в фильм....а в общем фильм хорош

06-03-2016 15:47 Игра на понижение Скачать торрент  

Фильм отличный если включить мозг и попробовать понять о чем говорят.

09-03-2016 03:15 Игра на понижение Скачать торрент  

Не плохой фильм. Много профессиональных терминов, но если знать довольно поучительно.

09-03-2016 15:20 Игра на понижение Скачать торрент  

Неужели в AVC не будет?

12-03-2016 18:58 Игра на понижение Скачать торрент  

хороший фильм

Pекламный агент PB

Дорогой пользователь! Огромная просьба, поблагодарите релизера, оцените раздачу и оставьте свои комментарий, если Вы скачали Игра на понижение через торрент бесплатно! Внесите свою лепту в развитие PiratBit!

Комментировать посты могут только пользователи прошедшие не сложную регистрацию

Игра на понижение через торрент Скачать бесплатно Игра на понижение Игра на понижение скачать торрент Игра на понижение смотреть онлайн Cкачать фильм Игра на понижение бесплатно Игра на понижение скачать торрент в хорошем качестве Игра на понижение смотреть онлайн бесплатно в хорошем качестве

Вы можете начинать темыВы можете отвечать на сообщенияВы не можете редактировать свои сообщенияВы не можете удалять свои сообщенияВы не можете голосовать в опросахВы не можете прикреплять файлы к сообщениямВы можете скачивать файлы

piratbit.ru

Игра на понижение через торрент

Раздают: 1 [ 0 KB/s ]
Размер: 1.46 GB | Добавлен: 1 год 5 мес. назад | Торрент скачан:526 раз
Реклама Дарим 3000 рублей за регистрацию, не упусти свой шанс получить шикарный бонус!!!

27-04-2016 13:19 Игра на понижение Скачать торрент  

Игра на понижение / The Big Short

«Неправдоподобная, но правдивая история»

Год выпуска: 2015Страна: СШАЖанр: драма, биографияПродолжительность: 02:10:15Перевод: Профессиональный (полное дублирование) [Лицензия Blu-ray CEE]Субтитры: Русские (на надписи и текст) - отдельноРежиссер: Адам МакКей / Adam McKayВ ролях: Кристиан Бэйл (Michael Burry), Стив Карелл (Mark Baum), Райан Гослинг (Jared Vennett), Брэд Питт (Ben Rickert), Мелисса Лео (Georgia Hale), Хамиш Линклэйтер (Porter Collins), Джон Магаро (Charlie Geller), Рейф Сполл (Danny Moses), Джереми Стронг (Vinnie Daniel), Мариса Томей (Cynthia Baum), Финн Уиттрок (Jamie Shipley), Стэнли Вонг (Ted Jiang)Описание: Когда речь идет о деньгах, совесть молчит. А уж если речь об огромных деньгах!.. Это основанная на реальных событиях история нескольких провидцев, которые независимо друг от друга предсказали мировой экономический кризис 2008 года задолго до того, как о нем зашептались в кулуарах на Уолл-стрит. И предсказав, стали на нем зарабатывать. Сами того не желая.Рейтинг:

MPAA: R - Лицам до 17 лет обязательно присутствие взрослого

Качество: BDRip | исх. The Big Short 2015 1080p Blu-ray AVC DTS-HD MA 7 1-CBGB |Формат: AVIВидео кодек: XviDАудио кодек: AC3Видео: 720x304 (2.37:1), 23.976 fps, XviD build 73 ~1405 kbps avg, 0.27 bit/pixelАудио: 48 kHz, AC3 Dolby Digital, 2/0 (L,R) ch, ~192 kbps

Релиз:

Скачать Игра на понижение через торрент http://s019.radikal.ru/i637/1604/33/82aa48459c4b.png Скачать фильм Игра на понижение через торрент бесплантно в хорошем качестве Описание: Когда речь идет о деньгах, совесть молчит. А уж если речь об огромных деньгах!.. Это основанная на реальных событиях история ... 2016-04-27 13:19 10 10 3

Loading...

Loading...

Рекламный пират

Дорогой пользователь! Огромная просьба, поблагодарите релизера, оцените раздачу и оставьте свои комментарий, если Вы скачали Игра на понижение через торрент бесплатно! Внесите свою лепту в развитие PiratBit!

Комментировать посты могут только пользователи прошедшие не сложную регистрацию

Игра на понижение через торрент Скачать бесплатно Игра на понижение Игра на понижение скачать торрент Игра на понижение смотреть онлайн Cкачать фильм Игра на понижение бесплатно Игра на понижение скачать торрент в хорошем качестве Игра на понижение смотреть онлайн бесплатно в хорошем качестве

Вы не можете начинать темыВы не можете отвечать на сообщенияВы не можете редактировать свои сообщенияВы не можете удалять свои сообщенияВы не можете голосовать в опросахВы не можете прикреплять файлы к сообщениямВы можете скачивать файлы

piratbit.ru


Смотрите также