Скачать фильм исход бесплатно в хорошем качестве через торрент бесплатно


Цари и боги через торрент в хорошем качестве бесплатно BDRip-AVC 60fps

GeneralUnique ID : 178638606503885167287697364720820188771 (0x86648B4D585F0199B901CEBA9FDC7663)Complete name : A:\Фильмы\BDRip-avc\Исход Цари и Боги BDRip-AVC 60fps R.G. HD-Films.mkvFormat : MatroskaFormat version : Version 4 / Version 2File size : 3.97 GiBDuration : 2h 30mnOverall bit rate : 3 785 KbpsMovie name : Tiberiumsun69Encoded date : UTC 2015-06-25 12:13:53Writing application : mkvmerge v7.9.0 ('Birds') 64bitWriting library : libebml v1.3.1 + libmatroska v1.4.2Attachment : Yes / Yes / Yes

VideoID : 1Format : AVCFormat/Info : Advanced Video CodecFormat profile : [email protected] settings, CABAC : YesFormat settings, ReFrames : 4 framesCodec ID : V_MPEG4/ISO/AVCDuration : 2h 30mnBit rate : 3 140 KbpsWidth : 1 024 pixelsHeight : 424 pixelsDisplay aspect ratio : 2.40:1Frame rate : 59.940 fpsColor space : YUVChroma subsampling : 4:2:0Bit depth : 8 bitsScan type : ProgressiveBits/(Pixel*Frame) : 0.121Stream size : 3.22 GiB (81%)Title : Tiberiumsun69Writing library : x264 core 146 r2538 121396cEncoding settings : cabac=1 / ref=4 / deblock=1:0:0 / analyse=0x3:0x113 / me=umh / subme=9 / psy=1 / psy_rd=1.00:0.10 / mixed_ref=1 / me_range=32 / chroma_me=1 / trellis=2 / 8x8dct=1 / cqm=0 / deadzone=21,11 / fast_pskip=0 / chroma_qp_offset=-3 / threads=12 / lookahead_threads=3 / sliced_threads=0 / nr=0 / decimate=1 / interlaced=0 / bluray_compat=0 / constrained_intra=0 / bframes=16 / b_pyramid=2 / b_adapt=2 / b_bias=0 / direct=3 / weightb=1 / open_gop=0 / weightp=2 / keyint=600 / keyint_min=59 / scenecut=40 / intra_refresh=0 / rc_lookahead=60 / rc=2pass / mbtree=1 / bitrate=3140 / ratetol=1.0 / qcomp=0.60 / qpmin=0 / qpmax=69 / qpstep=4 / cplxblur=20.0 / qblur=0.5 / vbv_maxrate=50000 / vbv_bufsize=62500 / nal_hrd=none / filler=0 / ip_ratio=1.40 / aq=1:1.00Language : EnglishDefault : YesForced : No

AudioID : 2Format : AC-3Format/Info : Audio Coding 3Mode extension : CM (complete main)Codec ID : A_AC3Duration : 2h 30mnBit rate mode : ConstantBit rate : 640 KbpsChannel(s) : 6 channelsChannel positions : Front: L C R, Side: L R, LFESampling rate : 48.0 KHzBit depth : 16 bitsCompression mode : LossyStream size : 688 MiB (17%)Title : ДубляжLanguage : RussianDefault : YesForced : No

Text #1ID : 3Format : UTF-8Codec ID : S_TEXT/UTF8Codec ID/Info : UTF-8 Plain TextTitle : ФорсированныеLanguage : RussianDefault : YesForced : No

Text #2ID : 4Format : UTF-8Codec ID : S_TEXT/UTF8Codec ID/Info : UTF-8 Plain TextTitle : ПолныеLanguage : RussianDefault : NoForced : No

Text #3ID : 5Format : UTF-8Codec ID : S_TEXT/UTF8Codec ID/Info : UTF-8 Plain TextTitle : ПолныеLanguage : EnglishDefault : NoForced : No

Menu00:00:00.000 : en:00:00:00.00000:03:55.401 : en:00:03:55.40100:06:51.994 : en:00:06:51.99400:11:47.706 : en:00:11:47.70600:14:29.451 : en:00:14:29.45100:18:37.657 : en:00:18:37.65700:22:15.834 : en:00:22:15.83400:26:51.151 : en:00:26:51.15100:30:31.287 : en:00:30:31.28700:36:41.364 : en:00:36:41.36400:40:48.320 : en:00:40:48.32000:44:49.936 : en:00:44:49.93600:48:47.798 : en:00:48:47.79800:51:16.447 : en:00:51:16.44700:54:22.217 : en:00:54:22.21700:57:32.657 : en:00:57:32.65701:00:31.168 : en:01:00:31.16801:04:41.543 : en:01:04:41.54301:06:49.045 : en:01:06:49.04501:11:01.881 : en:01:11:01.88101:16:53.692 : en:01:16:53.69201:21:18.038 : en:01:21:18.03801:24:30.355 : en:01:24:30.35501:28:08.533 : en:01:28:08.53301:30:54.157 : en:01:30:54.15701:34:14.564 : en:01:34:14.56401:37:20.542 : en:01:37:20.54201:39:20.203 : en:01:39:20.20301:42:40.319 : en:01:42:40.31901:46:50.069 : en:01:46:50.06901:49:02.661 : en:01:49:02.66101:52:18.314 : en:01:52:18.31401:57:29.876 : en:01:57:29.87602:00:23.841 : en:02:00:23.84102:05:41.324 : en:02:05:41.32402:07:31.268 : en:02:07:31.26802:13:38.467 : en:02:13:38.46702:16:21.881 : en:02:16:21.88102:19:39.995 : en:02:19:39.99502:23:19.799 : en:02:23:19.799

piratbit.ru

Цари и боги через торрент в хорошем качестве бесплатно 1080p] 2xDub (Rus

ОбщееУникальный идентификатор                 : 201156788470166560449011739937798187481 (0x97556363E72030B2AD7A4BF6308969D9)Полное имя                               : D:\Исход. Цари и боги (2014) BDRip 1080p.mkvФормат                                   : MatroskaВерсия формата                           : Version 4 / Version 2Размер файла                             : 20,8 ГбайтПродолжительность                        : 2 ч. 30 м.Общий поток                              : 19,8 Мбит/секДата кодирования                         : UTC 2015-04-03 17:40:13Программа кодирования                    : mkvmerge v6.9.1 ('Blue Panther') 32bit built on Apr 18 2014 18:15:44Библиотека кодирования                   : libebml v1.3.0 + libmatroska v1.4.1Attachements                             : cover.jpg

ВидеоИдентификатор                            : 1Формат                                   : AVCФормат/Информация                        : Advanced Video CodecПрофиль формата                          : [email protected]Параметр CABAC формата                   : ДаПараметр ReFrames формата                : 5 кадровИдентификатор кодека                     : V_MPEG4/ISO/AVCПродолжительность                        : 2 ч. 30 м.Битрейт                                  : 15,2 Мбит/секШирина                                   : 1920 пикселейВысота                                   : 800 пикселейСоотношение сторон                       : 2,40:1Режим частоты кадров                     : ПостоянныйЧастота кадров                           : 23,976 кадра/секЦветовое пространство                    : YUVСубдискретизация насыщенности            : 4:2:0Битовая глубина                          : 8 битТип развёртки                            : ПрогрессивнаяБит/(Пиксели*Кадры)                      : 0.412Размер потока                            : 15,9 Гбайт (77%)Заголовок                                : VietHDБиблиотека кодирования                   : x264 core 146 r0+2584 6cf85c6 t_mod_Custom [[email protected] ]Настройки программы                      : cabac=1 / ref=5 / deblock=1:-3:-3 / analyse=0x3:0x133 / me=tesa / subme=10 / psy=1 / fade_compensate=0.00 / psy_rd=1.03:0.00 / mixed_ref=1 / me_range=24 / chroma_me=1 / trellis=2 / 8x8dct=1 / cqm=0 / deadzone=21,11 / fast_pskip=1 / chroma_qp_offset=-2 / threads=24 / lookahead_threads=4 / sliced_threads=0 / nr=0 / decimate=1 / interlaced=0 / bluray_compat=0 / constrained_intra=0 / fgo=0 / bframes=9 / b_pyramid=2 / b_adapt=2 / b_bias=0 / direct=3 / weightb=1 / open_gop=0 / weightp=2 / keyint=250 / keyint_min=23 / scenecut=40 / intra_refresh=0 / rc=crf / mbtree=0 / crf=15.5000 / qcomp=0.60 / qpmin=0:0:0 / qpmax=69:69:69 / qpstep=4 / ip_ratio=1.40 / pb_ratio=1.20 / aq=3:0.82 / aq-sensitivity=10.00 / aq-factor=1.00:1.00:1.00 / aq2=0 / aq3=0 / zones=48,550,crf=14/2286,2524,crf=14/7364,7457,crf=14/7702,7756,crf=14/8150,8255,crf=14/8416,8520,crf=14/11139,11300,crf=14/12136,12158,crf=14/13587,13639,crf=14/14292,14419,crf=14/14942,14988,crf=14/15091,16843,crf=14/20909,20955,crf=14/23048,23170,crf=14/23353,23616,crf=14/30159,30350,crf=14/32186,32311,crf=14/37328,38180,crf=14/38502,38628,crf=14/41469,41709,crf=14/41797,41874,crf=14/42125,42198,crf=14/60030,60830,crf=14/61570,61615,crf=14/61667,62551,crf=14/63792,64166,crf=14/64286,64344,crf=14/75575,75658,crf=14/75731,75776,crf=14/78215,82710,crf=14.8/92675,92742,crf=14/93727,93823,crf=14/103591,103872,crf=14/103928,103988,crf=14/107025,107136,crf=14/107502,107947,crf=14/108194,108235,crf=14/110618,114824,crf=14.8/115208,116917,crf=14/131412,131520,crf=14/132171,133360,crf=14/137230,142901,crf=14.8/148513,153687,crf=14.8/161776,161882,crf=14/162822,163256,crf=14/165135,165268,crf=14/169248,169361,crf=14/170236,170298,crf=14/170375,173198,crf=14/174229,174340,crf=14/174559,174816,crf=14/175517,175585,crf=14/175701,175772,crf=14/184002,191411,crf=14.8/191412,191772,crf=14/200965,201239,crf=14/201514,201605,crf=14/205819,206155,crf=14Язык                                     : EnglishDefault                                  : ДаForced                                   : НетКоэффициенты матрицы                     : BT.709colour_range                             : Limited

Аудио #1Идентификатор                            : 2Формат                                   : DTSФормат/Информация                        : Digital Theater SystemsРежим                                    : 16Параметр Endianness формата              : BigИдентификатор кодека                     : A_DTSПродолжительность                        : 2 ч. 30 м.Вид битрейта                             : ПостоянныйБитрейт                                  : 768 Кбит/секКаналы                                   : 6 каналовРасположение каналов                     : Front: L C R, Side: L R, LFEЧастота                                  : 48,0 КГцБитовая глубина                          : 24 битМетод сжатия                             : С потерямиРазмер потока                            : 826 Мбайт (4%)Заголовок                                : Дубляж, Blu-ray EURЯзык                                     : RussianDefault                                  : ДаForced                                   : Нет

Аудио #2Идентификатор                            : 3Формат                                   : AC-3Формат/Информация                        : Audio Coding 3Расширение режима                        : CM (complete main)Параметр Endianness формата              : BigИдентификатор кодека                     : A_AC3Продолжительность                        : 2 ч. 30 м.Вид битрейта                             : ПостоянныйБитрейт                                  : 448 Кбит/секКаналы                                   : 6 каналовРасположение каналов                     : Front: L C R, Side: L R, LFEЧастота                                  : 48,0 КГцБитовая глубина                          : 16 битМетод сжатия                             : С потерямиРазмер потока                            : 482 Мбайт (2%)Заголовок                                : Дубляж, Blu-ray EURЯзык                                     : UkrainianDefault                                  : НетForced                                   : Нет

Аудио #3Идентификатор                            : 4Формат                                   : DTSФормат/Информация                        : Digital Theater SystemsРежим                                    : 16Параметр Endianness формата              : BigИдентификатор кодека                     : A_DTSПродолжительность                        : 2 ч. 30 м.Вид битрейта                             : ПостоянныйБитрейт                                  : 1509 Кбит/секКаналы                                   : 6 каналовРасположение каналов                     : Front: L C R, Side: L R, LFEЧастота                                  : 48,0 КГцБитовая глубина                          : 24 битМетод сжатия                             : С потерямиРазмер потока                            : 1,58 Гбайт (8%)Заголовок                                : Одноголосый закадровый, Д.ЕсаревЯзык                                     : RussianDefault                                  : НетForced                                   : Нет

Аудио #4Идентификатор                            : 5Формат                                   : DTSФормат/Информация                        : Digital Theater SystemsРежим                                    : 16Параметр Endianness формата              : BigИдентификатор кодека                     : A_DTSПродолжительность                        : 2 ч. 30 м.Вид битрейта                             : ПостоянныйБитрейт                                  : 1509 Кбит/секКаналы                                   : 6 каналовРасположение каналов                     : Front: L C R, Side: L R, LFEЧастота                                  : 48,0 КГцБитовая глубина                          : 24 битМетод сжатия                             : С потерямиЗадержка видео                           : 11 мс.Размер потока                            : 1,58 Гбайт (8%)Язык                                     : EnglishDefault                                  : НетForced                                   : Нет

Текст #1Идентификатор                            : 6Формат                                   : UTF-8Идентификатор кодека                     : S_TEXT/UTF8Идентификатор кодека/Информация          : UTF-8 Plain TextЗаголовок                                : ForcedЯзык                                     : RussianDefault                                  : ДаForced                                   : Нет

Текст #2Идентификатор                            : 7Формат                                   : UTF-8Идентификатор кодека                     : S_TEXT/UTF8Идентификатор кодека/Информация          : UTF-8 Plain TextЗаголовок                                : FullЯзык                                     : RussianDefault                                  : НетForced                                   : Нет

Текст #3Идентификатор                            : 8Формат                                   : UTF-8Идентификатор кодека                     : S_TEXT/UTF8Идентификатор кодека/Информация          : UTF-8 Plain TextЗаголовок                                : FullЯзык                                     : UkrainianDefault                                  : НетForced                                   : Нет

Текст #4Идентификатор                            : 9Формат                                   : UTF-8Идентификатор кодека                     : S_TEXT/UTF8Идентификатор кодека/Информация          : UTF-8 Plain TextЗаголовок                                : FullЯзык                                     : EnglishDefault                                  : НетForced                                   : Нет

Текст #5Идентификатор                            : 10Формат                                   : UTF-8Идентификатор кодека                     : S_TEXT/UTF8Идентификатор кодека/Информация          : UTF-8 Plain TextЗаголовок                                : SDHЯзык                                     : EnglishDefault                                  : НетForced                                   : Нет

Меню00:00:00.000                             : en:00:00:00.00000:03:55.402                             : en:00:03:55.40200:06:51.995                             : en:00:06:51.99500:11:47.707                             : en:00:11:47.70700:14:29.452                             : en:00:14:29.45200:18:37.658                             : en:00:18:37.65800:22:15.834                             : en:00:22:15.83400:26:51.151                             : en:00:26:51.15100:30:31.288                             : en:00:30:31.28800:36:41.366                             : en:00:36:41.36600:40:48.321                             : en:00:40:48.32100:44:49.937                             : en:00:44:49.93700:48:47.800                             : en:00:48:47.80000:51:16.448                             : en:00:51:16.44800:54:22.217                             : en:00:54:22.21700:57:32.658                             : en:00:57:32.65801:00:31.169                             : en:01:00:31.16901:04:41.544                             : en:01:04:41.54401:06:49.047                             : en:01:06:49.04701:11:01.883                             : en:01:11:01.88301:16:53.692                             : en:01:16:53.69201:21:18.040                             : en:01:21:18.04001:24:30.357                             : en:01:24:30.35701:28:08.533                             : en:01:28:08.53301:30:54.157                             : en:01:30:54.15701:34:14.566                             : en:01:34:14.56601:37:20.543                             : en:01:37:20.54301:39:20.204                             : en:01:39:20.20401:42:40.321                             : en:01:42:40.32101:46:50.070                             : en:01:46:50.07001:49:02.661                             : en:01:49:02.66101:52:18.315                             : en:01:52:18.31501:57:29.876                             : en:01:57:29.87602:00:23.842                             : en:02:00:23.84202:05:41.325                             : en:02:05:41.32502:07:31.269                             : en:02:07:31.26902:13:38.469                             : en:02:13:38.46902:16:21.882                             : en:02:16:21.88202:19:39.997                             : en:02:19:39.99702:23:19.800                             : en:02:23:19.800

piratbit.ru

Цари и боги через торрент в хорошем качестве бесплатно 1080p

ОбщееУникальный идентификатор : 244506302019329400640933011259866363721 (0xB7F2336BE4307B2C934C185F20C63749)Полное имя : E:\закачки\Exodus Gods and Kings.Rip by SeRoGa00.mkvФормат : MatroskaВерсия формата : Version 2Размер файла : 22,0 ГбайтПродолжительность : 2 ч. 30 м.Общий поток : 21,0 Мбит/секДата кодирования : UTC 2015-04-02 04:40:33Программа кодирования : mkvmerge v3.4.0 ('Rapunzel') сборка от May 15 2010 09:38:20Библиотека кодирования : libebml v0.8.0 + libmatroska v0.9.0

ВидеоИдентификатор : 1Формат : AVCФормат/Информация : Advanced Video CodecПрофиль формата : [email protected]Параметр CABAC формата : ДаПараметр ReFrames формата : 4 кадраИдентификатор кодека : V_MPEG4/ISO/AVCПродолжительность : 2 ч. 30 м.Битрейт : 19,2 Мбит/секШирина : 1920 пикселейВысота : 1600 пикселейСоотношение сторон : 1,200Частота кадров : 23,976 кадра/секЦветовое пространство : YUVСубдискретизация насыщенности : 4:2:0Битовая глубина : 8 битТип развёртки : ПрогрессивнаяБит/(Пиксели*Кадры) : 0.260Размер потока : 20,1 Гбайт (91%)Заголовок : Rip by SeRoGa00Библиотека кодирования : x264 core 142 r2479 dd79a61Настройки программы : cabac=1 / ref=4 / deblock=1:-3:-3 / analyse=0x3:0x113 / me=umh / subme=9 / psy=1 / psy_rd=1.00:0.15 / mixed_ref=1 / me_range=24 / chroma_me=1 / trellis=2 / 8x8dct=1 / cqm=0 / deadzone=21,11 / fast_pskip=1 / chroma_qp_offset=-3 / threads=9 / lookahead_threads=1 / sliced_threads=0 / nr=0 / decimate=1 / interlaced=0 / bluray_compat=0 / constrained_intra=0 / bframes=8 / b_pyramid=2 / b_adapt=2 / b_bias=0 / direct=3 / weightb=1 / open_gop=0 / weightp=2 / keyint=250 / keyint_min=23 / scenecut=40 / intra_refresh=0 / rc_lookahead=60 / rc=crf / mbtree=1 / crf=18.0 / qcomp=0.60 / qpmin=10 / qpmax=69 / qpstep=4 / vbv_maxrate=30000 / vbv_bufsize=30000 / crf_max=0.0 / nal_hrd=none / filler=0 / ip_ratio=1.40 / aq=1:1.00Язык : EnglishDefault : НетForced : Нет

Аудио #1Идентификатор : 2Формат : DTSФормат/Информация : Digital Theater SystemsИдентификатор кодека : A_DTSПродолжительность : 2 ч. 30 м.Вид битрейта : ПостоянныйБитрейт : 755 Кбит/секКаналы : 6 каналовРасположение каналов : Front: L C R, Side: L R, LFEЧастота : 48,0 КГцБитовая глубина : 24 битМетод сжатия : С потерямиРазмер потока : 811 Мбайт (4%)Язык : RussianDefault : ДаForced : Нет

Аудио #2Идентификатор : 3Формат : AC-3Формат/Информация : Audio Coding 3Расширение режима : CM (complete main)Параметр Endianness формата : BigИдентификатор кодека : A_AC3Продолжительность : 2 ч. 30 м.Вид битрейта : ПостоянныйБитрейт : 640 Кбит/секКаналы : 6 каналовРасположение каналов : Front: L C R, Side: L R, LFEЧастота : 48,0 КГцБитовая глубина : 16 битМетод сжатия : С потерямиРазмер потока : 688 Мбайт (3%)Язык : EnglishDefault : НетForced : Нет

piratbit.ru

Цари и боги через торрент в хорошем качестве бесплатно 2014 г.

Размер: 1.46 GB | Добавлен: 2 года 9 мес. назад | Торрент скачан:2060 раз
Реклама Дарим 3000 рублей за регистрацию, не упусти свой шанс получить шикарный бонус!!!

02-01-2015 16:11 Исход: Цари и боги Скачать торрент  

Исход: Цари и боги / Exodus: Gods and Kings

Год выпуска: 2014Страна: Великобритания, США, ИспанияЖанр: боевик, драма, приключенияПродолжительность: 02:20:14Перевод: ДубляжСубтитры: отсутствуют

Режиссер: Ридли СкоттПродюссер: Питер Чернин, Марк Хаффам, Майкл ШеферСценарий: Адам Купер, Билл Колладж, Джефри Кейн

Бюджет: $140 000 000Премьера в мире: 3 декабря 2014

IMDB 6.30 (27 551)

В ролях: Кристиан Бэйл, Джоэл Эдгертон, Джон Туртурро, Аарон Пол, Бен Мендельсон, Мария Вальверде, Сигурни Уивер, Бен Кингсли, Хиам Аббасс, Исаак Эндрюс

Описание: Ветхозаветная история о великом пророке Моисее и освобождении еврейского народа из египетского плена. Моисей появился на свет в те времена, когда фараон приказал убивать всех новорожденных мальчиков еврейского происхождения. Чтобы спасти его, мать положила малыша в корзину из тростника и отправила вниз по Нилу. Ребенка нашла дочь фараона, которая усыновила его и растила рядом с Рамзесом — будущим фараоном. Много лет спустя, став мужчиной, Моисей бежит из Египта, а затем возвращается туда по велению Господа, чтобы избавить свой народ от оков рабства...

Качество: TeleSynch-AVCФормат: MKVВидео кодек: MPEG4Видео: 1338 Кбит/сек, 720х304, 29,970 кадров/секАудио#1: AC3, 192 Кбит/сек, 2 канала, 44,1 КГц - русскийАудио#2: AAC, 320 Кбит/сек, 2 канала, 48,0 КГц - английский

Релиз от: makarevich

Формат : MatroskaВерсия формата : Version 4 / Version 2Размер файла : 1,46 ГбайтПродолжительность : 2 ч. 20 м.Общий поток : 1492 Кбит/секДата кодирования : UTC 2015-01-02 15:42:26Программа кодирования : mkvmerge v6.9.1 ('Blue Panther') 32bit built on Apr 18 2014 18:15:44Библиотека кодирования : Lavf55.7.100LABEL : Chapter 1TCHAPTER : 129953504Язык : eng

ВидеоИдентификатор : 1Формат : AVCФормат/Информация : Advanced Video CodecПрофиль формата : [email protected]Параметр CABAC формата : НетПараметр ReFrames формата : 4 кадраИдентификатор кодека : V_MPEG4/ISO/AVCПродолжительность : 2 ч. 20 м.Ширина : 720 пикселейВысота : 304 пикселяСоотношение сторон : 2,35:1Режим частоты кадров : ПостоянныйЧастота кадров : 29,970 кадров/секЦветовое пространство : YUVСубдискретизация насыщенности : 4:2:0Битовая глубина : 8 битТип развёртки : ПрогрессивнаяЗаголовок : Main videoЯзык : UnspecifiedDefault : ДаForced : НетPART_NUMBER : 0

Аудио #1Идентификатор : 2Формат : AC-3Формат/Информация : Audio Coding 3Расширение режима : CM (complete main)Параметр Endianness формата : BigИдентификатор кодека : A_AC3Продолжительность : 2 ч. 20 м.Вид битрейта : ПостоянныйБитрейт : 192 Кбит/секКаналы : 2 каналаРасположение каналов : Front: L RЧастота : 44,1 КГцБитовая глубина : 16 битМетод сжатия : С потерямиЗадержка видео : 19 с.Размер потока : 193 Мбайт (13%)Язык : UnspecifiedDefault : ДаForced : ДаPART_NUMBER : 1

Аудио #2Идентификатор : 3Формат : AACФормат/Информация : Advanced Audio CodecПрофиль формата : LCИдентификатор кодека : A_AACПродолжительность : 2 ч. 20 м.Каналы : 2 каналаРасположение каналов : Front: L RЧастота : 48,0 КГцМетод сжатия : С потерямиЗаголовок : UnspecifiedDefault : НетForced : Нет

Меню00:00:00.000 : :Chapter 1

Исход: Цари и боги скачать торрент

Скачать Исход: Цари и боги через торрент http://i64.fastpic.ru/big/2015/0102/cf/3f9fd80602b80d4dccd653dca10b72cf.jpg Скачать фильм Исход: Цари и боги через торрент бесплантно в хорошем качестве Описание: Ветхозаветная история о великом пророке Моисее и освобождении еврейского народа из египетского плена. Моисей появился на свет в ... 2015-01-02 16:11 9.4 10 69

Loading...

Loading...

Рекламный пират

02-01-2015 16:25 Исход: Цари и боги Скачать торрент  

02-01-2015 16:42 Исход: Цари и боги Скачать торрент  

02-01-2015 16:47 Исход: Цари и боги Скачать торрент  

killermax2013всегда пожалуйста! пока синхронизируешь такое качество, все глаза вывернешь наизнанку

02-01-2015 20:13 Исход: Цари и боги Скачать торрент  

Как фильм вообще? Кто в кино ходил?

04-01-2015 19:49 Исход: Цари и боги Скачать торрент  

фильм не впечатлил,на раз и то под настроение

07-01-2015 07:05 Исход: Цари и боги Скачать торрент  

Сказка для детей.В кинотеатр идти-зря деньги выкинуть!Хорошо что есть торренты,которые спасают от бестолковых растрат!

07-01-2015 14:55 Исход: Цари и боги Скачать торрент  

Классный фильмец. Все как по библии! Игра актеров на высоте ! Моисей в этом фильме показан лучше всего ! Те кто ругаю это фильм , найдитен лучше фильм про Моисея ?!!

07-01-2015 15:10 Исход: Цари и боги Скачать торрент  

Destroyer писал(а):

Те кто ругаю это фильм , найдитен лучше фильм про Моисея ?!!

кино вроде изначально не о нем было, по крайней мере трейлеры нагло наврали

Pекламный агент PB

08-01-2015 10:37 Исход: Цари и боги Скачать торрент  

Отличный фильм!!!Спасибо!В нём главное не качество , а смысл(в качестве конечно было бы преимущество для тех кто хотел боевик,но они всё равно бы не поняли про что он)!Я атеист но подобные фильмы всегда смотрю,в них рассказывают не про то во что верить,а что вера всё же нужна и ни важно во что Вы верите - христианство,ислам,буддизм.Главное сама вера!И жить по основным заповедям,а они в любой вере одинаковые,это и значит быть человеком.Я не верю в Бога,то есть я не верю что кто то один всё это создал и этим правит,но я стараюсь не нарушать "законы-заповеди" и этим я приближаюсь к человеку.

А фильм трогательный и вполне смотрибельный!

08-01-2015 10:46 Исход: Цари и боги Скачать торрент  

killermax2013 писал(а):

Destroyer писал(а):

Те кто ругаю это фильм , найдитен лучше фильм про Моисея ?!!

кино вроде изначально не о нем было, по крайней мере трейлеры нагло навралиТрейлеры создаются что бы привлечь людей к просмотру фильма.А к просмотру подобных фильмов уже пора не только привлекать но и заставлять смотреть и заставлять думать,а то безбашенность уже достала

Дорогой пользователь! Огромная просьба, поблагодарите релизера, оцените раздачу и оставьте свои комментарий, если Вы скачали Исход: Цари и боги через торрент бесплатно! Внесите свою лепту в развитие PiratBit!

Комментировать посты могут только пользователи прошедшие не сложную регистрацию

Исход: Цари и боги через торрент Скачать бесплатно Исход: Цари и боги Исход: Цари и боги скачать торрент Исход: Цари и боги смотреть онлайн Cкачать фильм Исход: Цари и боги бесплатно Исход: Цари и боги скачать торрент в хорошем качестве Исход: Цари и боги смотреть онлайн бесплатно в хорошем качестве

Вы можете начинать темыВы можете отвечать на сообщенияВы не можете редактировать свои сообщенияВы не можете удалять свои сообщенияВы не можете голосовать в опросахВы не можете прикреплять файлы к сообщениямВы можете скачивать файлы

piratbit.ru


Смотрите также