Скачать фильм кэрол 2015 через торрент в хорошем качестве бесплатно


Скачать фильм Кэрол (2015) через торрент

19 декабря 2016 10:17 Кэрол / Carol (2015) BDRip | iTunes .torrent   [Информация о файле (нажмите для просмотра)] Перевод: Дубляж [iTunes Russia] Качество: BDRip (исх. Carol.2015.1080p.BluRay.AVC.DTS-HD.MA.5.1-RARBG)Формат: AVIВидео: xvid, 1636 Kb/s, 720x384Звук: Russian: AC3, 384 Kb/s (6 ch), English: AC3, 448 Kb/s (6 ch)Субтитры: Russian, English (внешние) 2,06 Gb 31 4 19 декабря 2016 10:17 Кэрол / Carol (2015) HDRip от Scarabey | iTunes .torrent   [Информация о файле (нажмите для просмотра)] Перевод: Профессиональный (полное дублирование) [iTunes]Субтитры: нетВидео: 688x368 (1.87:1), 23.976 fps, XviD build 73 ~1293 kbps avg, 0.21 bit/pixelАудио: 48 kHz, AC3 Dolby Digital, 3/2 (L,C,R,l,r) + LFE ch, ~384 kbps avg 1,4 Gb 82 7 19 декабря 2016 10:17 Кэрол / Carol (2015) BDRip 720p от Scarabey | iTunes .torrent   [Информация о файле (нажмите для просмотра)] Перевод: Профессиональный (полное дублирование) [iTunes Russia]Субтитры: ]русские и англ.Качество: BDRip 720pФормат: MKVВидео: 1280х694, 23.976 fps, AVC ~8680 kbps avg, 0.21 bit/pixelАудио: 48 kHz, AC3 Dolby Digital, 3/2 (L,C,R,l,r) + LFE ch, ~384 kbps avg - iTunes RussiaАудио: 48 kHz, DTS, 3/2 (L,C,R,l,r) + LFE ch, ~1536 kbps avg - оригинал 9,15 Gb 14 6 19 декабря 2016 10:17 Кэрол / Carol (2015) HDRip от Scarabey | iTunes .torrent   [Информация о файле (нажмите для просмотра)] Перевод: Профессиональный (полное дублирование) [iTunes]Субтитры: нетВидео: 624x336 (1.86:1), 23.976 fps, XviD build 73 ~746 kbps avg, 0.15 bit/pixelАудио: 48 kHz, MPEG Layer 3, 2 ch, ~128.00 kbps avg 749,15 Mb 35 3 19 декабря 2016 10:17 Кэрол / Carol (2015) BDRip 720p | iTunes .torrent   [Информация о файле (нажмите для просмотра)] Перевод: Профессиональный (дублированный) iTunes RussiaФормат: MatroskaВидео: 1280x692 at 23.976 fps, [email protected], ~9836 kbps avgАудио#1: Russian: 48 kHz, AC3, 3/2 (L,C,R,l,r) + LFE ch, ~384.00 kbps avg |Дубляж, iTunes Russia|Аудио#2: English: 48 kHz, DTS, 3/2 (L,C,R,l,r) + LFE ch, ~1509.00 kbps avgСубтитры: Russian, English, RomanianВидео: Идентификатор : 1 Формат : AVC Формат/Информация : Advanced Video Codec Профиль формата : [email protected] Параметр CABAC формата : Да Параметр ReFrames формата : 9 кадров Идентификатор кодека : V_MPEG4/ISO/AVC Продолжительность : 1 ч. 58 м. Битрейт : 9836 Кбит/сек Ширина : 1280 пикселей Высота : 692 пикселя Соотношение сторон : 1,85:1 Режим частоты кадров : Постоянный Частота кадров : 23,976 кадра/сек Цветовое пространство : YUV Субдискретизация насыщенности : 4:2:0 Битовая глубина : 8 бит Тип развёртки : Прогрессивная Бит/(Пиксели*Кадры) : 0.463 Размер потока : 8,14 Гбайт (82%) Заголовок : SbR Библиотека кодирования : x264 core 148 r2638+53 bb29004 t_mod_Custom [[email protected] X86_64] Настройки программы : cabac=1 / ref=9 / deblock=1:-3:-3 / analyse=0x3:0x133 / me=esa / subme=10 / psy=1 / fade_compensate=0.00 / psy_rd=1.00:0.05 / mixed_ref=1 / me_range=24 / chroma_me=1 / trellis=2 / 8x8dct=1 / cqm=0 / deadzone=21,11 / fast_pskip=0 / chroma_qp_offset=-3 / threads=6 / lookahead_threads=1 / sliced_threads=0 / nr=0 / decimate=1 / interlaced=0 / bluray_compat=0 / constrained_intra=0 / fgo=0 / bframes=11 / b_pyramid=2 / b_adapt=2 / b_bias=0 / direct=3 / weightb=1 / open_gop=0 / weightp=2 / keyint=250 / keyint_min=23 / scenecut=40 / intra_refresh=0 / rc_lookahead=60 / rc=crf / mbtree=0 / crf=17.5000 / qcomp=0.62 / qpmin=0:0:0 / qpmax=69:69:69 / qpstep=4 / vbv_maxrate=62500 / vbv_bufsize=78125 / crf_max=0.0 / nal_hrd=none / filler=0 / ip_ratio=1.30 / pb_ratio=1.20 / aq=1:0.65 / aq-sensitivity=10.00 / aq-factor=1.00:1.00:1.00 / aq2=0 / aq3=0 Язык : English Default : Да Forced : Нет Цветовой диапазон : Limited Основные цвета : BT.709 Характеристики трансфера : BT.709 Коэффициенты матрицы : BT.709Аудио #1: Идентификатор : 2 Формат : AC-3 Формат/Информация : Audio Coding 3 Расширение режима : CM (complete main) Параметр Endianness формата : Big Идентификатор кодека : A_AC3 Продолжительность : 1 ч. 58 м. Вид битрейта : Постоянный Битрейт : 384 Кбит/сек Каналы : 6 каналов Расположение каналов : Front: L C R, Side: L R, LFE Частота : 48,0 КГц Метод сжатия : С потерями Размер потока : 325 Мбайт (3%) Заголовок : AC3 5.1 @ 384 Kbps, Дубляж, iTunes Язык : Russian Default : Да Forced : НетАудио #2: Идентификатор : 3 Формат : DTS Формат/Информация : Digital Theater Systems Режим : 16 Параметр Endianness формата : Big Идентификатор кодека : A_DTS Продолжительность : 1 ч. 58 м. Вид битрейта : Постоянный Битрейт : 1509 Кбит/сек Каналы : 6 каналов Расположение каналов : Front: L C R, Side: L R, LFE Частота : 48,0 КГц Битовая глубина : 24 бит Метод сжатия : С потерями Размер потока : 1,25 Гбайт (13%) Заголовок : DTS 5.1 @ 1536 Kbps, Original Язык : English Default : Нет Forced : Нет 9,9 Gb 24 2 19 декабря 2016 10:17 Кэрол / Carol (2015) BDRip от Dalemake | D | iTunes .torrent   [Информация о файле (нажмите для просмотра)] Перевод: Профессиональный (полное дублирование) iTunes RussiaСубтитры: нетКачество: BDRip [Carol.2015.1080p.BluRay.AVC.DTS-HD.MA.5.1-RARBG]Формат: AVIВидео: 720x384 (1.88:1), 23.976 fps, XviD build 67 ~1369 kbps avg, 0.21 bit/pixelАудио: 48 kHz, AC3 Dolby Digital, 3/2 (L,C,R,l,r) + LFE ch, ~384 kbps avg 1,46 Gb 77 3 19 декабря 2016 10:17 Кэрол / Carol (2015) BDRip 1080p | L2 .torrent   [Информация о файле (нажмите для просмотра)] Перевод: Любительский двухголосый [Parovoz Production]Кодек: x264Качество: BDRip 1080pВидео: MPEG4 AVC (h364) 1920x1036 (1.85:1) 23.976 fps 15.0 MbpsЗвук: 1: Russian AC3 48 kHz 2ch 192 kbps - двухголосый закадровый 2: English DTS 48 kHz 6ch 1509 kbps - оригиналСубтитры: 1: Russian SRT UTF-8 2: English SRT UTF-8 13,85 Gb 5 7 19 декабря 2016 10:17 Кэрол / Carol (2015) BDRip от Twi7ter | L2 .torrent   [Информация о файле (нажмите для просмотра)] Перевод: Любительский (двухголосый)[Parovoz Production]Субтитры: НетКачество: BDRip| исх. Carol 2015 COMPLETE BLURAY-LAZERS |Формат: AVIВидео: 704x384 (1.83:1), 23.976 fps, XviD build 73 ~1311 kbps avg, 0.20 bit/pixelАудио №1: 48 kHz, AC3 Dolby Digital, 2/0 (L,R) ch, ~192 kbps - RUSАудио №2: 48 kHz, AC3 Dolby Digital, 2/0 (L,R) ch, ~256 kbps - ENG 1,47 Gb 45 4

gig-torrent.net

Кэрол (2015) смотреть онлайн или скачать фильм через торрент. Трейлеры, правдивые оценки, рецензии, комментарии, похожие фильмы, саундтрек, новости и интересные факты на Fast-torrent

59

Общая оценка

6.41

59 голосов

  • 6.4123 из 10, голосов:59

Можете оставить свой голос отметив одну из звездочек.

 

 

Рекомендаций 18

Всего рекомендаций 18

Скачали 27119

Дата выхода в России (или в Мире): 17.05.2015

Дата выхода на DVD: 25.04.2016

Жанр: Драма, Зарубежный фильм, Мелодрама

usgbfrau  tagHD 1080,  tagHD 720,  tagЭкранизация

Продолжительность: 01:58

Экранизация по произведению: Патриция Хайсмит "Цена соли"

Режиссер: Тодд Хейнс

В ролях: Кейт Бланшетт, Руни Мара, Кайл Чандлер, Сара Полсон, Джейк Лэси, Джон Магаро, Кори Майкл Смит, Кевин Краули, Ник Паич, Кэрри Браунштейн

В неповторимой атмосфере изысканного Нью-Йорка 50-х годов юная Терез встречает Кэрол, ослепительную зрелую женщину, томящуюся в браке без любви. Мимолетный проблеск влечения перерастает во всепоглощающее чувство, которое навсегда изменит их жизни. Но как довериться любви, если твоя судьба зависит от предрассудков безжалостного времени?

Интересные факты:

  • Картина представляет собой экранизацию романа Патриции Хайсмит 1953 года «Цена соли» (The Price of Salt).
  • Сюжет разворачивается в промежутке от Рождества 1952 года и до начала 1953 года. На настенном календаре в редакции «The New York Times» можно увидеть, что идёт апрель 1953 года. В записке, в которой Кэрол спрашивает Терез, смогут ли они увидеться сегодня, стоит дата 17 апреля. Таким образом становится понятно, что с момента последней встречи Кэрол и Терез прошло 3,5 месяца.
  • Было решено выдвинуть Руни Мару на премию в номинации «лучшая актриса второго плана», а Кейт Бланшетт — в номинации «лучшая актриса», несмотря на то, что Мара присутствует на экране 71 минуту, или 60% длительности фильма, а Бланшетт — 65 минут, или 54%.
  • Миа Васиковска рассматривалась на роль Терезы.
  • Кейт Бланшетт и Руни Мара заявили, что обстановка на съёмочной площадке была просто великолепная, благодаря чему со съёмками в любовных сценах они не испытывали никаких затруднений. Бланшетт была особенно признательна режиссёру Тодду Хейнсу, за то, что им с партнёршей было так комфортно. «Атмосферу там характеризовало глубокое доверие между Руни и Тоддом и между мной и Тоддом, — сказала она. — Он точно знал, чего хочет и как хочет это снять, так что работать было легко».
  • Прообразом Кэрол Эйрд стала Вирджиния Кент Катервуд (1915-1966), светская львица из Питтсбурга, у которой был роман с Патрицией Хайсмит (1921-1995), автором романа, по которому снят фильм. У Катервуд отобрали опеку над дочерью, когда в суде была представлена плёнка с записью её любовной встречи с другой женщиной в гостиничном номере. ("Я её люблю»: вдохновившие фильм «Кэрол» романы», «The Telegraph», 28 ноября 2015 года.)
  • От Кейт Бланшетт и Руни Мары никто не требовал находиться у телефона в эпизодах, где их персонажи разговаривают друг с другом, однако они всё равно решили быть на линии для моральной поддержки. Таким образом, во всех эпизодах, где Кэрол и Терез говорят по телефону, актрисы действительно разговаривают друг с другом.
  • Фильм «Кэрол» (2015) снят в формате «Супер-16», чтобы более походить на картины, снятые в конце 1940-х и начале 1950-х годов. Оператор Эдвард Лэкмен черпал вдохновение в работах фотохудожников Вивьен Майер, Рут Оркин, Элен Левитт, Эстер Бабли, а также Сола Лейтера (который иногда делал снимки через окна или просто снимал отражения).
  • Как рассказывала Патриция Хайсмит, на написание романа «Цена соли» (1952) её вдохновила случайно увиденная женщина в меховом манто, которая делала покупки в одном из нью-йоркских универмагов незадолго до Рождества 1948 года. Патриция в это время временно работала продавщицей в отделе игрушек. Она вспоминала, что основную сюжетную линию романа набросала в тот вечер буквально за пару часов — вполне вероятно, что под влиянием ветрянки, которой, как она выяснила наследующий день, была уже больна ("Лихорадка очень подстёгивает воображение»). Роман был написан к 1951 году.
  • Фильм является экранизацией романа Патриции Хайсмит «Цена соли». Опубликован он был в 1952 году под псевдонимом Клэр Морган. Впоследствии, в 1984 году, специализирующееся на литературе для лесбиянок издательство «Naiad Press» переиздало роман. Хайсмит открещивалась от авторства 38 лет, покуда не согласилась наконец на публикацию нового издания под новым названием и с написанным ею послесловием. Издательство «Bloomsbury Publishing» выпустило роман «Кэрол» под её именем в Великобритании в 1990 году. До 1990 года был продан почти миллион экземпляров романа.
  • Тесса Росс из компании «Film4 Productions» сказала, что на подготовку к съёмкам фильма и сами съёмки ушло 11 лет.
  • Руни Маре предложили роль Терез после того, когда она закончила сниматься в фильме «Девушка с татуировкой дракона» Дэвида Финчера (2011), но вначале она отказалась, сославшись на усталость. Роль получила Миа Васиковски, однако ушла из проекта ради съёмок в мелодраматическом фильме ужасов Гильермо дель Торо «Багровый пик» (2015). Мара взялась исполнить роль Терез в 2013 году, когда режиссёром уже был Тодд Хейнс.
  • Вторая экранизация романов Патриции Хайсмит с участием Кейт Бланшетт. В 1999 году она снялась в психологическом триллере Энтони Мингеллы «Талантливый мистер Рипли».
  • Первый вариант сценария Филлис Наж написала в 1996 году.
  • На премьере на Каннском кинофестивале в 2015 году фильм был удостоен 10-минутной стоячей овации.
  • Руни Мара является поклонницей Кейт Бланшетт с 13-летнего возраста. Случай поработать со своим кумиром она охарактеризовала как «просто мечты сбылись».
  • Фильм «Кэрол» получил 5 номинаций (больше, чем любой другой фильм) на премию Голливудской ассоциации иностранной прессы «Золотой глобус» 2015 года.
  • На меховое манто Кэрол пошли кусочки меха со старых манто тех лет. Художник по костюмам Сэнди Пауэлл рассказывала в интервью журналу «The Hollywood Reporter» ("Как было создано меховое манто для Кейт Бланшетт, и как его не стало», 26 января 2016 года), что»… оно [манто] расползалось на куски каждый день, перед каждой съёмкой».
  • Воссоздавая на экране атмосферу 1950-х годов, Тодд Хейнс ориентировался на работы Морриса Энджела и Рут Оркин, в особенности на их фильм «Любовники и леденцы» (1956).
  • Автор сценария Филлис Наж дружила с автором романа Патрицией Хайсмит.
  • Съёмки проходили весной 2014 года. Съёмки эпизодов в Нью-Йорке и Нью-Джерси 1950-х годов проходили в Цинциннати, штат Огайо, и его окрестностях. Местами для съёмок были выбраны деловой центр Цинциннати, в Эден-парке и Гайд-парке, районе Овер-зе-Райн, а также города Шевиот, Гамильтон, Лебанон и Вайоминг. Некоторые эпизоды были сняты в Александрии, штат Кентукки.
  • Второй совместный проект Тодда Хейнса и Кейт Бланшетт и третий Хейнса и художника по костюмам Сэнди Пауэлл.
  • Автомобиль Кэрол: «Packard Super Deluxe 8» 1949 года выпуска с двигателем «Straight 8 Flathead» (327 кубических дюймов) и ручкой переключения передач на колонке рулевого управления. У автомобиля очень редкое украшение на капоте в египетском стиле. Капот открывался как с левой стороны, так и с правой. Автомобиль был взят на время у владельца, который откликнулся на призыв Комиссии по делам кинематографии Цинциннати и северной части штата Кентукки одолжить на время съёмок автомобили, автобусы и грузовики 1950-х годов. Автомобиль Харджа: «Cadillac Series 75 Fleetwood Limousine» 1952 года выпуска. Автомобиль Эбби: «Packard Custom Eight» с откидным верхом 1950 года выпуска. Красно-жёлтые такси в некоторых эпизодах — «Chevrolet» 1950 года выпуска и «Dodge» 1949 года выпуска.
  • Мальчишек, которые отбегают от модели железной дороги в отделе игрушек в универмаге, когда оттуда вышла Кэрол, зовут Дашиэлл, Роман и Игнатиус Аптоны. Это дети Кейт Бланшетт и её мужа Эндрю Аптона.
  • В эпизоде, где Кэрол и Терез впервые едут домой к Кэрол, они проезжают Тоннель Линкольна, соединяющий Нью-Йорк и Нью-Джерси. Так как съёмки проходили в Цинциннати, в этой роли выступил тамошний Литл-тоннель, длина которого всего 335 метров. Из-за этого поездку пришлось повторять — актрисы в автомобиле проезжали туннель, делали круг, заезжали в него снова — и так несколько раз.
  • Когда о предстоящих съёмках фильма было объявлено в 2012 году, режиссёром был Джон Краули.
  • Роман «Цена соли/Кэрол» написан от третьего лица с точки зрения Терез.
  • Фильм «Кэрол» создан в сотрудничестве с «Dirty Film Ltd.», это расположенная в Лондоне продюсерская компания, которой владеют Кейт Бланшетт и её муж Эндрю Аптон.
  • Филлис Наж написала сценарии всего к двум фильмам. Названия обоих состоят из женских имён.
  • В интервью Терри Гросс, ведущей радиопрограммы «Fresh Air», актриса Сара Полсон заявила, что в оригинальном сценарии её роль (Эбби) была более «цельная», но многие эпизоды с её участием были, к сожалению, вырезаны.
  • Кэрол курит в 9 эпизодах. На это уходит 6 минут 23 секунды.
  • Начиная с драмы «Спасение» (1995), режиссёр Тодд Хейнс создает т. н. «книги образов», которые помогают лучше проникнуться атмосферой фильма, над которым идёт работа. Предназначенные в основном для оператора, они включают в себя фотографии, кадры, картины, периодические издания и другие источники, при изучении которых рождаются идеи относительно стиля будущей картины. (Эти наглядные пособия не следует путать с раскадровками или иллюстрированными сценариями фильмов, к которым он прибегал с самой первой своей картины «Отрава» 1990 года.) Как сказал сам режиссёр, «книги образов» — это способ передачи без слов того, какими будут настроение, страстность и стилистические черты фильма». Что касается фильма «Кэрол» (2015), «книга образов» стала «справочником по вопросам одежды, причёски, макияжа, того, как женщины в принципе держались на людях в тот период времени, и влияния, которое на становление женщин оказывал окружающий мир». В «книге образов» к фильму «Кэрол» содержались ссылки на фильмы «Короткая встреча» (1945) и «Головокружение» (1958) соответственно Дэвида Лина и Альфреда Хичкока (Хейнсу нравилось, как убедительно в них показано время действия), «Шугарлендский экспресс» (1974) Стивена Спилберга (новаторская работа оператора Вилмоша Жигмонда), «Любовники и леденцы» (1956) Морриса Энджела и Рут Оркин (места съёмок), «Пожиратель тыкв» (1964) Джека Клейтона (съёмки интерьеров). Были там и снимки фотографов Эрнста Хааса, Элен Левитт и Вивиан Майер. Хейнс составляет свои «книги образов» словно визуальные микстейпы (смесь фрагментов, собранных в композицию, иначе говоря, музыкальные сборники или компиляции), компонуя снимки и элементы чужих фильмов, которыми восхищается, следующие один за другим коллажи. Для фильма «Кэрол» он составил свыше 80 таких коллажей и в работе над фильмом постоянно к ним обращался. На составление этой «книги образов» ушло 2 месяца. ("Тодд Хейнс собирает образы для лучшей передачи атмосферы своих фильмов», — газета «The New York Times», 28 января 2016 года.)
  • Фильм получил 4 награды New York Film Critics Circle (Сообщество кинокритиков Нью-Йорка): как лучший фильм года, за режиссуру, за сценарий, за операторскую работу.

www.fast-torrent.ru

Скачать фильм Кэрол через торрент в хорошем качестве бесплатно HDRip

Размер: 2.04 GB | Добавлен: 1 год 6 мес. назад | Торрент скачан:174 раза
Реклама Дарим 3000 рублей за регистрацию, не упусти свой шанс получить шикарный бонус!!!

10-04-2016 18:12 Кэрол Скачать торрент  

Кэрол / Carol

Год выпуска: 2015Страна: Великобритания, США / Number 9 Films, Dirty Films, Film4Жанр: драма, мелодрамаПродолжительность: 1:58:29Перевод: Дубляж (iTunes)

Режиссер: Тодд Хейнс

IMDB 7.30 (48 910)

В ролях: Кейт Бланшетт, Руни Мара, Кайл Чандлер, Джейк Лэси, Сара Полсон, Джон Магаро, Кори Майкл Смит, Кевин Краули, Ник Паич, Кэрри Браунштейн

Описание: В неповторимой атмосфере изысканного Нью-Йорка 50-х годов юная Терез встречает Кэрол, ослепительную зрелую женщину, томящуюся в браке без любви. Мимолетный проблеск влечения перерастает во всепоглощающее чувство, которое навсегда изменит их жизни. Но как довериться любви, если твоя судьба зависит от предрассудков безжалостного времени?

Качество: HDRipФормат: AVIВидео кодек: XviDАудио кодек: AC3Видео: MPEG4, XviD, 720x384 (1.875), 23.976 fps, 1 694 Kbps (0.256 bit/pixel)Аудио#1: AC-3, 48.0 KHz, 6 ch, 384 Kbps, CBR (rus)Аудио#2: AC-3, 48.0 KHz, 6 ch, 384 Kbps, CBR (eng)

ОбщееПолное имя : F:\кино\Кэрол.2015.D.HDRip.aviФормат : AVIФормат/Информация : Audio Video InterleaveПрофиль формата : OpenDMLНастройки формата : recРазмер файла : 2,04 ГбайтПродолжительность : 1 ч. 58 м.Общий поток : 2469 Кбит/секПрограмма кодирования : AVI-Mux GUI 1.17.8, Aug 30 2008 12:36:58

ВидеоИдентификатор : 0Формат : MPEG-4 VisualПрофиль формата : Advanced [email protected]Параметр BVOP формата : 1Параметр QPel формата : НетПараметр GMC формата : Без точки переходаПараметр матрицы формата : Default (MPEG)Идентификатор кодека : XVIDИдентификатор кодека/Подсказка : XviDПродолжительность : 1 ч. 58 м.Битрейт : 1694 Кбит/секШирина : 720 пикселейВысота : 384 пикселяСоотношение сторон : 1,85:1Частота кадров : 23,976 (24000/1001) кадра/секЦветовое пространство : YUVСубдискретизация насыщенности : 4:2:0Битовая глубина : 8 битТип развёртки : ПрогрессивнаяМетод сжатия : С потерямиБит/(Пиксели*Кадры) : 0.256Размер потока : 1,40 Гбайт (69%)Библиотека кодирования : XviD 67

Аудио #1Идентификатор : 1Формат : AC-3Формат/Информация : Audio Coding 3Расширение режима : CM (complete main)Параметр Endianness формата : BigИдентификатор кодека : 2000Продолжительность : 1 ч. 58 м.Вид битрейта : ПостоянныйБитрейт : 384 Кбит/секКаналы : 6 каналовРасположение каналов : Front: L C R, Side: L R, LFEЧастота : 48,0 КГцЧастота кадров : 31,250 кадров/сек (1536 spf)Метод сжатия : С потерямиРазмер потока : 325 Мбайт (16%)Выравнивание : Соединение по промежуткамПродолжительность промежутка : 64 мс. (1,54 видеокадра)Время предзагрузки промежутка : 192 мс.Заголовок : 00008.track_4353

Аудио #2Идентификатор : 2Формат : AC-3Формат/Информация : Audio Coding 3Расширение режима : CM (complete main)Параметр Endianness формата : BigИдентификатор кодека : 2000Продолжительность : 1 ч. 58 м.Вид битрейта : ПостоянныйБитрейт : 384 Кбит/секКаналы : 6 каналовРасположение каналов : Front: L C R, Side: L R, LFEЧастота : 48,0 КГцЧастота кадров : 31,250 кадров/сек (1536 spf)Метод сжатия : С потерямиРазмер потока : 325 Мбайт (16%)Выравнивание : Соединение по промежуткамПродолжительность промежутка : 64 мс. (1,53 видеокадра)Время предзагрузки промежутка : 192 мс.Заголовок : 384

Скачать Кэрол через торрент http://pic.pb.wtf/images/11/qamqq.jpg Скачать фильм Кэрол через торрент бесплантно в хорошем качестве Описание: В неповторимой атмосфере изысканного Нью-Йорка 50-х годов юная Терез встречает Кэрол, ослепительную зрелую женщину, томящуюся в ... 2016-04-10 18:12 10 10 6

Loading...

Loading...

Рекламный пират

10-04-2016 18:26 Кэрол Скачать торрент  

Оскар, 2016 год Номинации (6):Лучшая женская роль (Кейт Бланшетт)Лучшая женская роль второго плана (Руни Мара)Лучший адаптированный сценарийЛучшая работа оператораЛучшие костюмыЛучший саундтрек

Золотой глобус, 2016 год Номинации (5):Лучший фильм (драма)Лучшая женская роль (драма) (Кейт Бланшетт)Лучшая женская роль (драма) (Руни Мара)Лучший режиссер (Тодд Хейнс)Лучший саундтрек

Британская академия, 2016 год Номинации (9):Лучший фильмЛучшая женская роль (Кейт Бланшетт)Лучшая женская роль второго плана (Руни Мара)Лучший адаптированный сценарийЛучшая работа оператора (Эдвард Лахман)Лучшие костюмыЛучшая работа художника-постановщика (Джуди Бекер, Хезер Лоффлер)Лучший грим/прическиПремия имени Дэвида Лина за достижения в режиссуре (Тодд Хейнс)

Премия Гильдии актеров, 2016 год Номинации (2):Лучшая женская роль (Кейт Бланшетт)Лучшая женская роль второго плана (Руни Мара)

Каннский кинофестиваль, 2015 год Победитель (2):Лучшая женская роль ( Руни Мара )Квир-Пальмовая ветвь за освещение ЛГБТ-темы в кино ( Тодд Хейнс ) — «The film we've chosen to award is more than a movie, it's a moment in history The first time a love story between two women was treated with the respect and significance of any other mainstream cinematic romance For its heartbreaking performances, stunning mise-en-scene, and overall mastery of craft we are proud to award CAROL with the Queer Palm»Номинации (1):Золотая пальмовая ветвь

10-04-2016 18:58 Кэрол Скачать торрент  

- Что там за шум на улице, Бэрримор?- Это гей-парад, сэр.- И чего же они требуют, Бэрримор?- Однополой любви, сэр.- Им разве кто-то запрещает?- Нет, сэр.- Так почему же всё-таки они шумят?- Пидорасы, сэр.

10-04-2016 22:02 Кэрол Скачать торрент  

kw1982 писал(а):

- Что там за шум на улице, Бэрримор?- Это гей-парад, сэр.- И чего же они требуют, Бэрримор?- Однополой любви, сэр.- Им разве кто-то запрещает?- Нет, сэр.- Так почему же всё-таки они шумят?- Пидорасы, сэр.

Не добавить, и не отнять

13-04-2016 18:04 Кэрол Скачать торрент  

Одни лесбиянки и петухи в Европе и Америке. Любят кино на эту тему(Кончита) )))

Дорогой пользователь! Огромная просьба, поблагодарите релизера, оцените раздачу и оставьте свои комментарий, если Вы скачали Кэрол через торрент бесплатно! Внесите свою лепту в развитие PiratBit!

Комментировать посты могут только пользователи прошедшие не сложную регистрацию

Кэрол через торрент Скачать бесплатно Кэрол Кэрол скачать торрент Кэрол смотреть онлайн Cкачать фильм Кэрол бесплатно Кэрол скачать торрент в хорошем качестве Кэрол смотреть онлайн бесплатно в хорошем качестве

Вы не можете начинать темыВы не можете отвечать на сообщенияВы не можете редактировать свои сообщенияВы не можете удалять свои сообщенияВы не можете голосовать в опросахВы не можете прикреплять файлы к сообщениямВы можете скачивать файлы

piratbit.ru

Скачать торрент Кэрол / Carol (2015) BDRip 720p от Scarabey

Год выхода: 2015Страна: Великобритания, СШАЖанр: драма, мелодрамаПродолжительность: 01:58:28Перевод: Профессиональный (полное дублирование) [iTunes Russia]Субтитры: ]русские и англ.

Режиссер: Тодд Хейнс / Todd Haynes

В ролях: Кейт Бланшетт, Руни Мара, Кайл Чандлер, Джейк Лэси, Сара Полсон, Джон Магаро, Кори Майкл Смит, Кевин Краули, Ник Паич, Кэрри Браунштейн, Трент Роулэнд, Эми Уорнер, Майкл Хейни, Венди Лардин, Памела Эванс, Кристин А. Дай, Дуглас Скотт Соренсон, Кен Штрунк, Энн Рескин, Линни Бонд

Описание: В неповторимой атмосфере изысканного Нью-Йорка 50-х годов юная Терез встречает Кэрол, ослепительную зрелую женщину, томящуюся в браке без любви. Мимолетный проблеск влечения перерастает во всепоглощающее чувство, которое навсегда изменит их жизни. Но как довериться любви, если твоя судьба зависит от предрассудков безжалостного времени?

Качество: BDRip 720pФормат: MKV

Видео: 1280х694, 23.976 fps, AVC ~8680 kbps avg, 0.21 bit/pixelАудио: 48 kHz, AC3 Dolby Digital, 3/2 (L,C,R,l,r) + LFE ch, ~384 kbps avg - iTunes RussiaАудио: 48 kHz, DTS, 3/2 (L,C,R,l,r) + LFE ch, ~1536 kbps avg - оригинал

Релиз от:

АНОНСЫ МОИХ РАЗДАЧ!

МедиаИнфо

Carol.2015.720p_BDRip_[scarabey.org].mkv Format : Matroska File size : 9.15 GiB Duration : 1h 58mn Overall bit rate : 11.1 Mbps Encoded date : UTC 2016-04-10 14:31:56 Writing application : mkvmerge v6.1.0 ('Old Devil') built on Mar 4 2013 09:10:42 Writing library : libebml v1.3.0 + libmatroska v1.4.0

Video Format : AVC Format/Info : Advanced Video Codec Format profile : [email protected] Format settings, CABAC : Yes Format settings, ReFrames : 9 frames Muxing mode : Container [email protected] Codec ID : V_MPEG4/ISO/AVC Duration : 1h 58mn Bit rate : 8 680 Kbps Width : 1 280 pixels Height : 694 pixels Display aspect ratio : 16/9 Frame rate : 23.976 fps Resolution : 24 bits Colorimetry : 4:2:0 Scan type : Progressive Writing library : x264 core 142 r2431+42 c69a006 tMod [[email protected]:2:0 X86_64] Encoding settings : cabac=1 / ref=9 / deblock=1:-3:-3 / analyse=0x3:0x113 / me=umh / subme=10 / psy=1 / fade_compensate=0.00 / psy_rd=0.90:0.00 / mixed_ref=1 / me_range=32 / chroma_me=1 / trellis=2 / 8x8dct=1 / cqm=0 / deadzone=21,11 / fast_pskip=0 / chroma_qp_offset=-2 / threads=6 / lookahead_threads=1 / sliced_threads=0 / nr=0 / decimate=0 / interlaced=0 / bluray_compat=0 / constrained_intra=0 / fgo=0 / bframes=9 / b_pyramid=2 / b_adapt=2 / b_bias=0 / direct=3 / weightb=1 / open_gop=0 / weightp=2 / keyint=240 / keyint_min=24 / scenecut=40 / intra_refresh=0 / rc=crf / mbtree=0 / crf=18.3000 / qcomp=0.70 / qpmin=0:0:0 / qpmax=69:69:69 / qpstep=4 / ip_ratio=1.20 / pb_ratio=1.20 / aq=4:0.80 / aq-sensitivity=10.00 / aq-factor=1.00:1.00:1.00 / aq2=0 / aq3=0

Audio #1 Format : AC-3 Format/Info : Audio Coding 3 Codec ID : A_AC3 Duration : 1h 58mn Bit rate mode : Constant Bit rate : 384 Kbps Channel(s) : 6 channels Channel positions : Front: L C R, Rear: L R, LFE Sampling rate : 48.0 KHz Title : Дубляж - iTunes Language : Russian

Audio #2 Format : DTS Format/Info : Digital Theater Systems Codec ID : A_DTS Duration : 1h 58mn Bit rate mode : Constant Bit rate : 1 536 Kbps Channel(s) : 6 channels Channel positions : Front: L C R, Surround: L R, LFE Sampling rate : 48.0 KHz Resolution : 24 bits Title : Оригинал

Text #1 Format : UTF-8 Codec ID : S_TEXT/UTF8 Codec ID/Info : UTF-8 Plain Text Title : Русские, полные Language : Russian

Text #2 Format : UTF-8 Codec ID : S_TEXT/UTF8 Codec ID/Info : UTF-8 Plain Text Title : Оригинал

Chapters Language : English 1 : 00:00:00.000 00:00:00.000 2 : 00:05:59.150 00:05:59.150 3 : 00:13:10.039 00:13:10.039 4 : 00:19:29.543 00:19:29.543 5 : 00:25:16.640 00:25:16.640 6 : 00:30:49.514 00:30:49.514 7 : 00:37:59.652 00:37:59.652 8 : 00:45:16.422 00:45:16.422 9 : 00:52:17.217 00:52:17.217 10 : 00:59:22.476 00:59:22.476 11 : 01:06:21.728 01:06:21.728 12 : 01:13:15.641 01:13:15.641 13 : 01:18:26.744 01:18:26.744 14 : 01:24:30.774 01:24:30.774 15 : 01:31:54.759 01:31:54.759 16 : 01:38:33.699 01:38:33.699 17 : 01:44:20.588 01:44:20.588 18 : 01:48:59.700 01:48:59.700 19 : 01:52:14.603 01:52:14.603 20 : 01:54:27.986 01:54:27.986

mrutor.org

Скачать фильм Кэрол через торрент в хорошем качестве бесплатно 720p

Общее

Уникальный идентификатор : 187907906592208568751824132954808875562 (0x8D5DBF14AE2430E5AA6D3AAC246F7A2A)

Полное имя : Carol.2015.720p.BluRay.x264.Rus.Eng.Subs-SbR.mkv

Формат : Matroska

Версия формата : Version 4 / Version 2

Размер файла : 9,90 Гбайт

Продолжительность : 1 ч. 58 м.

Общий поток : 12,0 Мбит/сек

Название фильма : released by aldershot

Дата кодирования : UTC 2016-04-10 11:39:58

Программа кодирования : mkvmerge v6.9.1 ('Blue Panther') 64bit built on Apr 18 2014 18:23:38

Библиотека кодирования : libebml v1.3.0 + libmatroska v1.4.1

Attachements : cover.jpg / cover.jpg

Видео

Идентификатор : 1

Формат : AVC

Формат/Информация : Advanced Video Codec

Профиль формата : [email protected]

Параметр CABAC формата : Да

Параметр ReFrames формата : 9 кадров

Идентификатор кодека : V_MPEG4/ISO/AVC

Продолжительность : 1 ч. 58 м.

Битрейт : 9836 Кбит/сек

Ширина : 1280 пикселей

Высота : 692 пикселя

Соотношение сторон : 1,85:1

Режим частоты кадров : Постоянный

Частота кадров : 23,976 кадра/сек

Цветовое пространство : YUV

Субдискретизация насыщенности : 4:2:0

Битовая глубина : 8 бит

Тип развёртки : Прогрессивная

Бит/(Пиксели*Кадры) : 0.463

Размер потока : 8,14 Гбайт (82%)

Заголовок : SbR

Библиотека кодирования : x264 core 148 r2638+53 bb29004 t_mod_Custom [[email protected] X86_64]

Настройки программы : cabac=1 / ref=9 / deblock=1:-3:-3 / analyse=0x3:0x133 / me=esa / subme=10 / psy=1 / fade_compensate=0.00 / psy_rd=1.00:0.05 / mixed_ref=1 / me_range=24 / chroma_me=1 / trellis=2 / 8x8dct=1 / cqm=0 / deadzone=21,11 / fast_pskip=0 / chroma_qp_offset=-3 / threads=6 / lookahead_threads=1 / sliced_threads=0 / nr=0 / decimate=1 / interlaced=0 / bluray_compat=0 / constrained_intra=0 / fgo=0 / bframes=11 / b_pyramid=2 / b_adapt=2 / b_bias=0 / direct=3 / weightb=1 / open_gop=0 / weightp=2 / keyint=250 / keyint_min=23 / scenecut=40 / intra_refresh=0 / rc_lookahead=60 / rc=crf / mbtree=0 / crf=17.5000 / qcomp=0.62 / qpmin=0:0:0 / qpmax=69:69:69 / qpstep=4 / vbv_maxrate=62500 / vbv_bufsize=78125 / crf_max=0.0 / nal_hrd=none / filler=0 / ip_ratio=1.30 / pb_ratio=1.20 / aq=1:0.65 / aq-sensitivity=10.00 / aq-factor=1.00:1.00:1.00 / aq2=0 / aq3=0

Язык : English

Default : Да

Forced : Нет

Цветовой диапазон : Limited

Основные цвета : BT.709

Характеристики трансфера : BT.709

Коэффициенты матрицы : BT.709

Аудио #1

Идентификатор : 2

Формат : AC-3

Формат/Информация : Audio Coding 3

Расширение режима : CM (complete main)

Параметр Endianness формата : Big

Идентификатор кодека : A_AC3

Продолжительность : 1 ч. 58 м.

Вид битрейта : Постоянный

Битрейт : 384 Кбит/сек

Каналы : 6 каналов

Расположение каналов : Front: L C R, Side: L R, LFE

Частота : 48,0 КГц

Метод сжатия : С потерями

Размер потока : 325 Мбайт (3%)

Заголовок : AC3 5.1 @ 384 Kbps, Дубляж, iTunes

Язык : Russian

Default : Да

Forced : Нет

Аудио #2

Идентификатор : 3

Формат : DTS

Формат/Информация : Digital Theater Systems

Режим : 16

Параметр Endianness формата : Big

Идентификатор кодека : A_DTS

Продолжительность : 1 ч. 58 м.

Вид битрейта : Постоянный

Битрейт : 1509 Кбит/сек

Каналы : 6 каналов

Расположение каналов : Front: L C R, Side: L R, LFE

Частота : 48,0 КГц

Битовая глубина : 24 бит

Метод сжатия : С потерями

Размер потока : 1,25 Гбайт (13%)

Заголовок : DTS 5.1 @ 1536 Kbps, Original

Язык : English

Default : Нет

Forced : Нет

Текст #1

Идентификатор : 4

Формат : UTF-8

Идентификатор кодека : S_TEXT/UTF8

Идентификатор кодека/Информация : UTF-8 Plain Text

Заголовок : full

Язык : Romanian

Default : Нет

Forced : Нет

Текст #2

Идентификатор : 5

Формат : UTF-8

Идентификатор кодека : S_TEXT/UTF8

Идентификатор кодека/Информация : UTF-8 Plain Text

Заголовок : full

Язык : Russian

Default : Нет

Forced : Нет

Текст #3

Идентификатор : 6

Формат : UTF-8

Идентификатор кодека : S_TEXT/UTF8

Идентификатор кодека/Информация : UTF-8 Plain Text

Заголовок : full

Язык : English

Default : Нет

Forced : Нет

Меню

00:00:00.000 : en:00:00:00.000

00:05:59.150 : en:00:05:59.150

00:13:10.039 : en:00:13:10.039

00:19:29.543 : en:00:19:29.543

00:25:16.640 : en:00:25:16.640

00:30:49.514 : en:00:30:49.514

00:37:59.652 : en:00:37:59.652

00:45:16.422 : en:00:45:16.422

00:52:17.217 : en:00:52:17.217

00:59:22.476 : en:00:59:22.476

01:06:21.728 : en:01:06:21.728

01:13:15.641 : en:01:13:15.641

01:18:26.744 : en:01:18:26.744

01:24:30.774 : en:01:24:30.774

01:31:54.759 : en:01:31:54.759

01:38:33.699 : en:01:38:33.699

01:44:20.588 : en:01:44:20.588

01:48:59.700 : en:01:48:59.700

01:52:14.603 : en:01:52:14.603

01:54:27.986 : en:01:54:27.986

piratbit.ru

Скачать фильм Кэрол через торрент в хорошем качестве бесплатно BDRip

Размер: 1.46 GB | Добавлен: 1 год 6 мес. назад | Торрент скачан:854 раза
Реклама Дарим 3000 рублей за регистрацию, не упусти свой шанс получить шикарный бонус!!!

10-04-2016 20:00 Кэрол Скачать торрент  

Кэрол / Carol«Some people change your life forever» • Год выпуска » 2015• Страна » Великобритания, США / The Weinstein Company LLC• Жанр » Драма, мелодрама• Продолжительность » 01:58:28• Перевод » Профессиональный (полное дублирование) [iTunes]• Субтитры » Отсутствуют

В ролях » Кейт Бланшетт, Руни Мара, Кайл Чандлер, Джейк Лэси, Сара Полсон, Джон Магаро, Кори Майкл Смит, Кевин Краули, Ник Паич, Кэрри Браунштейн, Трент Роулэнд, Эми Уорнер, Майкл Хейни, Венди Лардин, Памела Эванс, Кристин А. Дай, Дуглас Скотт Соренсон, Кен Штрунк, Энн Рескин, Линни Бонд

Режиссёр» Тодд Хейнс / Todd Haynes

» В неповторимой атмосфере изысканного Нью-Йорка 50-х годов юная Терез встречает Кэрол, ослепительную зрелую женщину, томящуюся в браке без любви. Мимолетный проблеск влечения перерастает во всепоглощающее чувство, которое навсегда изменит их жизни. Но как довериться любви, если твоя судьба зависит от предрассудков безжалостного времени?• Качество » BDRip [Carol.2015.1080p.BluRay.AVC.DTS-HD.MA.5.1-RARBG]• Формат » avi• Видео кодек » XviD• Аудио кодек » AC3• Видео » 720x384 (1.88:1), 23.976 fps, XviD build 67 ~1369 kbps avg, 0.21 bit/pixel• Аудио » Русский (AC-3/ 6 ch / 384 kbps / 48,0 КГц / 16 bit )

Сборы в мире: + $26 964 768 = $39 676 259Сборы в США: $12 711 491Сборы в России: $186 705

Дата мировой премьеры: 17 мая 2015Дата российской премьеры: 10 марта 2016, «Артхаус»ОбщееПолное имя : E:\Новая папка (2)\Carol_2015_BDRip_iT_by_Dalemake.aviФормат : AVIФормат/Информация : Audio Video InterleaveРазмер файла : 1,46 ГбайтПродолжительность : 1 ч. 58 м.Общий поток : 1762 Кбит/секПрограмма кодирования : VirtualDubMod 1.5.10.3 | www.virtualdub-fr.org || (build 2550/release)Библиотека кодирования : VirtualDubMod build 2550/release

ВидеоИдентификатор : 0Формат : MPEG-4 VisualПрофиль формата : Advanced [email protected]Параметр BVOP формата : 1Параметр QPel формата : НетПараметр GMC формата : Без точки переходаПараметр матрицы формата : ВыборочнаяИдентификатор кодека : XVIDИдентификатор кодека/Подсказка : XviDПродолжительность : 1 ч. 58 м.Битрейт : 1369 Кбит/секШирина : 720 пикселейВысота : 384 пикселяСоотношение сторон : 1,85:1Частота кадров : 23,976 кадра/секЦветовое пространство : YUVСубдискретизация насыщенности : 4:2:0Битовая глубина : 8 битТип развёртки : ПрогрессивнаяМетод сжатия : С потерямиБит/(Пиксели*Кадры) : 0.207Размер потока : 1,13 Гбайт (78%)Библиотека кодирования : XviD 67

АудиоИдентификатор : 1Формат : AC-3Формат/Информация : Audio Coding 3Расширение режима : CM (complete main)Параметр Endianness формата : BigИдентификатор кодека : 2000Продолжительность : 1 ч. 58 м.Вид битрейта : ПостоянныйБитрейт : 384 Кбит/секКаналы : 6 каналовРасположение каналов : Front: L C R, Side: L R, LFEЧастота : 48,0 КГцБитовая глубина : 16 битМетод сжатия : С потерямиРазмер потока : 325 Мбайт (22%)Выравнивание : Разделение по промежуткамПродолжительность промежутка : 42 мс. (1,00 видеокадр)Время предзагрузки промежутка : 500 мс.[/code]

Скачать Кэрол через торрент http://i74.fastpic.ru/big/2015/1218/b5/c39d072d168dbcde95d1a17f670689b5.gif Скачать фильм Кэрол через торрент бесплантно в хорошем качестве В ролях » Кейт Бланшетт, Руни Мара, Кайл Чандлер, Джейк Лэси, Сара Полсон, Джон Магаро, Кори Майкл Смит, Кевин Краули, Ник Паич, Кэрри ... 2016-04-10 20:00 9.4 10 17

Loading...

Loading...

Рекламный пират

11-04-2016 16:56 Кэрол Скачать торрент  

эт про лизбиянок чтоль??

11-04-2016 17:33 Кэрол Скачать торрент  

biozard писал(а):

эт про лизбиянок чтоль??

Именно так, вы все правильно поняли.

11-04-2016 19:46 Кэрол Скачать торрент  

Руни Мара не в первый раз,лесби играет. Нет дыма без огня.

13-04-2016 14:09 Кэрол Скачать торрент  

А мне нравятся лесбиянки,для них тут целый раздел выдерен :D

13-04-2016 16:10 Кэрол Скачать торрент  

кобла и ковырялка... ах какая драма...

14-04-2016 05:21 Кэрол Скачать торрент  

Довольно таки красивый и эстетический фильм. Тем более такие актрисы.

20-04-2016 17:51 Кэрол Скачать торрент  

Вот интересно женщины (нормальные) смотрят на лесбиянок так же, как мужики к пидорам. И при этом терпимо относятся к пидорам, а мужики к лесбиянкам. Чтобы объективно судить о лесбиянках их просто нужно ставить на одну планку с пидорами.

21-04-2016 14:35 Кэрол Скачать торрент  

Фильм тяжелый долгий....... легче конечно пройти мимо

Pекламный агент PB

Дорогой пользователь! Огромная просьба, поблагодарите релизера, оцените раздачу и оставьте свои комментарий, если Вы скачали Кэрол через торрент бесплатно! Внесите свою лепту в развитие PiratBit!

Комментировать посты могут только пользователи прошедшие не сложную регистрацию

Кэрол через торрент Скачать бесплатно Кэрол Кэрол скачать торрент Кэрол смотреть онлайн Cкачать фильм Кэрол бесплатно Кэрол скачать торрент в хорошем качестве Кэрол смотреть онлайн бесплатно в хорошем качестве

Вы не можете начинать темыВы не можете отвечать на сообщенияВы не можете редактировать свои сообщенияВы не можете удалять свои сообщенияВы не можете голосовать в опросахВы не можете прикреплять файлы к сообщениямВы можете скачивать файлы

piratbit.ru


Смотрите также