Скачать фильм коматозники через торрент в хорошем качестве бесплатно


Скачать фильм Коматозники (1990) через торрент

25 июля 2016 11:32 Коматозники / Flatliners (1990) BDRip 720p | D, P, P2, A .torrent   [Информация о файле (нажмите для просмотра)] Перевод: Дублированный, Профессиональный многоголосый, Профессиональный двухголосый, Авторский одноголосый, ОригиналКодек: x264Качество: BDRip 720pВидео: 1280x544 (2,35:1), 23.976 fps, 4732 kbps(lesnik125)Звук: Аудио #1: AC3, 448 Kbps, 48.0 KHz, 6 ch (Rus)Дублированный, Филм Лайнс ИнтернешнлАудио #2: AC3, 192 Kbps, 48.0 KHz, 2 ch (Rus)Дублированный, Варус-ВидеоАудио #3: AC3, 192 Kbps, 48.0 KHz, 2 ch (Rus)Профессиональный многоголосый, R5Аудио #4: AC3, 192 Kbps, 48.0 KHz, 2 ch (Rus)Профессиональный двухголосый, ВидеосервисАудио #5: AC3, 384 Kbps, 48.0 KHz, 6 ch (Ukr)Профессиональный многоголосый, K1Аудио #6: AC3, 384 Kbps, 48.0 KHz, 6 ch (Rus)Авторский одноголосый, A.ГавриловАудио #7: AC3, 384 Kbps, 48.0 KHz, 6 ch (Rus)Авторский одноголосый, Ю.ЖивовАудио #8: AC3, 448 Kbps, 48.0 KHz, 6 ch (Eng)ОригиналСубтитры: Русские, АнглийскиеВидео: Идентификатор : 1 Формат : AVC Формат/Информация : Advanced Video Codec Профиль формата : [email protected] Параметр CABAC формата : Да Параметр ReFrames формата : 8 кадров Идентификатор кодека : V_MPEG4/ISO/AVC Продолжительность : 1 ч. 54 м. Битрейт : 4732 Кбит/сек Ширина : 1280 пикселей Высота : 544 пикселя Соотношение сторон : 2,35:1 Режим частоты кадров : Постоянный Частота кадров : 23,976 кадра/сек Цветовое пространство : YUV Субдискретизация насыщенности : 4:2:0 Битовая глубина : 8 бит Тип развёртки : Прогрессивная Бит/(Пиксели*Кадры) : 0.283 Размер потока : 3,78 Гбайт (63%) Заголовок : Flatliners / Коматозники / Прямая линия (1990) Библиотека кодирования : x264 core 144 r2525 40bb568 Настройки программы : cabac=1 / ref=8 / deblock=1:-2:-2 / analyse=0x3:0x113 / me=umh / subme=11 / psy=1 / psy_rd=1.00:0.00 / mixed_ref=1 / me_range=32 / chroma_me=1 / trellis=2 / 8x8dct=1 / cqm=0 / deadzone=21,11 / fast_pskip=0 / chroma_qp_offset=-2 / threads=12 / lookahead_threads=1 / sliced_threads=0 / nr=0 / decimate=1 / interlaced=0 / bluray_compat=0 / constrained_intra=0 / bframes=10 / b_pyramid=2 / b_adapt=1 / b_bias=0 / direct=3 / weightb=1 / open_gop=0 / weightp=2 / keyint=240 / keyint_min=23 / scenecut=40 / intra_refresh=0 / rc_lookahead=40 / rc=crf / mbtree=0 / crf=19.0 / qcomp=0.60 / qpmin=0 / qpmax=69 / qpstep=4 / vbv_maxrate=62500 / vbv_bufsize=78125 / crf_max=0.0 / nal_hrd=none / filler=0 / ip_ratio=1.40 / pb_ratio=1.30 / aq=1:1.00 Язык : English Default : Да Forced : НетАудио #1: Идентификатор : 2 Формат : AC-3 Формат/Информация : Audio Coding 3 Расширение режима : CM (complete main) Параметр Endianness формата : Big Идентификатор кодека : A_AC3 Продолжительность : 1 ч. 54 м. Вид битрейта : Постоянный Битрейт : 448 Кбит/сек Каналы : 6 каналов Расположение каналов : Front: L C R, Side: L R, LFE Частота : 48,0 КГц Битовая глубина : 16 бит Метод сжатия : С потерями Размер потока : 366 Мбайт (6%) Заголовок : DUB (Russian) Филм Лайнс Интернешнл Язык : Russian Default : Да Forced : НетАудио #2: Идентификатор : 3 Формат : AC-3 Формат/Информация : Audio Coding 3 Расширение режима : CM (complete main) Параметр Endianness формата : Big Идентификатор кодека : A_AC3 Продолжительность : 1 ч. 54 м. Вид битрейта : Постоянный Битрейт : 192 Кбит/сек Каналы : 2 канала Расположение каналов : Front: L R Частота : 48,0 КГц Битовая глубина : 16 бит Метод сжатия : С потерями Размер потока : 157 Мбайт (3%) Заголовок : DUB (Russian) Варус-Видео Язык : Russian Default : Нет Forced : НетАудио #3: Идентификатор : 4 Формат : AC-3 Формат/Информация : Audio Coding 3 Расширение режима : CM (complete main) Параметр Endianness формата : Big Идентификатор кодека : A_AC3 Продолжительность : 1 ч. 54 м. Вид битрейта : Постоянный Битрейт : 192 Кбит/сек Каналы : 2 канала Расположение каналов : Front: L R Частота : 48,0 КГц Битовая глубина : 16 бит Метод сжатия : С потерями Размер потока : 157 Мбайт (3%) Заголовок : MVO (Russian) R5 Язык : Russian Default : Нет Forced : НетАудио #4: Идентификатор : 5 Формат : AC-3 Формат/Информация : Audio Coding 3 Расширение режима : CM (complete main) Параметр Endianness формата : Big Идентификатор кодека : A_AC3 Продолжительность : 1 ч. 54 м. Вид битрейта : Постоянный Битрейт : 192 Кбит/сек Каналы : 2 канала Расположение каналов : Front: L R Частота : 48,0 КГц Битовая глубина : 16 бит Метод сжатия : С потерями Размер потока : 157 Мбайт (3%) Заголовок : DVO (Russian) Видеосервис Язык : Russian Default : Нет Forced : НетАудио #5: Идентификатор : 6 Формат : AC-3 Формат/Информация : Audio Coding 3 Расширение режима : CM (complete main) Параметр Endianness формата : Big Идентификатор кодека : A_AC3 Продолжительность : 1 ч. 54 м. Вид битрейта : Постоянный Битрейт : 384 Кбит/сек Каналы : 6 каналов Расположение каналов : Front: L C R, Side: L R, LFE Частота : 48,0 КГц Битовая глубина : 16 бит Метод сжатия : С потерями Размер потока : 314 Мбайт (5%) Заголовок : MVO (Ukrainian) K1 Язык : Ukrainian Default : Нет Forced : НетАудио #6: Идентификатор : 7 Формат : AC-3 Формат/Информация : Audio Coding 3 Расширение режима : CM (complete main) Параметр Endianness формата : Big Идентификатор кодека : A_AC3 Продолжительность : 1 ч. 54 м. Вид битрейта : Постоянный Битрейт : 384 Кбит/сек Каналы : 6 каналов Расположение каналов : Front: L C R, Side: L R, LFE Частота : 48,0 КГц Битовая глубина : 16 бит Метод сжатия : С потерями Размер потока : 314 Мбайт (5%) Заголовок : AVO (А.Гаврилов) Язык : Russian Default : Нет Forced : НетАудио #7: Идентификатор : 8 Формат : AC-3 Формат/Информация : Audio Coding 3 Расширение режима : CM (complete main) Параметр Endianness формата : Big Идентификатор кодека : A_AC3 Продолжительность : 1 ч. 54 м. Вид битрейта : Постоянный Битрейт : 384 Кбит/сек Каналы : 6 каналов Расположение каналов : Front: L C R, Side: L R, LFE Частота : 48,0 КГц Битовая глубина : 16 бит Метод сжатия : С потерями Размер потока : 314 Мбайт (5%) Заголовок : AVO (Ю.Живов) Язык : Russian Default : Нет Forced : НетАудио #8: Идентификатор : 9 Формат : AC-3 Формат/Информация : Audio Coding 3 Расширение режима : CM (complete main) Параметр Endianness формата : Big Идентификатор кодека : A_AC3 Продолжительность : 1 ч. 54 м. Вид битрейта : Постоянный Битрейт : 448 Кбит/сек Каналы : 6 каналов Расположение каналов : Front: L C R, Side: L R, LFE Частота : 48,0 КГц Битовая глубина : 16 бит Метод сжатия : С потерями Размер потока : 366 Мбайт (6%) Заголовок : Original (English) Язык : English Default : Нет Forced : Нет 5,99 Gb 15 4 25 июля 2016 11:32 Коматозники / Flatliners (1990) BDRip 720p .torrent   [Информация о файле (нажмите для просмотра)] Перевод: Профессиональный (полное дублирование), Профессиональный (многоголосый, закадровый), 3 x Профессиональный (двухголосый, закадровый), Авторский (Иванов), ОригинальныйСубтитры: русские, английские.Качество: BDRipКонтейнер: MKVВидео: AVC, 1280x544 (2.35:1), 4746 kbps, 23,976 fps, 0,284 bppАудио №1: русский / AC3 / 5.1 / 48 kHz / 448 kbpsДубляжАудио №2: русский / AC3 / 2.0 / 48 kHz / 192 kbpsMVO ( R5 )Аудио №3: русский / AC3 / 2.0 / 48 kHz / 224 kbpsDVO ( ОРТ / Селена Интернешнл ) | VHSRip by FikaloidАудио №4: русский / AC3 / 2.0 / 48 kHz / 192 kbpsDVO ( Видеосервис ) | VHSRip by bora86boraАудио №5: русский / AC3 / 2.0 / 48 kHz / 192 kbpsDVO ( Garsu Paraulis ) | VHSRip by FikaloidАудио №6: русский / AC3 / 2.0 / 48 kHz / 192 kbpsAVO ( Иванов )Аудио №7: английский / AC3 / 5.1 / 48 kHz / 448 kbps 5,4 Gb 7 2 25 июля 2016 11:32 Коматозники / Flatliners (1990) BDRip 1080p от NNNB .torrent   [Информация о файле (нажмите для просмотра)] Перевод: ДублированныйКачество: BDRip 1080p (исходник Blu-ray Disc)Видео: 1920x816, 8635 Кбит/сек, 23,976 кадр/сек, AVC, x264, [email protected], 2.35:1, 0.230 Бит/[Пиксели*Кадры]Аудио 1: AC-3, 448 Кбит/сек, 6 канала(ов), 48,0 КГц - Дублированный / РусскийАудио 2: AC-3, 640 Кбит/сек, 6 канала(ов), 48,0 КГц - Оригинал / АнглийскийСубтитры: Русские | Полные, Английские | Полные 7,75 Gb 12 4 25 июля 2016 11:32 Коматозники / Flatliners (1990) BDRip-AVC от MediaClub .torrent   [Информация о файле (нажмите для просмотра)] Перевод: Дублированный / Профессиональный многоголосый (R5) / Авторский одноголосый (Михаил Иванов)Кодек: x264Качество: BDRip-AVCВидео: MPEG-4 AVC, 2374 Кбит/с, 1024х436, 23.976 кадр/сЗвук: Русский (АС3, 6 ch, 448 Кбит/с), (AC3, 2 ch, 192 Кбит/с), английский (АС3, 6 ch, 448 Кбит/с)Субтитры: Русские, английские 2,92 Gb 6 1 25 июля 2016 11:31 Коматозники / Flatliners (1990) BDRip-AVC | D .torrent   [Информация о файле (нажмите для просмотра)] Перевод: Дублированый ("Видеосервис")Субтитры: русские полные, английские полныеКачество: BDRip-AVCФормат: MKVВидео: H.264, 1200x510, 23.976 fps, ~2750 kbps, Бит/(Пиксели*Кадры): 0.184Аудио №1: Русский, AC3, 3/2 (L,C,R,l,r) + LFE ch, 48 kHz, 448 kbps | Полное дублирование R5Аудио №2: Английский, AC3, 3/2 (L,C,R,l,r) + LFE ch, 48 kHz, 448 kbps | ОригиналВидео: Идентификатор : 1 Формат : AVC Формат/Информация : Advanced Video Codec Профиль формата : [email protected] Параметр CABAC формата : Да Параметр ReFrames формата : 11 кадров Идентификатор кодека : V_MPEG4/ISO/AVC Продолжительность : 1 ч. 54 м. Битрейт : 2680 Кбит/сек Ширина : 1200 пикселей Высота : 510 пикселей Соотношение сторон : 2,35:1 Режим частоты кадров : Постоянный Частота кадров : 23,976 кадра/сек Цветовое пространство : YUV Субдискретизация насыщенности : 4:2:0 Битовая глубина : 8 бит Тип развёртки : Прогрессивная Бит/(Пиксели*Кадры) : 0.184 Размер потока : 2,14 Гбайт (73%) Заголовок : Коматозники / Flatliners (1990) BDRip-AVC Библиотека кодирования : x264 core 129 r2230kMod 1cffe9f Настройки программы : cabac=1 / ref=11 / deblock=1:-2:-1 / analyse=0x3:0x133 / me=umh / subme=11 / psy=1 / fade_compensate=0.00 / psy_rd=1.03:0.02 / mixed_ref=1 / me_range=32 / chroma_me=1 / trellis=2 / 8x8dct=1 / cqm=0 / deadzone=21,11 / fast_pskip=1 / chroma_qp_offset=-3 / threads=3 / lookahead_threads=1 / sliced_threads=0 / nr=0 / decimate=1 / interlaced=0 / bluray_compat=0 / constrained_intra=0 / bframes=11 / b_pyramid=2 / b_adapt=2 / b_bias=0 / direct=1 / weightb=1 / open_gop=0 / weightp=2 / keyint=240 / keyint_min=23 / scenecut=40 / intra_refresh=0 / rc_lookahead=60 / rc=crf / mbtree=1 / crf=19.1000 / qcomp=0.65 / qpmin=0 / qpmax=69 / qpstep=4 / vbv_maxrate=50000 / vbv_bufsize=62500 / crf_max=0.0 / nal_hrd=none / ip_ratio=1.35 / aq=3:0.90 Язык : English Default : Да Forced : НетАудио #1: Идентификатор : 2 Формат : AC-3 Формат/Информация : Audio Coding 3 Расширение режима : CM (complete main) Параметр Endianness формата : Big Идентификатор кодека : A_AC3 Продолжительность : 1 ч. 54 м. Вид битрейта : Постоянный Битрейт : 448 Кбит/сек Каналы : 6 каналов Расположение каналов : Front: L C R, Side: L R, LFE Частота : 48,0 КГц Битовая глубина : 16 бит Метод сжатия : С потерями Размер потока : 366 Мбайт (12%) Заголовок : AC3 5.1 @ 448 kbps - Дубляж, R5 - Видеосервис Язык : Russian Default : Да Forced : НетАудио #2: Идентификатор : 3 Формат : AC-3 Формат/Информация : Audio Coding 3 Расширение режима : CM (complete main) Параметр Endianness формата : Big Идентификатор кодека : A_AC3 Продолжительность : 1 ч. 54 м. Вид битрейта : Постоянный Битрейт : 448 Кбит/сек Каналы : 6 каналов Расположение каналов : Front: L C R, Side: L R, LFE Частота : 48,0 КГц Битовая глубина : 16 бит Метод сжатия : С потерями Размер потока : 366 Мбайт (12%) Заголовок : AC3 5.1 @ 448 kbps - Оригинал Язык : English Default : Нет Forced : Нет 2,91 Gb 2 2 25 июля 2016 11:31 Коматозники / Flatliners (1990) BDRip от PowerTracker .torrent   [Информация о файле (нажмите для просмотра)] Видео: кодеккодек: XviD,размер кадра: 720x304, битрейт: 1426 кб/с, bit/pixel: 0.272 Аудио: языкРусский , перевод: дублированный (дубляж),Видео: Идентификатор : 0 Формат : MPEG-4 Visual Профиль формата : Advanced [email protected] Параметр BVOP формата : 2 Параметр QPel формата : Нет Параметр GMC формата : Без точки перехода Параметр матрицы формата : Default (H.263) Режим смешивания : Сжатый битовый поток Идентификатор кодека : XVID Идентификатор кодека/Подсказка : XviD Продолжительность : 1 ч. 54 м. Битрейт : 1426 Кбит/сек Ширина : 720 пикселей Высота : 304 пикселя Соотношение сторон : 2,35:1 Частота кадров : 23,976 кадра/сек Цветовое пространство : YUV Субдискретизация насыщенности : 4:2:0 Битовая глубина : 8 бит Тип развёртки : Прогрессивная Метод сжатия : С потерями Бит/(Пиксели*Кадры) : 0.272 Размер потока : 1,14 Гбайт (78%) Библиотека кодирования : XviD 64 Аудио: Идентификатор : 1 Формат : AC-3 Формат/Информация : Audio Coding 3 Расширение режима : CM (complete main) Идентификатор кодека : 2000 Продолжительность : 1 ч. 54 м. Вид битрейта : Постоянный Битрейт : 384 Кбит/сек Каналы : 6 каналов Расположение каналов : Front: L C R, Side: L R, LFE Частота : 48,0 КГц Битовая глубина : 16 бит Метод сжатия : С потерями Размер потока : 314 Мбайт (21%) Выравнивание : Разделение по промежуткам Продолжительность промежутка : 42 мс. (1,00 видеокадр) Время предзагрузки промежутка : 500 мс. 1,45 Gb 21 3 25 июля 2016 11:31 Коматозники / Flatliners (1990) BDRemux .torrent   [Информация о файле (нажмите для просмотра)] Перевод: Профессиональный (полное дублирование) + Профессиональный (многоголосый) R5 + Авторский (одноголосый) Михаил Иванов + ОригиналКодек: MPEG-2, DTS-HD, Dolby Digital AudioКачество: BDRemuxВидео: MPEG-2 Video / 19446 kbps / 1920x1080 / 23.976 fps / 16:9Звук: Аудио #1: Dolby Digital Audio Russian 5.1 / 48 kHz / 448 kbps [дубляж]Аудио #2: Dolby Digital Audio Russian 2.0 / 48 kHz / 192 kbps [мво]Аудио #3: Dolby Digital Audio Russian 2.0 / 48 kHz / 192 kbps [Иванов]Аудио #4: DTS-HD Master Audio English 5.1 / 48 kHz / 2113 kbps / 16-bit (DTS Core: 5.1 / 48 kHz / 1509 kbps / 16-bit)Субтитры: Русский, Английский 17,9 Gb 2 3 25 июля 2016 11:31 Коматозники / Flatliners (1990) ВDRip 720р от FREEISLAND .torrent   [Информация о файле (нажмите для просмотра)] Перевод: Профессиональный (полное дублирование) / Профессиональный (многоголосый, закадровый) / Профессиональный (одноголосый, закадровый) ИвановКачество: ВDRip720рФормат: MKVВидео: English, 4006 Кбит/сек, 1280*544 (2,35:1), в 23,976 кадр/сек, AVC ([email protected])Аудио: Russian, 448 Кбит/сек, 48,0 КГц, 16 бит, 6 канала(ов), AC-3 | Профессиональный (полное дублирование)Аудио: Russian, 192 Кбит/сек, 48,0 КГц, 16 бит, 2 канала(ов), AC-3 | Профессиональный (многоголосый, закадровый)Аудио: Russian, 448 Кбит/сек, 48,0 КГц, 16 бит, 6 канала(ов), AC-3 | Профессиональный ( одноголосый , закадровый )ИвановАудио: English, 384 Кбит/сек, 48,0 КГц, 16 бит, 6 канала(ов), AC-3 | ОригиналСубтитры: Russian, English - VobSubВидео: Идентификатор : 1 Формат : AVC Формат/Информация : Advanced Video Codec Профиль формата : [email protected] Параметр CABAC формата : Да Параметр ReFrames формата : 10 кадры Идентификатор кодека : V_MPEG4/ISO/AVC Продолжительность : 1 ч. 54 м. Битрейт : 4006 Кбит/сек Ширина : 1280 пикс. Высота : 544 пикс. Соотношение сторон : 2,35:1 Частота кадров : 23,976 кадр/сек Цветовое пространство : YUV Подвыборка цветности : 4:2:0 Битовая глубина : 8 бит Тип развёртки : Прогрессивная Бит/(Пиксели*Кадры) : 0.240 Размер потока : 3,11 Гбайт (71%) Библиотека кодирования : x264 core 116 r2019 9cc407d Настройки программы : cabac=1 / ref=10 / deblock=1:-3:-3 / analyse=0x3:0x133 / me=umh / subme=8 / psy=1 / psy_rd=1.00:0.15 / mixed_ref=1 / me_range=32 / chroma_me=1 / trellis=2 / 8x8dct=1 / cqm=0 / deadzone=21,11 / fast_pskip=0 / chroma_qp_offset=-3 / threads=6 / sliced_threads=0 / nr=0 / decimate=1 / interlaced=0 / bluray_compat=0 / constrained_intra=0 / bframes=8 / b_pyramid=2 / b_adapt=2 / b_bias=0 / direct=3 / weightb=1 / open_gop=0 / weightp=2 / keyint=250 / keyint_min=24 / scenecut=40 / intra_refresh=0 / rc_lookahead=60 / rc=2pass / mbtree=1 / bitrate=4006 / ratetol=1.0 / qcomp=0.60 / qpmin=0 / qpmax=69 / qpstep=4 / cplxblur=20.0 / qblur=0.5 / vbv_maxrate=50000 / vbv_bufsize=50000 / nal_hrd=none / ip_ratio=1.40 / aq=1:1.00 Язык : EnglishАудио #1: Идентификатор : 2 Формат : AC-3 Формат/Информация : Audio Coding 3 Расширение режима : CM (complete main) Идентификатор кодека : A_AC3 Продолжительность : 1 ч. 54 м. Вид битрейта : Постоянный Битрейт : 448 Кбит/сек Канал(ы) : 6 канала(ов) Расположение каналов : Front: L C R, Side: L R, LFE Частота : 48,0 КГц Битовая глубина : 16 бит Метод сжатия : С потерями Размер потока : 366 Мбайт (8%) Язык : RussianАудио #2: Идентификатор : 3 Формат : AC-3 Формат/Информация : Audio Coding 3 Расширение режима : CM (complete main) Идентификатор кодека : A_AC3 Продолжительность : 1 ч. 54 м. Вид битрейта : Постоянный Битрейт : 192 Кбит/сек Канал(ы) : 2 канала(ов) Расположение каналов : Front: L R Частота : 48,0 КГц Битовая глубина : 16 бит Метод сжатия : С потерями Размер потока : 157 Мбайт (4%) Язык : RussianАудио #3: Идентификатор : 4 Формат : AC-3 Формат/Информация : Audio Coding 3 Расширение режима : CM (complete main) Идентификатор кодека : A_AC3 Продолжительность : 1 ч. 54 м. Вид битрейта : Постоянный Битрейт : 448 Кбит/сек Канал(ы) : 6 канала(ов) Расположение каналов : Front: L C R, Side: L R, LFE Частота : 48,0 КГц Битовая глубина : 16 бит Метод сжатия : С потерями Размер потока : 366 Мбайт (8%) Язык : RussianАудио #4: Идентификатор : 5 Формат : AC-3 Формат/Информация : Audio Coding 3 Расширение режима : CM (complete main) Идентификатор кодека : A_AC3 Продолжительность : 1 ч. 54 м. Вид битрейта : Постоянный Битрейт : 384 Кбит/сек Канал(ы) : 6 канала(ов) Расположение каналов : Front: L C R, Side: L R, LFE Частота : 48,0 КГц Битовая глубина : 16 бит Метод сжатия : С потерями Размер потока : 314 Мбайт (7%) Язык : English 4,37 Gb 4 3 25 июля 2016 11:31 Коматозники / Flatliners (1990) BDRip от HQCLUB .torrent   [Информация о файле (нажмите для просмотра)] Перевод: Профессиональный (полное дублирование) + Оригинальная звуковая дорожка +Профессиональный (многоголосый, закадровый)Субтитры: Русские, английские (внешние *.srt)Формат: AVIКачество: BDRip (источник:Видео: 720x304 (2.37:1), 23.976 fps, XviD build 64 ~1960 kbps avg, 0.37 bit/pixelАудио #1: 48 kHz, AC3 Dolby Digital, 3/2 (L,C,R,l,r) + LFE ch, ~384.00 kbps avgАудио #2: 48 kHz, AC3 Dolby Digital, 3/2 (L,C,R,l,r) + LFE ch, ~384.00 kbps avgАудио #3: 48 kHz, AC3 Dolby Digital, 2/0 (L,R) ch, ~192.00 kbps avg |MVO|(отдельно на Narod.Ru) 2,18 Gb 2 2 25 июля 2016 11:31 Коматозники / Flatliners (1990) BDRip от HQ-ViDEO .torrent   [Информация о файле (нажмите для просмотра)] Перевод: Русский дублированный + Оригинальная дорожкаКодек: XviDКачество: BDRipВидео: 720x304, 23.976 fps, 1962 kbps, 0.37 bit/pixel, XviD MPEG-4Звук: Audio #1 (RUS): 48 kHz, 6 ch, 384.00 kbps, AC3 Dolby Digital Audio #2 (ENG): 48 kHz, 6 ch, 384.00 kbps, AC3 Dolby Digital 2,18 Gb 7 1

gig-torrent.net

Коматозники 1990 - скачать бесплатно через торрент в хорошем качестве. Без регистрации

Название: Коматозники / Flatliners (1990) BDRip 720p
Качество видео: BDRip
Перевод: Профессиональный (полное дублирование), Профессиональный (многоголосый, закадровый), 3 x Профессиональный (двухголосый, закадровый), Авторский (Иванов), Оригинальный
Видео: AVC, 1280x544 (2.35:1), 4746 kbps, 23,976 fps, 0,284 bpp
Аудио: русский / AC3 / 5.1 / 48 kHz / 448 kbps Дубляжрусский / AC3 / 2.0 / 48 kHz / 192 kbps MVO ( R5 )русский / AC3 / 2.0 / 48 kHz / 224 kbps DVO ( ОРТ / Селена Интернешнл ) | VHSRip by Fikaloidрусский / AC3 / 2.0 / 48 kHz / 192 kbps DVO ( Видеосервис ) | VHSRip by bora86boraрусский / AC3 / 2.0 / 48 kHz / 192 kbps DVO ( Garsu Paraulis ) | VHSRip by Fikaloidрусский / AC3 / 2.0 / 48 kHz / 192 kbps AVO ( Иванов )английский / AC3 / 5.1 / 48 kHz / 448 kbps
Скачать

Загрузка начнется в течение 5 сек.

5.40 GB

Название: Коматозники / Flatliners (1990) BDRip 1080p от NNNB
Качество видео: BDRip 1080p (исходник Blu-ray Disc)
Перевод: Дублированный
Видео: 1920x816, 8635 Кбит/сек, 23,976 кадр/сек, AVC, x264, [email protected], 2.35:1, 0.230 Бит/[Пиксели*Кадры]
Аудио: AC-3, 448 Кбит/сек, 6 канала(ов), 48,0 КГц - Дублированный / РусскийAC-3, 640 Кбит/сек, 6 канала(ов), 48,0 КГц - Оригинал / Английский
Скачать

Загрузка начнется в течение 5 сек.

7.75 GB

Название: Коматозники / Flatliners (1990) BDRip-AVC | D
Качество видео: BDRip-AVC
Перевод: Дублированый ("Видеосервис")
Формат видео: MKV
Видео: H.264, 1200x510, 23.976 fps, ~2750 kbps, Бит/(Пиксели*Кадры): 0.184
Аудио: английскаяРусский, AC3, 3/2 (L,C,R,l,r) + LFE ch, 48 kHz, 448 kbps | Полное дублирование R5Английский, AC3, 3/2 (L,C,R,l,r) + LFE ch, 48 kHz, 448 kbps | Оригинал
Скачать

Загрузка начнется в течение 5 сек.

2.91 GB

Название: Коматозники / Flatliners (1990) HDRip от Kinobomond
Качество видео: HDRip
Перевод: Дублированный
Видео: XviD 720x304 (2.37:1), 23.976 fps, XviD MPEG-4, 2375 kbps avg, 0.45 bit/pixel
Аудио: 48 kHz, AC3 Dolby Digital, 3/2 (L,C,R,l,r) + LFE ch, 448.00 kbps avg
Скачать

Загрузка начнется в течение 5 сек.

2.26 GB

Название: Коматозники / Flatliners (1990) BDRip от PowerTracker
Качество видео: BDRip
Видео: кодек: XviD, размер кадра: 720x304, битрейт: 1426 кб/с, bit/pixel: 0.272
Аудио: язык: Русский , перевод: дублированный (дубляж), кодек: AC3 5.1, битрейт: 384.00 кб/с
Скачать

Загрузка начнется в течение 5 сек.

1.45 GB

www.kinovit.net

Скачать фильм Коматозники через торрент в хорошем качестве бесплатно 1080p by msltel] DUB

ОбщееУникальный идентификатор : 182675271725328361826987230517668431813 (0x896DFA436F8FE4199BF69D48F55547C5)Полное имя : D:\Video\Коматозники.1990.BDRip.1080p.mkvФормат : MatroskaВерсия формата : Version 4 / Version 2Размер файла : 10,8 ГбайтПродолжительность : 1 ч. 54 м.Общий поток : 13,5 Мбит/секДата кодирования : UTC 2016-05-02 13:41:41Программа кодирования : mkvmerge v8.2.0 ('World of Adventure') 64bitБиблиотека кодирования : libebml v1.3.1 + libmatroska v1.4.2

ВидеоИдентификатор : 1Формат : AVCФормат/Информация : Advanced Video CodecПрофиль формата : [email protected]Параметр CABAC формата : ДаПараметр ReFrames формата : 4 кадраИдентификатор кодека : V_MPEG4/ISO/AVCПродолжительность : 1 ч. 54 м.Битрейт : 10,9 Мбит/секШирина : 1920 пикселейВысота : 816 пикселейСоотношение сторон : 2,35:1Режим частоты кадров : ПостоянныйЧастота кадров : 23,976 (24000/1001) кадра/секЦветовое пространство : YUVСубдискретизация насыщенности : 4:2:0Битовая глубина : 8 битТип развёртки : ПрогрессивнаяБит/(Пиксели*Кадры) : 0.289Размер потока : 8,68 Гбайт (81%)Библиотека кодирования : x264 core 146 r2538 121396cНастройки программы : cabac=1 / ref=4 / deblock=1:-3:-3 / analyse=0x3:0x113 / me=umh / subme=10 / psy=1 / psy_rd=1.00:0.15 / mixed_ref=1 / me_range=32 / chroma_me=1 / trellis=2 / 8x8dct=1 / cqm=0 / deadzone=21,11 / fast_pskip=1 / chroma_qp_offset=-3 / threads=6 / lookahead_threads=1 / sliced_threads=0 / nr=0 / decimate=1 / interlaced=0 / bluray_compat=0 / constrained_intra=0 / bframes=11 / b_pyramid=2 / b_adapt=2 / b_bias=0 / direct=1 / weightb=1 / open_gop=0 / weightp=2 / keyint=230 / keyint_min=23 / scenecut=40 / intra_refresh=0 / rc_lookahead=40 / rc=crf / mbtree=0 / crf=17.7 / qcomp=0.60 / qpmin=0 / qpmax=69 / qpstep=4 / vbv_maxrate=40000 / vbv_bufsize=50000 / crf_max=0.0 / nal_hrd=none / filler=0 / ip_ratio=1.40 / pb_ratio=1.30 / aq=1:1.00Язык : EnglishDefault : ДаForced : Нет

Аудио #1Идентификатор : 2Формат : AC-3Формат/Информация : Audio Coding 3Расширение режима : CM (complete main)Параметр Endianness формата : BigИдентификатор кодека : A_AC3Продолжительность : 1 ч. 54 м.Вид битрейта : ПостоянныйБитрейт : 448 Кбит/секКаналы : 6 каналовРасположение каналов : Front: L C R, Side: L R, LFEЧастота : 48,0 КГцЧастота кадров : 31,250 кадров/сек (1536 spf)Метод сжатия : С потерямиРазмер потока : 366 Мбайт (3%)Заголовок : DUBЯзык : RussianDefault : ДаForced : Нет

Аудио #2Идентификатор : 3Формат : AC-3Формат/Информация : Audio Coding 3Расширение режима : CM (complete main)Параметр Endianness формата : BigИдентификатор кодека : A_AC3Продолжительность : 1 ч. 54 м.Вид битрейта : ПостоянныйБитрейт : 192 Кбит/секКаналы : 2 каналаРасположение каналов : Front: L RЧастота : 48,0 КГцЧастота кадров : 31,250 кадров/сек (1536 spf)Метод сжатия : С потерямиРазмер потока : 157 Мбайт (1%)Заголовок : MVOЯзык : RussianDefault : НетForced : Нет

Аудио #3Идентификатор : 4Формат : DTSФормат/Информация : Digital Theater SystemsРежим : 16Параметр Endianness формата : BigИдентификатор кодека : A_DTSПродолжительность : 1 ч. 54 м.Вид битрейта : ПостоянныйБитрейт : 1510 Кбит/секКаналы : 6 каналовРасположение каналов : Front: L C R, Side: L R, LFEЧастота : 48,0 КГцЧастота кадров : 93,750 кадра/сек (512 spf)Битовая глубина : 16 битМетод сжатия : С потерямиРазмер потока : 1,21 Гбайт (11%)Заголовок : AVO (Михаил Иванов)Язык : RussianDefault : НетForced : Нет

Аудио #4Идентификатор : 5Формат : AC-3Формат/Информация : Audio Coding 3Расширение режима : CM (complete main)Параметр Endianness формата : BigИдентификатор кодека : A_AC3Продолжительность : 1 ч. 54 м.Вид битрейта : ПостоянныйБитрейт : 448 Кбит/секКаналы : 6 каналовРасположение каналов : Front: L C R, Side: L R, LFEЧастота : 48,0 КГцЧастота кадров : 31,250 кадров/сек (1536 spf)Метод сжатия : С потерямиРазмер потока : 366 Мбайт (3%)Заголовок : OriginalЯзык : EnglishDefault : НетForced : Нет

Текст #1Идентификатор : 6Формат : UTF-8Идентификатор кодека : S_TEXT/UTF8Идентификатор кодека/Информация : UTF-8 Plain TextПродолжительность : 1 ч. 48 м.Битрейт : 60 бит/секCount of elements : 760Размер потока : 48,1 Кбайт (0%)Заголовок : русскийЯзык : RussianDefault : НетForced : Нет

Текст #2Идентификатор : 7Формат : UTF-8Идентификатор кодека : S_TEXT/UTF8Идентификатор кодека/Информация : UTF-8 Plain TextПродолжительность : 1 ч. 48 м.Битрейт : 39 бит/секCount of elements : 796Размер потока : 31,2 Кбайт (0%)Заголовок : английскийЯзык : EnglishDefault : НетForced : Нет

piratbit.ru

Скачать фильм Коматозники через торрент в хорошем качестве бесплатно Коматозники / Flatliners (Джоэл Шумахер) [1990 г.

Размер: 2.92 GB | Добавлен: 3 года 6 мес. назад | Торрент скачан:70 раз
Реклама Дарим 3000 рублей за регистрацию, не упусти свой шанс получить шикарный бонус!!!

04-04-2014 17:15 Коматозники Скачать торрент  

Коматозники / Flatliners

«Есть границы, которые лучше не переходить»Год выпуска: 1990Страна: СШАЖанр: ужасы, фантастика, триллерПродолжительность: 01:54:12Перевод: Дубляж + Профессиональный многоголосый (R5) + Авторский одноголосый (М. Иванов)Субтитры: Русские, Английские

Режиссер: Джоэл ШумахерПродюссер: Рик Бибер, Майкл Дуглас, Питер ФилардиСценарий: Питер Филарди

Бюджет: $26 000 000Премьера в мире: 10 августа 1990

В ролях: Джулия Робертс, Кифер Сазерленд, Уильям Болдуин, Оливер Плэтт, Кевин Бэйкон, Кимберли Скотт, Джошуа Рудой, Бенджамин Моутон, Хоуп Дэвис

Описание: Достаточно сделать всего один шаг, чтобы перейти хрупкую грань между жизнью и смертью. Группа студентов-медиков выбрала для своих исследований запретную и опасную область. Будущие врачи решили проникнуть в тайну небытия, которое наступает после остановки сердца. Один за другим студенты погружаются в состояние клинической смерти, отправляясь в непредсказуемое путешествие по ту сторону жизни. Результаты исследований оказались настолько неожиданными, что побывавший ТАМ уже не может продолжать прежний образ жизни, даже если бы и хотел.

Качество: BDRip-AVCФормат: MKVВидео кодек: x264Аудио кодек: AC3Видео: MPEG-4 AVC, 2374 Кбит/с, 1024х436, 23.976 кадр/сАудио#1: Русский, АС3, 6 ch, 448 Кбит/с, 48,0 КГц (Дубляж)Аудио#2: Русский, AC3, 2 ch, 192 Кбит/с, 48,0 КГц (Профессиональный многоголосый, R5)Аудио#3: Русский, AC3, 2 ch, 192 Кбит/с, 48,0 КГц (Авторский одноголосый, М. Иванов)Аудио#4: Английский, АС3, 6 ch, 448 Кбит/с, 48,0 КГц (Оригинал)Релиз от:

Komotozniki.1990.x264.BDRip.(AVC)-MediaClub.mkvGeneralUnique ID : 194871666795258797027146763550739156428 (0x929AEAF78543ACDA85E5AFD5F5744DCC)Complete name : Komotozniki.1990.x264.BDRip.(AVC)-MediaClub.mkvFormat : MatroskaFormat version : Version 2File size : 2.92 GiBDuration : 1h 54mnOverall bit rate : 3 654 KbpsMovie name : Релиз от MediaClub (konstantin49)Encoded date : UTC 2013-06-23 23:27:31Writing application : mkvmerge v5.8.0 ('No Sleep / Pillow') built on Sep 2 2012 15:37:04Writing library : libebml v1.2.3 + libmatroska v1.3.0Video #1ID : 1Format : AVCFormat/Info : Advanced Video CodecFormat profile : [email protected] settings, CABAC : YesFormat settings, ReFrames : 8 framesCodec ID : V_MPEG4/ISO/AVCDuration : 1h 54mnBit rate : 2 374 KbpsWidth : 1 024 pixelsHeight : 436 pixelsDisplay aspect ratio : 2.35:1Frame rate mode : ConstantFrame rate : 23.976 fpsColor space : YUVChroma subsampling : 4:2:0Bit depth : 8 bitsScan type : ProgressiveBits/(Pixel*Frame) : 0.222Stream size : 1.84 GiB (63%)Writing library : x264 core 125 r2200 999b753Encoding settings : cabac=1 / ref=8 / deblock=1:-2:-2 / analyse=0x3:0x113 / me=umh / subme=11 / psy=1 / psy_rd=1.00:0.15 / mixed_ref=1 / me_range=32 / chroma_me=1 / trellis=2 / 8x8dct=1 / cqm=0 / deadzone=21,11 / fast_pskip=0 / chroma_qp_offset=-3 / threads=3 / lookahead_threads=1 / sliced_threads=0 / nr=0 / decimate=0 / interlaced=0 / bluray_compat=0 / constrained_intra=0 / bframes=8 / b_pyramid=2 / b_adapt=2 / b_bias=0 / direct=3 / weightb=1 / open_gop=1 / weightp=2 / keyint=240 / keyint_min=23 / scenecut=40 / intra_refresh=0 / rc=2pass / mbtree=0 / bitrate=2374 / ratetol=1.0 / qcomp=0.60 / qpmin=0 / qpmax=69 / qpstep=4 / cplxblur=20.0 / qblur=0.5 / ip_ratio=1.40 / pb_ratio=1.30 / aq=1:1.00Language : EnglishDefault : YesForced : NoColor primaries : Generic filmAudio #2ID : 2Format : AC-3Format/Info : Audio Coding 3Mode extension : CM (complete main)Format settings, Endianness : BigCodec ID : A_AC3Duration : 1h 54mnBit rate mode : ConstantBit rate : 448 KbpsChannel count : 6 channelsChannel positions : Front: L C R, Side: L R, LFESampling rate : 48.0 KHzBit depth : 16 bitsCompression mode : LossyStream size : 366 MiB (12%)Title : ДублированныйLanguage : RussianDefault : YesForced : NoAudio #3ID : 3Format : AC-3Format/Info : Audio Coding 3Mode extension : CM (complete main)Format settings, Endianness : BigCodec ID : A_AC3Duration : 1h 54mnBit rate mode : ConstantBit rate : 192 KbpsChannel count : 2 channelsChannel positions : Front: L RSampling rate : 48.0 KHzBit depth : 16 bitsCompression mode : LossyStream size : 157 MiB (5%)Title : Профессиональный многоголосый (R5)Language : RussianDefault : NoForced : NoAudio #4ID : 4Format : AC-3Format/Info : Audio Coding 3Mode extension : CM (complete main)Format settings, Endianness : BigCodec ID : A_AC3Duration : 1h 54mnBit rate mode : ConstantBit rate : 192 KbpsChannel count : 2 channelsChannel positions : Front: L RSampling rate : 48.0 KHzBit depth : 16 bitsCompression mode : LossyStream size : 157 MiB (5%)Title : Авторский одноголосый (Михаил Иванов)Language : RussianDefault : NoForced : NoAudio #5ID : 5Format : AC-3Format/Info : Audio Coding 3Mode extension : CM (complete main)Format settings, Endianness : BigCodec ID : A_AC3Duration : 1h 54mnBit rate mode : ConstantBit rate : 448 KbpsChannel count : 6 channelsChannel positions : Front: L C R, Side: L R, LFESampling rate : 48.0 KHzBit depth : 16 bitsCompression mode : LossyStream size : 366 MiB (12%)Title : ОригиналLanguage : EnglishDefault : NoForced : NoText #6ID : 6Format : UTF-8Codec ID : S_TEXT/UTF8Codec ID/Info : UTF-8 Plain TextLanguage : RussianDefault : YesForced : NoText #7ID : 7Format : UTF-8Codec ID : S_TEXT/UTF8Codec ID/Info : UTF-8 Plain TextLanguage : EnglishDefault : NoForced : No

Коматозники скачать торрент

Скачать Коматозники через торрент http://pic.pb.wtf/images/6/1xln3.jpg Скачать фильм Коматозники через торрент бесплантно в хорошем качестве Описание: Достаточно сделать всего один шаг, чтобы перейти хрупкую грань между жизнью и смертью. Группа студентов-медиков выбрала для своих ... 2014-04-04 17:15 9.6 10 10

Loading...

Loading...

Рекламный пират

05-04-2014 14:47 Коматозники Скачать торрент  

Вот это шедевр из далёкой юности,с удовольствием пересмотрю.Автору-поклон!

Дорогой пользователь! Огромная просьба, поблагодарите релизера, оцените раздачу и оставьте свои комментарий, если Вы скачали Коматозники через торрент бесплатно! Внесите свою лепту в развитие PiratBit!

Комментировать посты могут только пользователи прошедшие не сложную регистрацию

Коматозники через торрент Скачать бесплатно Коматозники Коматозники скачать торрент Коматозники смотреть онлайн Cкачать фильм Коматозники бесплатно Коматозники скачать торрент в хорошем качестве Коматозники смотреть онлайн бесплатно в хорошем качестве

Вы не можете начинать темыВы не можете отвечать на сообщенияВы не можете редактировать свои сообщенияВы не можете удалять свои сообщенияВы не можете голосовать в опросахВы не можете прикреплять файлы к сообщениямВы можете скачивать файлы

piratbit.ru

(2017)

HDRip

HDRip

HDRip

HDRip

HDRip

HDRip

HDRip

HDRip

HDRip

HDRip

HDRip

HDRip

HDRip

HDRip

HDRip

HDRip

HDRip

DVDRip

HDRip

HDRip

HDRip

HDRip

HDRip

HDRip

HDRip

HDRip

:HDRip : : Flatliners: : : , , , , , , , , , : , : , ,

: - , - .

1990 .

dle 11.0
, ! , 1. !2. , ! 3. !torrentum.org - , (2017) , ! , , . , , .

torrentum.org


Смотрите также