Скачать фильм королевский роман через торрент в хорошем качестве бесплатно


Скачать фильм Королевский роман (2012) через торрент

26 июля 2016 10:09 Королевский роман / En kongelig affre (2012) BDRip-AVC | iPad .torrent   [Информация о файле (нажмите для просмотра)] Перевод: Профессиональный (многоголосый закадровый) R5Формат: MP4 (контейнер m4v)Видео: AVC, 1024x432 (2.35:1) at 25.000 fps, AVC at 1834 kbps avg, 0.166 bit/pixelАудио: 48 kHz, AAC, 2ch, 114 Kbps | Russian | Многоголосый закадровыйАудио: 48 kHz, AAC, 2ch, 125 Kbps | English | Original 1,92 Gb 6 3 26 июля 2016 10:09 Королевский роман / A Royal Affair (2012) BDRip-AVC от FREEISLAND | P .torrent   [Информация о файле (нажмите для просмотра)] Перевод: Профессиональный многоголосыйКачество: BDRip-AVCФормат: MKVВидео: H.264, 1024x426 pix., 25.000 fps, 1561 Kbps, High [email protected]Аудио: AC3, 48.0 KHz, 448 Kbps, 6 channels, 16 bits 1,85 Gb 4 2 26 июля 2016 10:09 Королевский роман / En kongelig affre / A Royal Affair (2012) DVD9 от NovaLan .torrent   [Информация о файле (нажмите для просмотра)] Перевод: Профессиональный многоголосыйКодек: MPEG-2Качество: DVD-9Видео: PAL 16:9 (720x576) VBRЗвук: Русский, датский (Dolby AC3, 6 ch)Субтитры: Английские, датские, финские, норвежские, шведскиеВидео: Идентификатор : 224 (0xE0) Формат : MPEG Video Версия формата : Version 2 Профиль формата : [email protected] Параметр BVOP формата : Да Параметр матрицы формата : Выборочная Продолжительность : 16 м. Вид битрейта : Переменный Битрейт : 7833 Кбит/сек Максимальный битрейт : 8900 Кбит/сек Ширина : 720 пикселей Высота : 576 пикселей Соотношение сторон : 16:9 Частота кадров : 25,000 кадров/сек Стандарт вещания : PAL Цветовое пространство : YUV Субдискретизация насыщенности : 4:2:0 Битовая глубина : 8 бит Тип развёртки : Чересстрочная Порядок развёртки : Верхнее поле первое Метод сжатия : С потерями Бит/(Пиксели*Кадры) : 0.755 Размер потока : 901 Мбайт (88%)Аудио #1: Идентификатор : 189 (0xBD)-128 (0x80) Формат : AC-3 Формат/Информация : Audio Coding 3 Расширение режима : CM (complete main) Параметр Endianness формата : Big Режим смешивания : DVD-Video Продолжительность : 16 м. Вид битрейта : Постоянный Битрейт : 448 Кбит/сек Каналы : 6 каналов Расположение каналов : Front: L C R, Side: L R, LFE Частота : 48,0 КГц Битовая глубина : 16 бит Метод сжатия : С потерями Размер потока : 51,5 Мбайт (5%)Аудио #2: Идентификатор : 189 (0xBD)-129 (0x81) Формат : AC-3 Формат/Информация : Audio Coding 3 Расширение режима : CM (complete main) Параметр Endianness формата : Big Режим смешивания : DVD-Video Продолжительность : 16 м. Вид битрейта : Постоянный Битрейт : 448 Кбит/сек Каналы : 6 каналов Расположение каналов : Front: L C R, Side: L R, LFE Частота : 48,0 КГц Битовая глубина : 16 бит Метод сжатия : С потерями Размер потока : 51,5 Мбайт (5%) 7,91 Gb 3 5 26 июля 2016 10:09 Королевский роман / A Royal Affair / En kongelig affaere (2012) Blu-ray 1080i .torrent   [Информация о файле (нажмите для просмотра)] Перевод: Профессиональный многоголосый (R5)Кодек: MPEG-4 AVCКачество: Blu-ray 1080piВидео: 26.0 Мбит/с, 1920x1080, 23.976 кадр/сЗвук: Аудио #1: Русский (DTS-HD МА, 6 ch, 3454 Кбит/с)Аудио #2: Датский (DTS-HD МА, 6 ch, 3344 Кбит/с)Субтитры: АнглийскиеВидео: Идентификатор : 4113 (0x1011) Идентификатор меню : 1 (0x1) Формат : AVC Формат/Информация : Advanced Video Codec Профиль формата : [email protected] Параметр CABAC формата : Да Параметр ReFrames формата : 4 кадра Параметр GOP формата : M=3, N=24 Идентификатор кодека : 27 Продолжительность : 2 ч. 12 м. Вид битрейта : Переменный Битрейт : 28,1 Мбит/сек Максимальный битрейт : 30,5 Мбит/сек Ширина : 1920 пикселей Высота : 1080 пикселей Соотношение сторон : 16:9 Частота кадров : 25,000 кадров/сек Стандарт вещания : PAL Цветовое пространство : YUV Субдискретизация насыщенности : 4:2:0 Битовая глубина : 8 бит Размер потока : 25,9 Гбайт (81%) Основные цвета : BT.709-5, BT.1361, IEC 61966-2-4, SMPTE RP177 Характеристики трансфера : BT.709-5, BT.1361 Коэффициенты матрицы : BT.709-5, BT.1361, IEC 61966-2-4 709, SMPTE RP177 Оригинал : 00001.m2tsАудио #1: Идентификатор : 4352 (0x1100) Формат : DTS Формат/Информация : Digital Theater Systems Профиль формата : MA Продолжительность : 2 ч. 12 м. Частота : 48,0 КГц Метод сжатия : С потерями Язык : RussianАудио #2: Идентификатор : 4353 (0x1101) Формат : DTS Формат/Информация : Digital Theater Systems Профиль формата : MA Продолжительность : 2 ч. 12 м. Частота : 48,0 КГц Метод сжатия : С потерями Язык : Dutch 38,28 Gb 5 5 26 июля 2016 10:09 Королевский роман / A Royal Affair / En kongelig affre (2012) BDRip 1080p .torrent   [Информация о файле (нажмите для просмотра)] Перевод: Профессиональный (многоголосый, закадровый) (лицензия)Кодек: x264Качество: BDRip (источник: Blu-ray Disc)Видео: 1920x816 (2,35:1), 25 fps, 5350 kbpsАудио #1: AC-3, 6 ch, 448 kbps (Rus)Аудио #2: AC-3, 6 ch, 448 kbps (Dan)Субтитры: АнглийскиеВидео: Идентификатор : 1 Формат : AVC Формат/Информация : Advanced Video Codec Профиль формата : [email protected] Параметр CABAC формата : Да Параметр ReFrames формата : 5 кадров Идентификатор кодека : V_MPEG4/ISO/AVC Продолжительность : 2 ч. 12 м. Битрейт : 5350 Кбит/сек Ширина : 1920 пикселей Высота : 816 пикселей Соотношение сторон : 2,35:1 Частота кадров : 25,000 кадров/сек Цветовое пространство : YUV Субдискретизация насыщенности : 4:2:0 Битовая глубина : 8 бит Тип развёртки : Прогрессивная Бит/(Пиксели*Кадры) : 0.137 Размер потока : 4,82 Гбайт (84%) Заголовок : Release by AlexKa Библиотека кодирования : x264 core 129 r2230 1cffe9f Настройки программы : cabac=1 / ref=5 / deblock=1:0:0 / analyse=0x3:0x133 / me=umh / subme=10 / psy=1 / psy_rd=1.00:0.00 / mixed_ref=1 / me_range=32 / chroma_me=1 / trellis=2 / 8x8dct=1 / cqm=0 / deadzone=21,11 / fast_pskip=0 / chroma_qp_offset=-2 / threads=12 / lookahead_threads=2 / sliced_threads=0 / nr=0 / decimate=0 / interlaced=0 / bluray_compat=0 / constrained_intra=0 / bframes=5 / b_pyramid=2 / b_adapt=2 / b_bias=0 / direct=3 / weightb=1 / open_gop=0 / weightp=2 / keyint=250 / keyint_min=25 / scenecut=40 / intra_refresh=0 / rc=2pass / mbtree=0 / bitrate=5350 / ratetol=1.0 / qcomp=0.60 / qpmin=0 / qpmax=69 / qpstep=4 / cplxblur=20.0 / qblur=0.5 / ip_ratio=1.40 / pb_ratio=1.30 / aq=1:0.70 Язык : DanishАудио #1: Идентификатор : 2 Формат : AC-3 Формат/Информация : Audio Coding 3 Расширение режима : CM (complete main) Идентификатор кодека : A_AC3 Продолжительность : 2 ч. 12 м. Вид битрейта : Постоянный Битрейт : 448 Кбит/сек Каналы : 6 каналов Расположение каналов : Front: L C R, Side: L R, LFE Частота : 48,0 КГц Битовая глубина : 16 бит Метод сжатия : С потерями Размер потока : 423 Мбайт (7%) Заголовок : Rus Язык : RussianАудио #2: Идентификатор : 3 Формат : AC-3 Формат/Информация : Audio Coding 3 Расширение режима : CM (complete main) Идентификатор кодека : A_AC3 Продолжительность : 2 ч. 12 м. Вид битрейта : Постоянный Битрейт : 448 Кбит/сек Каналы : 6 каналов Расположение каналов : Front: L C R, Side: L R, LFE Частота : 48,0 КГц Битовая глубина : 16 бит Метод сжатия : С потерями Размер потока : 423 Мбайт (7%) Заголовок : Dan Язык : Danish 5,76 Gb 7 5 26 июля 2016 10:09 Королевский роман / En kongelig affre (2012) HDRip от Scarabey | P | Лицензия .torrent   [Информация о файле (нажмите для просмотра)] Перевод: Профессиональный (многоголосый, закадровый) R5Субтитры: нетКачество: HDRipФормат: AVIВидео: 720x304 (2.37:1), 24.000 fps, XviD build 50 ~1310 kbps avg, 0.25 bit/pixelАудио: 48 kHz, AC3 Dolby Digital, 2/0 (L,R) ch, ~192.00 kbps avg 1,45 Gb 25 4 26 июля 2016 10:09 Королевский роман / En kongelig affre (2012) HDRip от Scarabey | P | Лицензия .torrent   [Информация о файле (нажмите для просмотра)] Перевод: Профессиональный (многоголосый, закадровый) R5Субтитры: нетКачество: HDRipФормат: AVIВидео: 640x272 (2.35:1), 24.000 fps, XviD build 50 ~658 kbps avg, 0.16 bit/pixelАудио: 48 kHz, MPEG Layer 3, 2 ch, ~128.00 kbps avg 783,09 Mb 5 1 26 июля 2016 10:09 Королевский роман / En kongelig affre (2012) BDRip от HQCLUB | Лицензия .torrent   [Информация о файле (нажмите для просмотра)] Перевод: Профессиональный (многоголосый, закадровый)R5Субтитры: английскиеФормат: AVIКачество: BDRip (источник:Видео: 720x304 (2.37:1), 25 fps, XviD build 65 ~1908 kbps avg, 0.35 bit/pixelАудио #1: 48 kHz, AC3 Dolby Digital, 3/2 (L,C,R,l,r) + LFE ch, ~448 kbps avg|RUS (MVO - R5)|Аудио #2: 48 kHz, AC3 Dolby Digital, 3/2 (L,C,R,l,r) + LFE ch, ~448 kbps avg|DEN (ORIGINAL)| 2,18 Gb 10 3 26 июля 2016 10:09 Королевский роман / A Royal Affair / En kongelig affaere (2012) BDRip 720p .torrent   [Информация о файле (нажмите для просмотра)] Формат: MKV (x264)Качество: BDRip 720p [PFa]Видео: 4169 kb/s, 1280x544Звук: Russian: DTS, 755 kb/s (6 ch) / Danish: DTS, 1510 kb/s (6 ch)Субтитры: English 6,18 Gb 4 1 26 июля 2016 10:09 Королевский роман / En kongelig affre (2012) HDRip | Лицензия .torrent   [Информация о файле (нажмите для просмотра)] Формат: AVI (XviD)Качество: HDRip [720p.BluRay.x264-PFa]Видео: 1815 kb/s, 720x304Аудио: AC3, 448 kb/s (6 ch) 2,18 Gb 4 3 26 июля 2016 10:09 Королевский роман / En kongelig affre (2012) DVD9 от New-Team | лицензия .torrent   [Информация о файле (нажмите для просмотра)] Перевод: Профессиональный (многоголосый закадровый) [Лицензия]Кодек: MPEG2Качество: DVDВидео: PAL 16:9 (720x576(0.549)) MPEG Video, 25,000 кадр/сек, 5694 Кбит/секЗвук: Аудио #1: Russian (Dolby AC3, 6 ch) 256 Кбит/сек, 48,0 КГцАудио #2: Russian (DTS, 6 ch) 768 Кбит/сек, 48,0 КГцАудио #3: Danish (Dolby AC3, 6 ch) 256 Кбит/сек, 48,0 КГцСубтитры: нет 6,51 Gb 5 1 26 июля 2016 10:09 Королевский роман / En kongelig affre (2012) HDRip от Torrent-Xzona | КПК .torrent   [Информация о файле (нажмите для просмотра)] Перевод: Профессиональный многоголосыйКодек: х264Качество: HDRip| КПКВидео: 640х272, 23,976 кадр/сек, 276 Кбит/сЗвук: ААС LC, 2 ch, 128 Кбит/секСубтитры: Английские (неотключаемые) 399,72 Mb 3 1 26 июля 2016 10:09 Королевский роман / En kongelig affre (2012) BDRip-AVC от ExKinoRay .torrent   [Информация о файле (нажмите для просмотра)] Перевод: Профессиональный многоголосыйСубтитры: Английские (неотключаемые)Кодек: H.264Качество: BDRip (AVC) (Blu-Ray Remux (1080p))Видео: MPEG-4 AVC, 2625 Kбит/с, 1024x436, 24.000 кадр/сЗвук: Русский (AC3, 2 ch, 192 Кбит/с), английский (AC3, 6 ch, 448 Кбит/с)Видео: Идентификатор : 1 Формат : AVC Формат/Информация : Advanced Video Codec Профиль формата : [email protected] Параметр CABAC формата : Да Параметр ReFrames формата : 8 кадров Идентификатор кодека : V_MPEG4/ISO/AVC Продолжительность : 2 ч. 17 м. Битрейт : 2625 Кбит/сек Ширина : 1024 пикселя Высота : 436 пикселей Соотношение сторон : 2,35:1 Частота кадров : 24,000 кадра/сек Цветовое пространство : YUV Субдискретизация насыщенности : 4:2:0 Битовая глубина : 8 бит Тип развёртки : Прогрессивная Бит/(Пиксели*Кадры) : 0.245 Размер потока : 2,46 Гбайт (78%) Заголовок : Rip by Enigma-Vladislav71 Библиотека кодирования : x264 core 92 r1510 33d382a Настройки программы : cabac=1 / ref=8 / deblock=1:-2:-2 / analyse=0x3:0x133 / me=umh / subme=10 / psy=1 / psy_rd=1.00:0.00 / mixed_ref=1 / me_range=48 / chroma_me=1 / trellis=2 / 8x8dct=1 / cqm=0 / deadzone=21,11 / fast_pskip=0 / chroma_qp_offset=-2 / threads=3 / sliced_threads=0 / nr=0 / decimate=0 / interlaced=0 / constrained_intra=0 / bframes=8 / b_pyramid=2 / b_adapt=2 / b_bias=0 / direct=3 / wpredb=1 / wpredp=2 / keyint=240 / keyint_min=23 / scenecut=40 / intra_refresh=0 / rc=2pass / mbtree=0 / bitrate=2625 / ratetol=1.0 / qcomp=0.60 / qpmin=10 / qpmax=51 / qpstep=4 / cplxblur=20.0 / qblur=0.5 / ip_ratio=1.40 / pb_ratio=1.30 / aq=1:1.00 Язык : English Default : Да Forced : НетАудио #1: Идентификатор : 2 Формат : AC-3 Формат/Информация : Audio Coding 3 Расширение режима : CM (complete main) Идентификатор кодека : A_AC3 Продолжительность : 2 ч. 17 м. Вид битрейта : Постоянный Битрейт : 192 Кбит/сек Каналы : 2 канала Расположение каналов : Front: L R Частота : 48,0 КГц Битовая глубина : 16 бит Метод сжатия : С потерями Размер потока : 189 Мбайт (6%) Язык : Russian Default : Да Forced : НетАудио #2: Идентификатор : 3 Формат : AC-3 Формат/Информация : Audio Coding 3 Расширение режима : CM (complete main) Идентификатор кодека : A_AC3 Продолжительность : 2 ч. 17 м. Вид битрейта : Постоянный Битрейт : 448 Кбит/сек Каналы : 6 каналов Расположение каналов : Front: L C R, Side: L R, LFE Частота : 48,0 КГц Битовая глубина : 16 бит Метод сжатия : С потерями Размер потока : 441 Мбайт (14%) Язык : English Default : Нет Forced : Нет 3,14 Gb 2 3 26 июля 2016 10:09 Королевский роман / En kongelig affre (2012) BDRip 720p .torrent   [Информация о файле (нажмите для просмотра)] Перевод: Профессиональный многоголосыйКодек: MPEG-4 AVCКачество: BDRip 720pВидео: 5318 Кбит/с, 1280x544Звук: Русский (AC3, 2 ch, 192 Кбит/с), датский (DTS, 6 ch, 1509 Кбит/с)Субтитры: Английские 6,74 Gb 2 1 26 июля 2016 10:09 Королевский роман / A Royal Affair / En kongelig affre (2012) HDRip .torrent   [Информация о файле (нажмите для просмотра)] Формат: AVI (XviD)Качество: HDRip [BluRay.720p.x264.DTS-HDChina]Видео: 1938 kb/s, 720x304Аудио: AC3, 192 kb/s (2 ch)Субтитры: English [hardsub] 2,05 Gb 3 5

gig-torrent.net

Скачать фильм Королевский роман через торрент в хорошем качестве бесплатно BDRip-AVC

Размер: 1.85 GB | Добавлен: 4 года 9 мес. назад | Торрент скачан:300 раз
Реклама Дарим 3000 рублей за регистрацию, не упусти свой шанс получить шикарный бонус!!!

06-01-2013 23:22 Королевский роман Скачать торрент  

Королевский роман / A Royal Affair

Год выпуска: 2012Страна: ДанияЖанр: Драма, мелодрама, историяПродолжительность: 02:12:04Перевод: Профессиональный многоголосый

Режиссер: Николай АрселПродюссер: Мета Луиза Фольдагер, Сиссе Граум Олсен, Луиз ВестСценарий: Расмус Хейстерберг, Николай Арсел, Бодиль Стинсен-Лет

Мировой рейтинг IMDB 7.50 (5 223)

В ролях: Алисия Викандер, Мадс Миккельсен, Миккель Фольсгаард, Трине Дюрхольм, Давид Денсик, Томас В. Габриэльссон, Сайрон Бьорк Мелвиль, Бент Мейдинг, Харриет Уолтер, Лаура Бро

Описание: Действие картины происходит в начале 1770-х годов в Дании. Датский король Кристиан VII, страдающий серьезным психическим заболеванием, предпочитает проводить время в притонах Копенгагена, вызывая тем самым ненависть юной королевы Каролины Матильды.Вскоре в свите короля появляется молодой германский доктор Иоганн Фридрих Струэнзе, сумевший благотворно повлиять на Кристиана VII и, завоевав его доверие, получить ряд государственных постов. Струэнзе сближается и с Каролиной Матильдой. Но королева-мать Юлиана Мария не может смириться с таким положением дел...

Исходник: Качество: BDRip-AVCФормат: MKVВидео кодек: H.264Аудио кодек: AC3Видео: H.264, 1024x426 pix., 25.000 fps, 1561 Kbps, High [email protected]Аудио: AC3, 48.0 KHz, 448 Kbps, 6 channels, 16 bits

GeneralUnique ID : 207979892642950310311745971900473408338 (0x9C7778660CA4925587E06F4FF25FFB52)Complete name : D:BDRip-AVCКоролевский роман (2012).mkvFormat : MatroskaFormat version : Version 2File size : 1.85 GiBDuration : 2h 12mnOverall bit rate : 2 007 KbpsEncoded date : UTC 2013-01-06 23:02:19Writing application : mkvmerge v5.8.0 ('No Sleep / Pillow') built on Sep 2 2012 15:37:04Writing library : libebml v1.2.3 + libmatroska v1.3.0

VideoID : 1Format : AVCFormat/Info : Advanced Video CodecFormat profile : High [email protected] settings, CABAC : YesFormat settings, ReFrames : 15 framesCodec ID : V_MPEG4/ISO/AVCDuration : 2h 12mnBit rate : 1 561 KbpsWidth : 1 024 pixelsHeight : 426 pixelsDisplay aspect ratio : 2.40:1Frame rate mode : ConstantFrame rate : 25.000 fpsColor space : YUVChroma subsampling : 4:2:0Bit depth : 10 bitsScan type : ProgressiveBits/(Pixel*Frame) : 0.143Stream size : 1.40 GiB (76%)Writing library : x264 core 129 r2230+696+35 805d074 tMod [[email protected] X86_64]Encoding settings : cabac=1 / ref=15 / deblock=1:-4:-4 / analyse=0x3:0x133 / me=tesa / subme=11 / psy=1 / fade_compensate=0.00 / psy_rd=1.00:0.15 / mixed_ref=1 / me_range=32 / chroma_me=1 / trellis=2 / 8x8dct=1 / cqm=0 / deadzone=21,11 / fast_pskip=1 / chroma_qp_offset=-3 / threads=4 / lookahead_threads=1 / sliced_threads=0 / nr=0 / decimate=1 / interlaced=0 / bluray_compat=0 / constrained_intra=0 / fgo=0 / bframes=9 / b_pyramid=2 / b_adapt=2 / b_bias=0 / direct=2 / weightb=1 / open_gop=0 / weightp=1 / keyint=240 / keyint_min=25 / scenecut=40 / intra_refresh=0 / rc_lookahead=60 / rc=2pass / mbtree=1 / bitrate=1561 / ratetol=1.0 / qcomp=0.60 / qpmin=0 / qpmax=81 / qpstep=4 / cplxblur=20.0 / qblur=0.5 / ip_ratio=1.40 / aq=1:1.00Language : EnglishDefault : YesForced : NoColor primaries : BT.709Transfer characteristics : BT.709Matrix coefficients : BT.709

AudioID : 2Format : AC-3Format/Info : Audio Coding 3Mode extension : CM (complete main)Format settings, Endianness : BigCodec ID : A_AC3Duration : 2h 12mnBit rate mode : ConstantBit rate : 448 KbpsChannel(s) : 6 channelsChannel positions : Front: L C R, Side: L R, LFESampling rate : 48.0 KHzBit depth : 16 bitsCompression mode : LossyStream size : 423 MiB (22%)Default : YesForced : No

Скачать Королевский роман через торрент http://s018.radikal.ru/i524/1301/1b/9e946aaaeff9.png Скачать фильм Королевский роман через торрент бесплантно в хорошем качестве Описание: Действие картины происходит в начале 1770-х годов в Дании. Датский король Кристиан VII, страдающий серьезным психическим ... 2013-01-06 23:22 9.3 10 3

Loading...

Loading...

Рекламный пират

07-01-2013 09:22 Королевский роман Скачать торрент  

скачал, в плеере зеленый экран весь фильм

07-01-2013 13:48 Королевский роман Скачать торрент  

RomanGreat, внимательно смотрите характеристики видео, перед тем, как качать.

Цитата:

Format profile : High [email protected] depth : 10 bits

Настраивайте свой плеер. К тому же есть sample, если есть сомнения насчет воспроизведения видео.

07-01-2013 13:55 Королевский роман Скачать торрент  

Соломон Немни, не смотрел, всё собираюсь, но не получается

Дорогой пользователь! Огромная просьба, поблагодарите релизера, оцените раздачу и оставьте свои комментарий, если Вы скачали Королевский роман через торрент бесплатно! Внесите свою лепту в развитие PiratBit!

Комментировать посты могут только пользователи прошедшие не сложную регистрацию

Королевский роман через торрент Скачать бесплатно Королевский роман Королевский роман скачать торрент Королевский роман смотреть онлайн Cкачать фильм Королевский роман бесплатно Королевский роман скачать торрент в хорошем качестве Королевский роман смотреть онлайн бесплатно в хорошем качестве

Вы не можете начинать темыВы не можете отвечать на сообщенияВы не можете редактировать свои сообщенияВы не можете удалять свои сообщенияВы не можете голосовать в опросахВы не можете прикреплять файлы к сообщениямВы можете скачивать файлы

piratbit.ru

Скачать фильм Королевский роман через торрент в хорошем качестве бесплатно DVD9

Размер: 6.51 GB | Добавлен: 4 года 9 мес. назад | Торрент скачан:58 раз
Реклама Дарим 3000 рублей за регистрацию, не упусти свой шанс получить шикарный бонус!!!

26-12-2012 08:37 Королевский роман Скачать торрент  

Королевский роман / En kongelig affære«They changed a nation forever» Страна: Дания, Швеция, ЧехияСтудия: DR TV, Film i Väst, Sirena Film, Sveriges Television (SVT), Trollhättan Film AB, Zentropa EntertainmentsЖанр: драма, мелодрама, историяГод выпуска: 2012Мировая премьера: 16 февраля 2012Дата выхода DVD: 12 декабря 2012Продолжительность: 02:12:05Перевод: Профессиональный (многоголосый закадровый) [Лицензия]Cубтитры: нетОригинальная аудиодорожка: датскийРежиссер: Николай Арсел / Nikolaj ArcelВ ролях: Алисия Викандер, Мадс Миккельсен, Миккель Фольсгаард,Трине Дюрхольм, Давид Денсик, Томас В. Габриэльссон, Сайрон Бьорк Мелвиль, Бент Мейдинг, Харриет Уолтер, Лаура БроОписание: Действие картины происходит в начале 1770-х годов в Дании. Датский король Кристиан VII, страдающий серьезным психическим заболеванием, предпочитает проводить время в притонах Копенгагена, вызывая тем самым ненависть юной королевы Каролины Матильды.Вскоре в свите короля появляется молодой германский доктор Иоганн Фридрих Струэнзе, сумевший благотворно повлиять на Кристиана VII и, завоевав его доверие, получить ряд государственных постов. Струэнзе сближается и с Каролиной Матильдой. Но королева-мать Юлиана Мария не может смириться с таким положением дел…Бонусы: нет Релиз группы: Качество: DVD9 R5Формат: DVD-VideoВидео кодек: MPEG2Аудио кодек: AC3 + DTSВидео: PAL 16:9 (720x576(0.549)) MPEG Video, 25,000 кадр/сек, 5694 Кбит/секАудио #1: Russian (Dolby AC3, 6 ch) 256 Кбит/сек, 48,0 КГцАудио #2: Russian (DTS, 6 ch) 768 Кбит/сек, 48,0 КГцАудио #3: Danish (Dolby AC3, 6 ch) 256 Кбит/сек, 48,0 КГцTitle: Korolevskij.roman.2012.DVD9Size: 6.51 Gb ( 6 825 640,00 KBytes ) - DVD-9Enabled regions: 1, 2, 3, 4, 5, 6, 7, 8

VTS_01 :Play Length: 00:00:10Video: PAL 16:9 (720x576) VBR, Auto Pan&Scan, Auto Letterboxed

VTS_02 :Play Length: 00:00:06Video: PAL 16:9 (720x576) VBR, Auto Pan&Scan, Auto Letterboxed

VTS_03 :Play Length: 02:12:05Video: PAL 16:9 (720x576) VBR, Auto Pan&Scan, Auto LetterboxedAudio:Not specified (Dolby AC3, 6 ch)Not specified (DTS, 6 ch)Not specified (Dolby AC3, 6 ch)

* Menus Information *

VIDEO_TS MenuVideo:PAL 16:9 (720x576) VBRAuto Pan&Scan, Auto LetterboxedEnglish Language Unit :Title Menu

VTS_01 MenuVideo:PAL 16:9 (720x576) VBRAuto Pan&Scan, Auto LetterboxedAudio:Not specified (Dolby AC3, 6 ch)English Language Unit :Root Menu

VTS_02 MenuVideo:PAL 4:3 (720x576) VBREnglish Language Unit :Root Menu

VTS_03 MenuVideo:PAL 4:3 (720x576) VBREnglish Language Unit :Root Menu

ОбщееПолное имя : J:Новинки 2012Korolevskij.roman.2012.DVD9VIDEO_TSVTS_03_1.VOBФормат : MPEG-PSРазмер файла : 1024 МбайтПродолжительность : 20 м.Режим общего битрейта : ПеременныйОбщий поток : 7102 Кбит/сек

ВидеоИдентификатор : 224 (0xE0)Формат : MPEG VideoВерсия формата : Version 2Профиль формата : [email protected]Параметр BVOP формата : ДаПараметр матрицы формата : ВыборочнаяПараметр GOP формата : M=3, N=12Продолжительность : 20 м.Вид битрейта : ПеременныйБитрейт : 5694 Кбит/секМаксимальный битрейт : 8300 Кбит/секШирина : 720 пикселейВысота : 576 пикселейСоотношение сторон : 16:9Частота кадров : 25,000 кадров/секСтандарт вещания : PALЦветовое пространство : YUVСубдискретизация насыщенности : 4:2:0Битовая глубина : 8 битТип развёртки : ПрогрессивнаяМетод сжатия : С потерямиБит/(Пиксели*Кадры) : 0.549Размер потока : 821 Мбайт (80%)Основные цвета : BT.601 PALХарактеристики трансфера : BT.470 System B, BT.470 System GКоэффициенты матрицы : BT.601

Аудио #1Идентификатор : 189 (0xBD)-128 (0x80)Формат : AC-3Формат/Информация : Audio Coding 3Расширение режима : CM (complete main)Параметр Endianness формата : BigРежим смешивания : DVD-VideoПродолжительность : 20 м.Вид битрейта : ПостоянныйБитрейт : 256 Кбит/секКаналы : 6 каналовРасположение каналов : Front: L C R, Side: L R, LFEЧастота : 48,0 КГцБитовая глубина : 16 битМетод сжатия : С потерямиРазмер потока : 36,9 Мбайт (4%)

Аудио #2Идентификатор : 189 (0xBD)-130 (0x82)Формат : AC-3Формат/Информация : Audio Coding 3Расширение режима : CM (complete main)Параметр Endianness формата : BigРежим смешивания : DVD-VideoПродолжительность : 20 м.Вид битрейта : ПостоянныйБитрейт : 256 Кбит/секКаналы : 6 каналовРасположение каналов : Front: L C R, Side: L R, LFEЧастота : 48,0 КГцБитовая глубина : 16 битМетод сжатия : С потерямиРазмер потока : 36,9 Мбайт (4%)

Аудио #3Идентификатор : 189 (0xBD)-137 (0x89)Формат : DTSФормат/Информация : Digital Theater SystemsРежим : 16Параметр Endianness формата : BigРежим смешивания : DVD-VideoПродолжительность : 20 м.Вид битрейта : ПостоянныйБитрейт : 755 Кбит/секКаналы : 6 каналовРасположение каналов : Front: L C R, Side: L R, LFEЧастота : 48,0 КГцБитовая глубина : 16 битМетод сжатия : С потерямиРазмер потока : 109 Мбайт (11%)

Скачать Королевский роман через торрент http://s020.radikal.ru/i722/1212/d2/d154ad86181f.jpg Скачать фильм Королевский роман через торрент бесплантно в хорошем качестве Описание: Действие картины происходит в начале 1770-х годов в Дании. Датский король Кристиан VII, страдающий серьезным психическим ... 2012-12-26 08:37 5 10 1

Loading...

Loading...

Рекламный пират

Дорогой пользователь! Огромная просьба, поблагодарите релизера, оцените раздачу и оставьте свои комментарий, если Вы скачали Королевский роман через торрент бесплатно! Внесите свою лепту в развитие PiratBit!

Комментировать посты могут только пользователи прошедшие не сложную регистрацию

Королевский роман через торрент Скачать бесплатно Королевский роман Королевский роман скачать торрент Королевский роман смотреть онлайн Cкачать фильм Королевский роман бесплатно Королевский роман скачать торрент в хорошем качестве Королевский роман смотреть онлайн бесплатно в хорошем качестве

Вы не можете начинать темыВы не можете отвечать на сообщенияВы не можете редактировать свои сообщенияВы не можете удалять свои сообщенияВы не можете голосовать в опросахВы не можете прикреплять файлы к сообщениямВы можете скачивать файлы

piratbit.ru

Королевский роман скачать через торрент » Торрент Кино

Все могут короли...------------------------------------------Дания 1770-х это бедность, эпидемии, жестокость и грязь. Среди всего этого существует полоумный Кристиан VII, пока страной правит Совет министров. Хотя нет, их сложно назвать министрами. Это корысливые и алчные дворяне, чьи глаза ослепило золото. Пока в Европе Просвещение освобождает глаза людей от церковных шор, Дания остается «наихудшей тюрьмой».

Молодую Каролину-Матильду, которой суждено стать королевой, настигает уйма разочарований. Вместо обещанного красивого, знающего толк в искусстве короля она встречает сумасшедшего, частенько предпочитающего супругу местным проституткам. Отныне ей больше нельзя читать свободолюбивых Вольтера и Руссо, - датская цензура запрещает вольные мысли.

Доктора Струэнзе, обычного городского врача назначают на должность личного лекаря несчастного короля. Питая необычайное доверие к немцу, Кристиан VІІ соглашается продвигать новаторские идеи Струэнзе в Совете, сменяя свое положение придворного шута на короля. Тем временем, королева влюбляется в доктора, который рискует хранить в своих покоях запрещенные книги и в придачу, писать собственные статьи. Струэнзе становится фактическим правителем Дании и не временит с крупными реформами. Знать теряет свое положение, а слухи о том, что отец второго ребенка Каролины вовсе не король позволяют аристократии во главе с королевой-матерью Юлианой Марией совершить дворцовый переворот.

Датский режиссер Николай Арсель уже второй раз использует для экранизации книгу. Как и прошлое его детище, легендарная «Девушка с татуировкой дракона», «Королевский роман» поражает своей масштабностью, целостностью и вниманием к деталям. Здесь все говорит о качестве: начиная с первых кадров цветочного поля в Англии, заканчивая сценарием (в написании которого он также участвовал) и подбором актеров. Алисия Викандер, напоминающая Натали Портман, как внешне, так и манерой игры, отлично сумела показать беззвучную гамму эмоций королевы-чужестранки, что страдает от непонимания и неприятия действительности. Кстати, совсем скоро мы увидим ее версию Китти в «Анне Карениной». Благородный Струэнзе в лице Миккеля Фольсгаарда учащает серцебиение своим пронзительным взглядом. Сюжет развивается динамично, все действия происходят в логичной последовательности, здесь нет затянутых моментов, на которых хочется выйти за попкорном. Подобные достоинства отметило и жюри Берлинского кинофестиваля, наградив ленту двумя Серебряными медведями за лучший сценарий и лучшую мужскую роль. Соединяя в себе любовную линию и правдивую историческую хронику, «Королевский роман» не может оставить зрителя равнодушным.------------------------------------------То, что немцу хорошо, датчанину - кость в горле------------------------------------------Датчанин Николай Арсел, набив руку на конструировании политических интриг в своем дебютном фильме «Игры королей» (2004), спустя восемь лет вновь вернулся к излюбленной теме, чтобы уже уверенной рукой интерпретировать исторические реалии второй половины XVIII века. Заполучив солидный бюджет, техническую и творческую поддержку от шведов и чехов, он изобразил времена бурных социальных преобразований в Дании как сюжет об амурных похождениях королевы, которая положила глаз на продвинутого и любвеобильного немецкого врача... Впрочем, обо всем по порядку.

1766-й год. В то время как в прогрессивной Европе Просвещение почти повсеместно раскрепощало дух и нравы, в консервативном датском королевстве всё ещё продолжали хлебать щи лаптем. В это самое время дочь принца Уэльского, 15-летняя Каролина Матильда, становится супругой своего кузена - эксцентричного датского монарха Кристиана VII. И поскольку король, страдающий психическим расстройством, сильно смахивающим на шизофрению, особенно не жалует юную королеву как жену, она в 18 лет делает своим фаворитом главного придворного доктора - Иоганна Фридриха Струэнзе.

Длящийся почти два с половиной часа «Королевский роман» - это два с половиной года как никогда бурной на события датской истории. Именно тогда немец Струэнзе сделал головокружительную карьеру и оказался самым влиятельным лицом в королевстве, став также одним из самых неутомимых и плодовитых реформаторов всех времен. Он за короткий срок наметил и отчасти реализовал 600 законодательных актов, ухитряясь почти ежедневно учреждать какой-то новый указ.

В большинстве своем его реформы опережали время и были слишком радикальны для того периода, который переживала Дания. Вот почему этот неутомимый любовник и неугомонный политик, фаворит королевы, инициатор либеральных преобразований, культивировавший и всячески внедрявший идеи Просвещения, быстро нажил себе множество врагов. Его инновации стали костью в горле для патриархальных датчан, которые, однако, не преминули воспользоваться некоторыми нововведениями Струэнзе (например, свободой печати) для того, чтобы его же и опорочить.

Николай Арсел обратился к тому непродолжительному и уникальному периоду, когда национальная история сильно напоминала большую театральную постановку, соединившую в себе множество жанров - от оперетты до трагедии. И американские академики при выборе номинантов могли вдохновиться не только перипетиями фабулы, но и реформаторскими идеями Струэнзе. В частности - отменой цензуры, которая боком вышла её инициатору: компромат в виде пасквилей о прелюбодеяниях королевы и любовника спровоцировал в итоге общественное недовольство.

Не исключено, что данная история лишний раз убедила академиков в преимуществах их демократического государства над королевской монархией, при которой междусобойчик лиц приближенных ко двору мог легко развернуть политический курс целого государства на 180 градусов. Возможно, ещё и поэтому «Королевский роман», доходчиво отзеркаливающий механизмы подковёрных манипуляций власть имущих, не остался незамеченным за океаном. Ну а для меня лично здесь исчерпывающе иллюстрируется ответ на вопрос: «Что происходит в стае, когда альфа-самец перестает быть доминантной особью?»

В развязке эта история, начавшаяся почти как фарс, превращается в трагедию. И финал ещё больше усиливает и без того очень хорошее впечатление от этой тщательно сконструированной и выразительно разыгранной исторической драмы, органично совместившей в себе любовные похождения королевских особ и казуистику придворных интриганов, напрямую связанных друг с другом.

Именно в завершающем эпизоде ведущий датский актер Мадс Миккельсен, играющий Струэнзе, в полной мере оправдывает своё присутствие. Одним только взглядом он ухитряется передать гамму сильнейших чувств - от иллюзии быть помилованным в последний момент до ужаса перед восхождением на окроплённый свежей кровью эшафот. И эта, по сути своей, главная сцена не просто дорогого стоит. Именно она-то и придает фильму статус идейного кино, которое теперь всё реже появляется на экранах.------------------------------------------Датские дворцовые интриги------------------------------------------В последнее время датский кинематограф очень приятно меня удивляет, хотя я к нему относился скептически. Кроме Ларса фон Триера, мне попадались какие-то неудачные фильмы: «Мыло», «Заключенный R», «Остров потерянных душ». Наверное, поэтому я не сразу стал смотреть этот фильм, хотя отметил его для себя. А после лестной рекомендации все-таки решился.

Мне нравятся исторические драмы про монархов, но чаще всего мне попадались фильмы про британцев. Оказывается, история Дании не менее увлекательна. События возвращают нас в XVIII век. Каролина Матильда, дочь принца Уэльского Фредерика и Августы Саксен-Готской, была обречена стать королевой Дании, выйдя замуж за своего двоюродного брата Кристиана VII (по-моему, в фильме не упоминалось об их родстве). Бедняжке приходилось терпеть все эксцентричные выходки супруга. Зачатки его шизофрении были настолько очевидны, что государственный совет полностью правил страной, а сам король безудержно развлекался с проституткой Анной Катриной Бентгаген.

Во время путешествия по зарубежным странам Кристиан VII познакомился с доктором Струэнзе, которого в последствии ввел в светское общество Копенгагена. Иоганн Фридрих быстро завоевывал расположение знати, но Каролина Матильда соблаговолила не сразу к дружбе с придворным врачом. Однако, он завоевал ее доверие, когда спас наследника престола, ее сына Фредерика VI, проведя успешно вакцинацию против оспы. Более тесное общение с королевой позволило Струэнзе провести ряд важнейших реформ, ловко манипулируя королем.

Ох уж эти дворцовые интриги... Каждому хочется иметь кусочек власти. А уж когда они чувствуют ее в своих руках, их уже не остановить. Жалко мне все-таки Струэнзе. Он ввел много хороших реформ от отмены пыток до запрета на азартные игры. Вот только действовал он грубо, за что его многие не любили. Во-первых, он не считался с чужим мнением, получив от короля полномочия издавать указы якобы от его имени. Во-вторых, он моментально настроил против себя многих чиновников, уволив их без пенсии. В-третьих, свои указы он издавал на немецком языке, что естественно не приветствовалось датчанами. Ну, и слухи об интимной близости с Каролиной Матильдой стали последней искоркой, из которой оппоненты вместе со вдовствующей Юлианой Марией раздули целый пожар.

Но больше всего в этой истории мне жалко Каролину Матильду. С 15-ти лет она терпела унижения своего психически нездорового супруга. Она была заложницей в чужой стране. Девчонка, которой пришлось быстро взрослеть. Черт, да у нее даже книги забирали! Но при этом она не боялась ставить супруга на место. При всей своей неприязни к безумству мужа она все же искренне любила своего ребенка. Алисия Викандер покорила меня своей игрой. Вообще игра всех актеров была на высшем уровне. Мадс Миккельсен здорово проявил себя ближе к финалу. Очень эмоционально, но без перебора. Миккелю Фольсгаарду удалось изобразить чудаковатого короля на тонкой грани фарса.

Замечательная режиссура, великолепный антураж, точный пересказ исторических фактов. Некоторые нюансы опустили, но вроде ничего не переврали, насколько мне известно. Я в восторге! Хоть я не смотрел других претендентов на звание «Лучшего фильма на иностранном языке», но я был бы рад, чтоб статуэтка Оскар досталась именно этому фильму.

torrent-kino.org


Смотрите также