Скачать фильм красные огни через торрент в хорошем качестве бесплатно


Скачать фильм Красные огни (2011) через торрент

26 января 2016 08:10 Красные огни / Red Lights (2012) DVD9 от New-Team | D | лицензия .torrent   [Информация о файле (нажмите для просмотра)] Перевод: Профессиональный (дублированный) - лицензияСубтитры: нетКонтейнер: DVD VideoВидео: PAL 16x9 (720х576) VBR ~ 6129 kbps, Auto LetterboxedАудио 1: 48 kHz, Dolby DTS 5.1 1536 kbps РусскийАудио 2: 48 kHz, Dolby AC3 5.1 448 kbps РусскийАудио 3: 48 kHz, Dolby AC3 2,0 192 kbps Английский 7,44 Gb 8 3 26 января 2016 08:10 Красные огни / Red Lights (2011) HDRip от New-Team | iPhone .torrent   [Информация о файле (нажмите для просмотра)] Перевод: Профессиональный (дублированный)Кодек: H.264Качество: HDRipИсходник: BDRip 1080pВидео: 640x362 (852х362 анаморф), ~2.35:1, 1500 Kbps, 23.976 fpsЗвук: Русская дорожка, AAC, 2 канала, 48.0 KHz, 128 Kbps, F L,R Английская дорожка, AAC, 2 канала, 48.0 KHz, 128 Kbps, F L,RСубтитры: Русские и Английские 1,41 Gb 18 1 26 января 2016 08:10 Красные огни / Red Lights (2012) BDRip-AVC от leonardo 59 | Лицензия .torrent   [Информация о файле (нажмите для просмотра)] Перевод: Профессиональный (полное дублирование)Субтитры: русские, английскиеФормат: MKVВидео кодек: MPEG-4 AVC Аудио кодек: AC3Видео: AVC, 1024x436 (2.35:1) at 24.000 fps, AVC at 2035 kbps avg, 0.190 bit/pixelАудио: AC3, 6ch 448 kbps 2,01 Gb 58 6 26 января 2016 08:10 Красные огни / Red Lights (2012) BDRip 720p от leonardo 59 | Лицензия .torrent   [Информация о файле (нажмите для просмотра)] Перевод: Профессиональный (полное дублирование)Субтитры: русские, английскиеФормат: MKVВидео кодек: MPEG-4 AVC Аудио кодек: AC3Видео: AVC, 1280x544 (2.35:1) at 24.000 fps, AVC at 3113 kbps avg, 0.186 bit/pixelАудио 1: AC3, 6ch 448 kbpsАудио 2: AC3, 6ch 384 kbps 3,2 Gb 75 6 26 января 2016 08:10 Красные огни / Red Lights (2012) BDRip-AVC от leonardo 59 | iPad .torrent   [Информация о файле (нажмите для просмотра)] Перевод: ДублированныйКодек: H.264/AVCФормат: MP4 (контейнер m4v)Видео: 1024x436 (2.35:1) at 23.976 fps, AVC at 1286 kbps avg, 0.120 bit/pixelЗвук: Русский: 48 kHz, AAC, 2ch, 132kbps | ДублированныйЗвук: Английский: 48 kHz, AAC, 2ch, 129Kbps | ОригиналСубтитры: английские 1,24 Gb 11 1 26 января 2016 08:10 Красные огни / Red Lights (2012) BDRip 1080p от FREEISLAND .torrent   [Информация о файле (нажмите для просмотра)] Перевод: ДублированныйКачество: BDRipКонтейнер: MKVВидео: AVC, 1920x816 (2.35:1), 8717 kbps, 23,976 fps, 0,232 bppАудио №1: русский /; AC3 /; 5.1 /; 48 kHz /; 640 kbps /; 16 bitАудио №2: английский /; AC3 /; 5.1 /; 48 kHz /; 640 kbps /; 16 bitСубтитры №1: русскиеСубтитры №2: английские 7,95 Gb 18 2 26 января 2016 08:10 Красные огни / Red Lights (2012) BDRip 1080p от HQ-ViDEO | Лицензия .torrent   [Информация о файле (нажмите для просмотра)] Перевод: Профессиональный дублированный (Лицензия) + Оригинальная дорожка (Английская)Субтитры: Русские, Английские |.srt|Видео: x.264 / 1920 x 816 / 2.35:1 / 9000 kbps / 23,976 fpsАудио 1: Русский / AC3 Dolby Digital / 48 KHz / 640 kbps / 3/2 (L,C,R,l,r) + LFE chАудио 2: Английский / AC3 Dolby Digital / 48 KHz / 640 kbps / 3/2 (L,C,R,l,r) + LFE ch 8,17 Gb 12 5 26 января 2016 08:10 Красные огни / Red Lights (2012) BDRip 720p от HQ-ViDEO | Лицензия .torrent   [Информация о файле (нажмите для просмотра)] Перевод: Профессиональный дублированный (Лицензия) + Оригинальная дорожка (Английская)Субтитры: Русские, Английские |.srt|Видео: x.264 / 1280 x 544 / 2.35:1 / ~4400 kbps / 23,976 fpsАудио 1: Русский / AC3 Dolby Digital / 48 KHz / 640 kbps / 3/2 (L,C,R,l,r) + LFE chАудио 2: Английский / AC3 Dolby Digital / 48 KHz / 640 kbps / 3/2 (L,C,R,l,r) + LFE ch 4,62 Gb 17 2 26 января 2016 08:10 Красные огни / Red Lights (2012) BDRip от HQCLUB | Лицензия .torrent   [Информация о файле (нажмите для просмотра)] Перевод: Профессиональный (полное дублирование) + Оригинал (английский)Субтитры: русские, английские (полные, SDH) [внешние, srt*],украинскиеФормат: AVIКачество: BDRip (источник:Видео: 720x304 (2.37:1), 23.976 fps, XviD build 65 ~1845 kbps avg, 0.35 bit/pixelАудио #1: 48 kHz, AC3 Dolby Digital, 3/2 (L,C,R,l,r) + LFE ch, ~448 kbps avg (RUS)Аудио #2: 48 kHz, AC3 Dolby Digital, 3/2 (L,C,R,l,r) + LFE ch, ~448 kbps avg (ENG)Аудио #3: 48 kHz, AC3 Dolby Digital, 2/0 (L,R) ch, ~192 kbps avg (UKR)(отдельно) 2,19 Gb 74 7 26 января 2016 08:10 Красные огни / Red Lights (2012) DVD5 сжатый | Лицензия .torrent   [Информация о файле (нажмите для просмотра)] Перевод: Профессиональный (полное дублирование)Качество: DVD5 (сжатый)Формат: DVD VideoВидео: MPEG2; PAL 16:9 (720x576)Аудио: Dolby AC3, 6 ch, 448 KbpsRussianСубтитры: нетВидео: Идентификатор : 224 (0xE0) Формат : MPEG Video Версия формата : Version 2 Профиль формата : [email protected] Параметр BVOP формата : Да Параметр матрицы формата : Выборочная Продолжительность : 24 м. Вид битрейта : Переменный Битрейт : 5251 Кбит/сек Максимальный битрейт : 3744 Кбит/сек Ширина : 720 пикселей Высота : 576 пикселей Соотношение сторон : 16:9 Частота кадров : 25,000 кадров/сек Стандарт вещания : PAL Цветовое пространство : YUV Субдискретизация насыщенности : 4:2:0 Битовая глубина : 8 бит Тип развёртки : Прогрессивная Порядок развёртки : Нижнее поле первое Метод сжатия : С потерями Бит/(Пиксели*Кадры) : 0.506 Размер потока : 925 Мбайт (90%)Аудио: Идентификатор : 189 (0xBD)-128 (0x80) Формат : AC-3 Формат/Информация : Audio Coding 3 Расширение режима : CM (complete main) Режим смешивания : DVD-Video Продолжительность : 24 м. Вид битрейта : Постоянный Битрейт : 448 Кбит/сек Каналы : 6 каналов Расположение каналов : Front: L C R, Side: L R, LFE Частота : 48,0 КГц Битовая глубина : 16 бит Метод сжатия : С потерями Размер потока : 78,9 Мбайт (8%) 4,37 Gb 2 5 26 января 2016 08:10 Красные огни / Red Lights (2012) BDRip-AVC от Rulya74 .torrent   [Информация о файле (нажмите для просмотра)] Перевод: Дубляж, Оригинал (Английский)Кодек: h.264Качество: BDRip-AVCВидео: 1024x436 (2,35:1), 23.976 fps, 1245 kbps, 0.116 bit/pixelАудио#1: 48 kHz, AC3 5.1, 384.00 kbps (Дубляж)Аудио#2: 48 kHz, AC3 2.0, 192.00 kbps (Оригинал)Субтитры: Английские, Английские (SDH) - (вшитые отключаемые)Видео: Идентификатор : 1 Формат : AVC Формат/Информация : Advanced Video Codec Профиль формата : [email protected] Параметр CABAC формата : Да Параметр ReFrames формата : 7 кадров Идентификатор кодека : V_MPEG4/ISO/AVC Продолжительность : 1 ч. 53 м. Битрейт : 1245 Кбит/сек Ширина : 1024 пикселя Высота : 436 пикселей Соотношение сторон : 2,35:1 Частота кадров : 23,976 кадра/сек Цветовое пространство : YUV Субдискретизация насыщенности : 4:2:0 Битовая глубина : 8 бит Тип развёртки : Прогрессивная Бит/(Пиксели*Кадры) : 0.116 Размер потока : 986 Мбайт (66%) Библиотека кодирования : x264 core 128 r2216 198a7ea Настройки программы : cabac=1 / ref=7 / deblock=1:-1:-1 / analyse=0x3:0x113 / me=umh / subme=10 / psy=1 / psy_rd=1.00:0.05 / mixed_ref=1 / me_range=32 / chroma_me=1 / trellis=2 / 8x8dct=1 / cqm=0 / deadzone=21,11 / fast_pskip=0 / chroma_qp_offset=-3 / threads=16 / lookahead_threads=2 / sliced_threads=0 / nr=0 / decimate=1 / interlaced=0 / bluray_compat=0 / constrained_intra=0 / bframes=8 / b_pyramid=2 / b_adapt=2 / b_bias=0 / direct=3 / weightb=1 / open_gop=0 / weightp=2 / keyint=240 / keyint_min=22 / scenecut=40 / intra_refresh=0 / rc=2pass / mbtree=0 / bitrate=1245 / ratetol=1.0 / qcomp=0.60 / qpmin=10 / qpmax=51 / qpstep=4 / cplxblur=20.0 / qblur=0.5 / ip_ratio=1.40 / pb_ratio=1.30 / aq=2:1.00 Default : Да Forced : Нет Аудио #1: Идентификатор : 2 Формат : AC-3 Формат/Информация : Audio Coding 3 Расширение режима : CM (complete main) Идентификатор кодека : A_AC3 Продолжительность : 1 ч. 53 м. Вид битрейта : Постоянный Битрейт : 384 Кбит/сек Каналы : 6 каналов Расположение каналов : Front: L C R, Side: L R, LFE Частота : 48,0 КГц Битовая глубина : 16 бит Метод сжатия : С потерями Размер потока : 313 Мбайт (21%) Заголовок : Дубляж Язык : Russian Default : Да Forced : Нет Аудио #2: Идентификатор : 3 Формат : AC-3 Формат/Информация : Audio Coding 3 Расширение режима : CM (complete main) Идентификатор кодека : A_AC3 Продолжительность : 1 ч. 53 м. Вид битрейта : Постоянный Битрейт : 192 Кбит/сек Каналы : 2 канала Расположение каналов : Front: L R Частота : 48,0 КГц Битовая глубина : 16 бит Метод сжатия : С потерями Размер потока : 156 Мбайт (11%) Заголовок : Оригинал Язык : English Default : Нет Forced : Нет 1,45 Gb 36 2 26 января 2016 08:09 Красные огни / Red Lights (2012) HDRip-AVC | Лицензия .torrent   [Информация о файле (нажмите для просмотра)] Перевод: Профессиональный (полное дублирование) [Лицензия]Кодек: AVC, MKV, H.264Качество: HDRipВидео: 720 x 304 (2:35:1), 23.976 fps, AVC (х264), ~ 786 Kbps, 0.147 bit/pixel Звук: 48 kHz, MPEG Layer 3, 2 ch, ~128.00 kbps avg 745,76 Mb 12 5 26 января 2016 08:09 Красные огни / Red Lights (2012) HDRip | КПК от Generalfilm | Лицензия .torrent   [Информация о файле (нажмите для просмотра)] Качество: HDRip | КПКВидео: кодеккодек: x264,формат: mp4,размер кадра: 480х200, битрейт: 350 кб/сАудио: языкрусский, перевод: Дублированный (Лицензия), 391,4 Mb 8 1 26 января 2016 08:09 Красные огни / Red Lights (2012) HDRip от Scarabey | Лицензия .torrent   [Информация о файле (нажмите для просмотра)] Перевод: Профессиональный (дублированный)Субтитры: нетКачество: HDRipФормат: AVIВидео: 720x304 (2.37:1), 23.976 fps, XviD build 50 ~1367 kbps avg, 0.26 bit/pixelАудио: 48 kHz, AC3 Dolby Digital, 3/2 (L,C,R,l,r) + LFE ch, ~448.00 kbps avg 1,45 Gb 59 4 26 января 2016 08:09 Красные огни / Red Lights (2012) HDRip от Scarabey | Лицензия .torrent   [Информация о файле (нажмите для просмотра)] Перевод: Профессиональный (дублированный)Субтитры: нетКачество: HDRipФормат: AVIВидео: 640x272 (2.35:1), 23.976 fps, XviD build 50 ~774 kbps avg, 0.19 bit/pixelАудио: 48 kHz, MPEG Layer 3, 2 ch, ~128.00 kbps avg 742,78 Mb 6 4 26 января 2016 08:09 Красные огни / Red Lights (2012) BDRip от HELLYWOOD | Лицензия .torrent   [Информация о файле (нажмите для просмотра)] Перевод: Профессиональный дублированный | ЛицензияСубтитры: Русские, Английские(внешние, *.srt)Формат: AVIКачество: BDRip (источник: /Blu-Ray Disc HDChina /1080p) Видео: 720x304 (2.37:1), 23.976 fps, XviD build 65, 1842 kbps avg, 0.35 bit/pixelАудио #1: 48 kHz, AC3 Dolby Digital, 3/2 (L,C,R,l,r) + LFE ch, ~448 kbps|DUB|Аудио #2: 48 kHz, AC3 Dolby Digital, 3/2 (L,C,R,l,r) + LFE ch, ~448 kbps|ENG| 2,18 Gb 13 5 26 января 2016 08:09 Красные огни / Red Lights (2012) BDRip 1080p .torrent   [Информация о файле (нажмите для просмотра)] Перевод: Дублированный + ОригиналКодек: x264Качество: BDRip 1080pВидео: 1920x816, 5972 Kbps, 23.976 fpsАудио #1: AC-3, 6 ch, 640 kbps (Rus)Аудио #2: AC-3, 6 ch, 640 kbps (Eng)Видео: Идентификатор : 1 Формат : AVC Формат/Информация : Advanced Video Codec Профиль формата : [email protected] Параметр CABAC формата : Да Параметр ReFrames формата : 5 кадров Идентификатор кодека : V_MPEG4/ISO/AVC Продолжительность : 1 ч. 53 м. Битрейт : 5972 Кбит/сек Ширина : 1920 пикселей Высота : 816 пикселей Соотношение сторон : 2,35:1 Режим частоты кадров : Постоянный Частота кадров : 23,976 кадра/сек Цветовое пространство : YUV Субдискретизация насыщенности : 4:2:0 Битовая глубина : 8 бит Тип развёртки : Прогрессивная Бит/(Пиксели*Кадры) : 0.159 Размер потока : 4,64 Гбайт (80%) Заголовок : Rip by Boriy Библиотека кодирования : x264 core 128 r2216 198a7ea Настройки программы : cabac=1 / ref=5 / deblock=1:0:0 / analyse=0x3:0x113 / me=umh / subme=10 / psy=1 / psy_rd=1.00:0.10 / mixed_ref=1 / me_range=32 / chroma_me=1 / trellis=2 / 8x8dct=1 / cqm=0 / deadzone=21,11 / fast_pskip=0 / chroma_qp_offset=-3 / threads=12 / lookahead_threads=2 / sliced_threads=0 / nr=0 / decimate=0 / interlaced=0 / bluray_compat=0 / constrained_intra=0 / bframes=5 / b_pyramid=2 / b_adapt=2 / b_bias=0 / direct=3 / weightb=1 / open_gop=0 / weightp=2 / keyint=240 / keyint_min=23 / scenecut=40 / intra_refresh=0 / rc=2pass / mbtree=0 / bitrate=5972 / ratetol=1.0 / qcomp=0.60 / qpmin=0 / qpmax=69 / qpstep=4 / cplxblur=20.0 / qblur=0.5 / ip_ratio=1.40 / pb_ratio=1.30 / aq=1:1.00 Язык : English Default : Да Forced : НетАудио #1: Идентификатор : 2 Формат : AC-3 Формат/Информация : Audio Coding 3 Расширение режима : CM (complete main) Параметр Endianness формата : Big Идентификатор кодека : A_AC3 Продолжительность : 1 ч. 53 м. Вид битрейта : Постоянный Битрейт : 640 Кбит/сек Каналы : 6 каналов Расположение каналов : Front: L C R, Side: L R, LFE Частота : 48,0 КГц Битовая глубина : 16 бит Метод сжатия : С потерями Размер потока : 521 Мбайт (9%) Заголовок : Дубляж Язык : Russian Default : Да Forced : НетАудио #2: Идентификатор : 3 Формат : AC-3 Формат/Информация : Audio Coding 3 Расширение режима : CM (complete main) Параметр Endianness формата : Big Идентификатор кодека : A_AC3 Продолжительность : 1 ч. 53 м. Вид битрейта : Постоянный Битрейт : 640 Кбит/сек Каналы : 6 каналов Расположение каналов : Front: L C R, Side: L R, LFE Частота : 48,0 КГц Битовая глубина : 16 бит Метод сжатия : С потерями Размер потока : 521 Мбайт (9%) Заголовок : Оригинал Язык : English Default : Нет Forced : Нет 5,77 Gb 9 3 26 января 2016 08:09 Красные огни / Red Lights (2012) Blu-ray от New-Team и HDCLUB | D | лицензия .torrent   [Информация о файле (нажмите для просмотра)] Перевод: Профессиональный (дублированный) - лицензияСубтитры: русскийВидео: VC-1 Video 30000 kbps 1080p / 23,976 fps / 16:9 / Advanced Profile 3Аудио 1: Dolby Digital Audio Russian 640 kbps 5.1 / 48 kHz / 640 kbps / DN -4dBАудио 2: DTS Audio Russian 768 kbps 5.1 / 48 kHz / 768 kbps / 16-bitАудио 3: Dolby Digital Audio English 192 kbps 2.0 / 48 kHz / 192 kbps / DN -4dBСубтитры: Presentation Graphics Russian 18,592 kbps 24,74 Gb 2 5 26 января 2016 08:09 Красные огни / Red Lights (2012) BDRip-AVC от potroks | D | Лицензия .torrent   [Информация о файле (нажмите для просмотра)] Перевод: Профессиональный (полное дублирование)Субтитры: Английские, русскиеКачество: BDRip-AVC [Red Lights 2012 1080p Blu ray AVC TrueHD 5 1] Формат: MKVВидео: H.264, 1056x448 (2,35:1), 23,976 кадр/сек, 2294 Кбит/сек, 0.202 bit/pixelАудио#1: 48 kHz, AC3 Dolby Digital, 3/2 (L,C,R,l,r) + LFE ch, ~448.00 kbps avg |RUSАудио#2: 48 kHz, AC3 Dolby Digital, 3/2 (L,C,R,l,r) + LFE ch, ~448.00 kbps avg |ENG (narod.ru) 2,18 Gb 10 2

gig-torrent.net

Красные огни 2012 - скачать бесплатно через торрент в хорошем качестве. Без регистрации

Название: Красные огни / Red Lights (2012) Blu-ray Remux 1080p от ivandubskoj | GER Transfer | D, A
Качество видео: Blu-ray Remux (1080p) [Исходник: Blu-Ray Custom 1080p | Ger Transfer от BlueBird и CMEGroup]
Перевод: Дублированный (Мосфильм-Мастер), авторский одноголосый (Ю. Немахов)
Видео: MPEG-4 AVC MPEG-4 AVC, 1920x1080 (16:9), ~ 26 Мбит/с, 24 кадр/с
Аудио: АнглийскаяРусский, DTS, 48000 Гц, 768 Кбит/с, 6 каналов (5.1) - DUB [Мосфильм-Мастер]Русский, DTS-HD MA, 48000 Гц, ~ 1905 Кбит/с, 6 каналов (5.1) - AVO [Ю. Немахов]Английский, DTS-HD MA, 48000 Гц, ~ 1905 Кбит/с, 6 каналов (5.1) - Оригинал
Скачать

Загрузка начнется в течение 5 сек.

24.25 GB

Название: Красные огни / Red Lights (2012) BDRip 720p от ivandubskoj | GER Transfer | D, A
Качество видео: BDRip (720p) [Исходник: Blu-Ray Custom 1080p | Ger Transfer от BlueBird и CMEGroup]
Перевод: Дублированный (Мосфильм-Мастер), авторский одноголосый (Ю. Немахов)
Видео: MPEG-4 AVC MPEG-4 AVC, 1280x544 (2.35:1), 5000 Кбит/с, 24 кадр/с, 0.299 bit/pixel
Аудио: АнглийскаяРусский, Dolby AC3, 48000 Гц, 640 Кбит/с, 6 каналов (5.1) - DUB [Мосфильм-Мастер]Русский, Dolby AC3, 48000 Гц, 640 Кбит/с, 6 каналов (5.1) - AVO [Ю. Немахов]Английский, Dolby AC3, 48000 Гц, 640 Кбит/с, 6 каналов (5.1) - Оригинал
Скачать

Загрузка начнется в течение 5 сек.

5.50 GB

Название: Красные огни / Red Lights (2012) DVD9 от New-Team | D | лицензия
Перевод: Профессиональный (дублированный) - лицензия
Видео: PAL 16x9 (720х576) VBR ~ 6129 kbps, Auto Letterboxed
Аудио: английский48 kHz, Dolby DTS 5.1 1536 kbps Русский48 kHz, Dolby AC3 5.1 448 kbps Русский48 kHz, Dolby AC3 2,0 192 kbps Английский
Скачать

Загрузка начнется в течение 5 сек.

7.44 GB

Название: Красные огни / Red Lights (2011) HDRip | iPhone
Качество видео: HDRip Исходник: BDRip 1080p
Перевод: Профессиональный (дублированный)
Видео: H.264 640x362 (852х362 анаморф), ~2.35:1, 1500 Kbps, 23.976 fps
Аудио: Русская дорожка, AAC, 2 канала, 48.0 KHz, 128 Kbps, F L,R
Скачать

Загрузка начнется в течение 5 сек.

1.41 GB

Название: Красные огни / Red Lights (2012) BDRip-AVC от leonardo 59 | Лицензия
Качество видео: BDRip-AVC Исходник: Blu-ray
Перевод: Профессиональный (полное дублирование)
Формат видео: MKV Видео кодек: MPEG-4 AVC Аудио кодек: AC3
Видео: AVC, 1024x436 (2.35:1) at 24.000 fps, AVC at 2035 kbps avg, 0.190 bit/pixel
Аудио: AC3, 6ch 448 kbps
Скачать

Загрузка начнется в течение 5 сек.

2.01 GB

Название: Красные огни / Red Lights (2012) BDRip 720p от leonardo 59
Качество видео: BDRip 720p Исходник: Blu-ray
Перевод: Профессиональный (полное дублирование)
Формат видео: MKV Видео кодек: MPEG-4 AVC Аудио кодек: AC3
Видео: AVC, 1280x544 (2.35:1) at 24.000 fps, AVC at 3113 kbps avg, 0.186 bit/pixel
Аудио: английскаяAC3, 6ch 448 kbpsAC3, 6ch 384 kbps
Скачать

Загрузка начнется в течение 5 сек.

3.20 GB

Название: Красные огни / Red Lights (2012) BDRip-AVC | iPad | Лицензия
Качество видео: BDRip / 576p
Перевод: Дублированный
Формат видео: MP4 (контейнер m4v)
Видео: H.264/AVC 1024x436 (2.35:1) at 23.976 fps, AVC at 1286 kbps avg, 0.120 bit/pixel
Аудио: Русский: 48 kHz, AAC, 2ch, 132kbps | ДублированныйАнглийский: 48 kHz, AAC, 2ch, 129Kbps | Оригинал
Скачать

Загрузка начнется в течение 5 сек.

1.24 GB

Название: Красные огни / Red Lights (2012) BDRip 1080p от FREEISLAND
Качество видео: BDRip
Перевод: Дублированный
Видео: AVC, 1920x816 (2.35:1), 8717 kbps, 23,976 fps, 0,232 bpp
Аудио: русский /; AC3 /; 5.1 /; 48 kHz /; 640 kbps /; 16 bitанглийский /; AC3 /; 5.1 /; 48 kHz /; 640 kbps /; 16 bit
Скачать

Загрузка начнется в течение 5 сек.

7.95 GB

Название: Красные огни / Red Lights (2012) BDRip 1080p от HQ-ViDEO | Лицензия
Качество видео: BDRip 1080p | исх. Red Lights 2012 1080p Blu-ray AVC TrueHD 5.1 (Thx EastWooD)
Перевод: Профессиональный дублированный (Лицензия) + Оригинальная дорожка (Английская)
Видео: x.264 / 1920 x 816 / 2.35:1 / 9000 kbps / 23,976 fps
Аудио: Русский / AC3 Dolby Digital / 48 KHz / 640 kbps / 3/2 (L,C,R,l,r) + LFE chАнглийский / AC3 Dolby Digital / 48 KHz / 640 kbps / 3/2 (L,C,R,l,r) + LFE ch
Скачать

Загрузка начнется в течение 5 сек.

8.17 GB

Название: Красные огни / Red Lights (2012) BDRip 720p от HQ-ViDEO | Лицензия
Качество видео: BDRip 720p | исх. BD
Перевод: Профессиональный дублированный (Лицензия) + Оригинальная дорожка (Английская)
Видео: x.264 / 1280 x 544 / 2.35:1 / ~4400 kbps / 23,976 fps
Аудио: Русский / AC3 Dolby Digital / 48 KHz / 640 kbps / 3/2 (L,C,R,l,r) + LFE chАнглийский / AC3 Dolby Digital / 48 KHz / 640 kbps / 3/2 (L,C,R,l,r) + LFE ch
Скачать

Загрузка начнется в течение 5 сек.

4.62 GB

Название: Красные огни / Red Lights (2012) BDRip от HQCLUB | Лицензия
Качество видео: BDRip (источник: HDCLUB / Blu-Ray Remux [US] / 1080р)
Перевод: Профессиональный (полное дублирование) + Оригинал (английский)
Формат видео: AVI
Видео: 720x304 (2.37:1), 23.976 fps, XviD build 65 ~1845 kbps avg, 0.35 bit/pixel
Аудио: 48 kHz, AC3 Dolby Digital, 3/2 (L,C,R,l,r) + LFE ch, ~448 kbps avg (RUS)48 kHz, AC3 Dolby Digital, 3/2 (L,C,R,l,r) + LFE ch, ~448 kbps avg (ENG)
Скачать

Загрузка начнется в течение 5 сек.

2.19 GB

Название: Красные огни / Red Lights (2012) DVD5 сжатый | Лицензия
Качество видео: DVD5 (сжатый)
Перевод: Профессиональный (полное дублирование)
Формат видео: DVD Video
Видео: MPEG2; PAL 16:9 (720x576)
Аудио: Dolby AC3, 6 ch, 448 Kbps Russian
Скачать

Загрузка начнется в течение 5 сек.

4.37 GB

Название: Красные огни / Red Lights (2012) BDRip-AVC от Rulya74
Качество видео: BDRip-AVC
Перевод: Дубляж, Оригинал (Английский)
Видео: h.264 1024x436 (2,35:1), 23.976 fps, 1245 kbps, 0.116 bit/pixel
Аудио: 48 kHz, AC3 5.1, 384.00 kbps (Дубляж)48 kHz, AC3 2.0, 192.00 kbps (Оригинал)
Скачать

Загрузка начнется в течение 5 сек.

1.45 GB

Название: Красные огни / Red Lights (2012) HDRip-AVC | Лицензия
Качество видео: HDRip
Перевод: Профессиональный (полное дублирование) [Лицензия]
Видео: AVC, MKV, H.264 720 x 304 (2:35:1), 23.976 fps, AVC (х264) [email protected], ~ 786 Kbps, 0.147 bit/pixel
Аудио: 48 kHz, MPEG Layer 3, 2 ch, ~128.00 kbps avg
Скачать

Загрузка начнется в течение 5 сек.

745.76 MB

Название: Красные огни / Red Lights (2012) HDRip | КПК от Generalfilm | Лицензия
Качество видео: HDRip | КПК
Видео: кодек: x264, формат: mp4, размер кадра: 480х200, битрейт: 350 кб/с
Аудио: язык: русский, перевод: Дублированный (Лицензия), кодек: AAC LC 2.0, битрейт: 128 кб/с
Скачать

Загрузка начнется в течение 5 сек.

391.40 MB

Название: Красные огни / Red Lights (2012) HDRip от Scarabey | Лицензия
Качество видео: HDRip
Перевод: Профессиональный (дублированный)
Формат видео: AVI
Видео: 640x272 (2.35:1), 23.976 fps, XviD build 50 ~774 kbps avg, 0.19 bit/pixel
Аудио: 48 kHz, MPEG Layer 3, 2 ch, ~128.00 kbps avg
Скачать

Загрузка начнется в течение 5 сек.

742.78 MB

Название: Красные огни / Red Lights (2012) BDRip от HELLYWOOD | Лицензия
Качество видео: BDRip (источник: /Blu-Ray Disc HDChina /1080p)
Перевод: Профессиональный дублированный | Лицензия
Формат видео: AVI
Видео: 720x304 (2.37:1), 23.976 fps, XviD build 65, 1842 kbps avg, 0.35 bit/pixel
Аудио: 48 kHz, AC3 Dolby Digital, 3/2 (L,C,R,l,r) + LFE ch, ~448 kbps |DUB|48 kHz, AC3 Dolby Digital, 3/2 (L,C,R,l,r) + LFE ch, ~448 kbps |ENG|
Скачать

Загрузка начнется в течение 5 сек.

2.18 GB

Название: Красные огни / Red Lights (2012) HDRip от Scarabey | Лицензия
Качество видео: HDRip
Перевод: Профессиональный (дублированный)
Формат видео: AVI
Видео: 720x304 (2.37:1), 23.976 fps, XviD build 50 ~1367 kbps avg, 0.26 bit/pixel
Аудио: 48 kHz, AC3 Dolby Digital, 3/2 (L,C,R,l,r) + LFE ch, ~448.00 kbps avg
Скачать

Загрузка начнется в течение 5 сек.

1.45 GB

Название: Красные огни / Red Lights (2012) BDRip 1080p
Качество видео: BDRip 1080p
Перевод: Дублированный + Оригинал
Видео: x264 1920x816, 5972 Kbps, 23.976 fps
Аудио: AC-3, 6 ch, 640 kbps (Rus)AC-3, 6 ch, 640 kbps (Eng)
Скачать

Загрузка начнется в течение 5 сек.

5.77 GB

Название: Красные огни / Red Lights (2012) BDRip 720p | Лицензия
Качество видео: BDRip 720p [HiDt]
Перевод: Дублированное [лицензия]
Формат видео: MKV
Видео: 4849 kb/s, 1280x546
Аудио: Russian: DTS, 1510 kb/s (6 ch) / English: AC3, 640 kb/s (6 ch)
Скачать

Загрузка начнется в течение 5 сек.

5.57 GB

Название: Красные огни / Red Lights (2012) Blu-ray от Youtracker и HDCLUB | D | лицензия
Качество видео: Blu-ray 1080p
Перевод: Профессиональный (дублированный) - лицензия
Видео: VC-1 Video 30000 kbps 1080p / 23,976 fps / 16:9 / Advanced Profile 3
Аудио: английскийDolby Digital Audio Russian 640 kbps 5.1 / 48 kHz / 640 kbps / DN -4dBDTS Audio Russian 768 kbps 5.1 / 48 kHz / 768 kbps / 16-bitDolby Digital Audio English 192 kbps 2.0 / 48 kHz / 192 kbps / DN -4dB
Скачать

Загрузка начнется в течение 5 сек.

24.74 GB

Название: Красные огни / Red Lights (2012) HDRip | Лицензия
Качество видео: HDRip
Перевод: Дублированное [лицензия]
Формат видео: AVI
Видео: 779 kb/s, 640x272
Аудио: MP3, 128 kb/s (2 ch)
Скачать

Загрузка начнется в течение 5 сек.

746.84 MB

Название: Красные огни / Red Lights (2012) BDRip 720p от R.G. GoldenShara | Лицензия
Качество видео: BDRip [720p]
Перевод: Профессиональный (полное дублирование) [Лицензия]
Видео: 1280x544, 2368 Кбит/сек, 23,976 кадр/сек, AVC, x264, 2,35:1, 0.142 Бит/[Пиксели*Кадры], 2pass
Аудио: AC-3, 384 Кбит/сек, 6 канала(ов), 48,0 КГц
Скачать

Загрузка начнется в течение 5 сек.

2.19 GB

Название: Красные огни / Red Lights (2012) BDRip | КПК от MultiBits
Качество видео: BDRip
Перевод: Дублированный [Лицензия]
Формат видео: MP4 (x264)
Видео: 640x272, 973 Kb/s
Аудио: AAC, 128 Kb/s (2 ch)
Скачать

Загрузка начнется в течение 5 сек.

898.45 MB

Название: Красные огни / Red Lights (2012) HDRip | Лицензия
Качество видео: HDRip [Рип с BDRip 720p]
Перевод: Дублированный [Лицензия]
Видео: XviD 720x304, 1875 kb/s
Аудио: Russian: AC3, 448 kb/s, (6 ch)Spanish: AC3, 448 kb/s, (6 ch)
Скачать

Загрузка начнется в течение 5 сек.

2.22 GB

Название: Красные огни / Red Lights (2012) BDRip 720p от DHT-Movies
Качество видео: BDRip 720p|Red Lights 2012 1080p Blu-ray AVC TrueHD 5.1
Перевод: Дубляж (Профессиональный[Лицензия]) + Оригинал (Английский)
Формат видео: MKV
Видео: H.264 1280x544/2.35:1/23.976 fps/3 331 Kbps/0.200 Bits/(Pixel*Frame)
Аудио: 48 kHz, AC3 Dolby Digital, 3/2 (L,C,R,l,r) + LFE ch, ~ 448 kbps avg | ( Дубляж)48 kHz, AC3 Dolby Digital, 3/2 (L,C,R,l,r) + LFE ch, ~ 448 kbps avg | (Оригинал)
Скачать

Загрузка начнется в течение 5 сек.

3.36 GB

Название: Красные огни / Red Lights (2012) BDRip 1080p от R.G. GoldenShara | Лицензия
Качество видео: BDRip [1080p]
Перевод: Профессиональный (полное дублирование) [Лицензия]
Видео: 1920x816, 5112 Кбит/сек, 23,976 кадр/сек, AVC, x264, 2,35:1, 0.136 Бит/[Пиксели*Кадры], 2pass
Аудио: AC-3, 384 Кбит/сек, 6 канала(ов), 48,0 КГц
Скачать

Загрузка начнется в течение 5 сек.

4.37 GB

Название: Красные огни / Red Lights (2012) HDRip | Лицензия
Качество видео: HDRip [Рип с BDRip 720p]
Перевод: Дублированный [Лицензия]
Видео: XviD 720x304, 1366 kb/s
Аудио: AC3, 448 kb/s, (6 ch)
Скачать

Загрузка начнется в течение 5 сек.

1.45 GB

Название: Красные огни / Red Lights (2012) DVD9 от Youtracker | D | лицензия
Перевод: Профессиональный (дублированный) - лицензия
Видео: PAL 16x9 (720х576) VBR ~ 6129 kbps, Auto Letterboxed
Аудио: английский48 kHz, Dolby DTS 5.1 1536 kbps Русский48 kHz, Dolby AC3 5.1 448 kbps Русский48 kHz, Dolby AC3 2,0 192 kbps Английский
Скачать

Загрузка начнется в течение 5 сек.

7.44 GB

Название: Красные огни / Red Lights (2012) BDRip-AVC от potroks | D | Лицензия
Перевод: Профессиональный (полное дублирование) лицензия
Формат видео: MKV
Видео: H.264, 1056x448 (2,35:1), 23,976 кадр/сек, 2294 Кбит/сек, 0.202 bit/pixel
Аудио: 48 kHz, AC3 Dolby Digital, 3/2 (L,C,R,l,r) + LFE ch, ~448.00 kbps avg | RUS48 kHz, AC3 Dolby Digital, 3/2 (L,C,R,l,r) + LFE ch, ~448.00 kbps avg | ENG (narod.ru)
Скачать

Загрузка начнется в течение 5 сек.

2.18 GB

Название: Красные огни / Red Lights (2012) HDRip | Звук с CAMRip
Качество видео: HDRip [рип с BDRip 720p]
Перевод: Дублированное [Звук с CAMRip]
Формат видео: AVI (XviD)
Видео: 720x304, 1962 kb/s
Аудио: Russian: MP3, 256 kb/s (2 ch) / English: AC3, 448 kb/s (6 ch)
Скачать

Загрузка начнется в течение 5 сек.

2.04 GB

Название: Красные огни / Red Lights (2012) HDRip | Звук с CAMRip
Качество видео: HDRip [рип с BDRip 720p]
Перевод: Дублированное [Звук с CAMRip]
Формат видео: AVI (XviD)
Видео: 720x304, 1579 kb/s
Аудио: MP3, 128 kb/s (2 ch)
Скачать

Загрузка начнется в течение 5 сек.

1.36 GB

Название: Красные огни / Red Lights (2012) DVDRip | Звук с CAMRip
Качество видео: DVDRip
Перевод: Дублированное [Звук с CAMRip]
Формат видео: AVI (XviD)
Видео: 640x272, 757 kb/s
Аудио: AC3, 128 kb/s (2 ch)
Скачать

Загрузка начнется в течение 5 сек.

700.28 MB

Название: Красные огни / Red Lights (2012) DVDRip | Звук с CAMRip
Качество видео: DVDRip
Перевод: Дублированный [Звук с CAMRip]
Видео: XviD 720x304, 1522 kb/s
Аудио: AC3, 256 kb/s, (2 ch)
Скачать

Загрузка начнется в течение 5 сек.

1.37 GB

Название: Красные огни / Red Lights (2012) DVDRip | Звук с CAMRip
Качество видео: DVDRip
Перевод: Дублированный [Звук с CAMRip]
Видео: XviD 720x304, 1962 kb/s
Аудио: Russian: AC3, 256 kb/s, (2 ch)Spanish: AC3, 448 kb/s, (6 ch)
Скачать

Загрузка начнется в течение 5 сек.

2.05 GB

www.kinovit.net

Скачать фильм Красные огни через торрент в хорошем качестве бесплатно HDRip

Размер: 1.45 GB | Добавлен: 5 лет 1 мес. назад | Торрент скачан:14558 раз
Реклама Дарим 3000 рублей за регистрацию, не упусти свой шанс получить шикарный бонус!!!

20-09-2012 18:02 Красные огни Скачать торрент  

Красные огни / Red Lights

Год выпуска: 2012Страна: США / ИспанияЖанр: ужасы, триллер, драмаПродолжительность: 113 мин. / 01:53Перевод: Дубляж, Лицензия

Режиссер: Родриго КортесПродюссер: Родриго Кортес, Адриан Герра, Синди КауэнСценарий: Родриго Кортес

лицам до 17 лет обязательно присутствие взрослогоМировой рейтинг IMDB 6.30 (3 759)

В ролях: Киллиан Мёрфи, Сигурни Уивер, Роберт Де Ниро, Тоби Джонс, Элизабет Олсен, Джоэли Ричардсон, Берн Горман, Крэйг Робертс, Питер Брук, Карен Шенас-Дэвид, Александр Гаврилин, Владимир Еремин, Прохор Чеховской, Василий Дахненко, Кирилл Туранский

Описание: Ученые-скептики Маргарет Мэтисон и ее ассистент, Том Бакли, занимаются разоблачением шарлатанов. Изучение паранормального приводит их к столкновению с давним противником доктора Мэтисон — человеком по имени Сильвер. Объявив о своем возвращении, Сильвер впервые за многие годы выступает перед широкой публикой. Знавшие экстрасенса люди не забыли, что незадолго до добровольного ухода Сильвера со сцены таинственной смертью погиб основной критик его деятельности.

Качество: HDRip [Рип с BDRip 720p]Формат: AVIВидео кодек: XviDАудио кодек: AC3Видео: 720x304, 1366 kb/s, 23.976 fpsАудио#1: AC3, 448 kb/s, (6 ch), 48 kHz

Скачать Красные огни через торрент http://pic.pb.wtf/images/1/qnv565ymw1.jpg Скачать фильм Красные огни через торрент бесплантно в хорошем качестве Описание: Ученые-скептики Маргарет Мэтисон и ее ассистент, Том Бакли, занимаются разоблачением шарлатанов. Изучение паранормального ... 2012-09-20 18:02 9.9 10 20

Loading...

Loading...

Рекламный пират

20-09-2012 18:23 Красные огни Скачать торрент  

Ну и где :cansored: скорость то с раздающим? :cansored:

20-09-2012 18:29 Красные огни Скачать торрент  

Raksha писал(а):

Ну и где скорость то с раздающим?

раздаю как могу, хватит ворчать

20-09-2012 21:21 Красные огни Скачать торрент  

Дождался спасибо за релиз!!!

21-09-2012 05:43 Красные огни Скачать торрент  

круто спасибо!!!

21-09-2012 06:10 Красные огни Скачать торрент  

Как кинцо?? Поделитесь посмотревшие..

22-09-2012 10:08 Красные огни Скачать торрент  

aalatortsev писал(а):

Как кинцо?? Поделитесь посмотревшие..

7/10

22-09-2012 15:01 Красные огни Скачать торрент  

Довольно неплохо

22-09-2012 20:52 Красные огни Скачать торрент  

Не слабый такой состав актёров же!

Pекламный агент PB

23-09-2012 01:52 Красные огни Скачать торрент  

Хороший фильм. Смотреть стоит.

23-09-2012 05:28 Красные огни Скачать торрент  

Скажу только одно, слишком заумное, но концовка ничего, смотреть стоит!!!

23-09-2012 06:39 Красные огни Скачать торрент  

Хороший фильм!

23-09-2012 07:15 Красные огни Скачать торрент  

Интересный фильм,очень понравился!

23-09-2012 09:44 Красные огни Скачать торрент  

спасибо! очень ждал :]

23-09-2012 10:17 Красные огни Скачать торрент  

Чувствую что фильм не плохой :sun1:

23-09-2012 10:25 Красные огни Скачать торрент  

Давно ждал, спасибо!

23-09-2012 13:56 Красные огни Скачать торрент  

Pекламный агент PB

23-09-2012 14:03 Красные огни Скачать торрент  

Обалденный фильм спасибо!

23-09-2012 14:41 Красные огни Скачать торрент  

Фильм бомба, но для тех кто сможет оценить..

23-09-2012 16:50 Красные огни Скачать торрент  

фильм отличный, игра де ниро тоже на уровне. Рекомендую. 10 из 10.

23-09-2012 18:26 Красные огни Скачать торрент  

звук- не айс, тихий

24-09-2012 03:34 Красные огни Скачать торрент  

ALESANNA писал(а):

Скажу только одно, слишком заумное, но концовка ничего, смотреть стоит!!!

если ты не обременен мозгом, то да, заумное.

p.s. фильм обалденный!

24-09-2012 05:13 Красные огни Скачать торрент  

режиссер от погребенного заживо.? Провал картины однозначно . (неудачник -режиссер )

24-09-2012 11:45 Красные огни Скачать торрент  

СПС КИНЦО ОЧЕНЬ ХОР. КАЧ-ВО ОТЛ. 8ИЗ 10

24-09-2012 13:18 Красные огни Скачать торрент  

Ууууууу скорость))))) спасибо всем ))))))))))

Pекламный агент PB

Дорогой пользователь! Огромная просьба, поблагодарите релизера, оцените раздачу и оставьте свои комментарий, если Вы скачали Красные огни через торрент бесплатно! Внесите свою лепту в развитие PiratBit!

Комментировать посты могут только пользователи прошедшие не сложную регистрацию

Красные огни через торрент Скачать бесплатно Красные огни Красные огни скачать торрент Красные огни смотреть онлайн Cкачать фильм Красные огни бесплатно Красные огни скачать торрент в хорошем качестве Красные огни смотреть онлайн бесплатно в хорошем качестве

Вы не можете начинать темыВы не можете отвечать на сообщенияВы не можете редактировать свои сообщенияВы не можете удалять свои сообщенияВы не можете голосовать в опросахВы не можете прикреплять файлы к сообщениямВы можете скачивать файлы

piratbit.ru

Скачать фильм Красные огни через торрент в хорошем качестве бесплатно HDRip-AVC

Размер: 2.1 GB | Добавлен: 5 лет 1 мес. назад | Торрент скачан:549 раз
Реклама Дарим 3000 рублей за регистрацию, не упусти свой шанс получить шикарный бонус!!!

21-09-2012 19:17 Красные огни Скачать торрент  

Красные огни/ Red Lights

Год выпуска: 2012 Страна: США, ИспанияЖанр: ужасы, триллер,драма Продолжительность: 01:53:51 Перевод: Полное дублирование Лицензия

Режиссер: Родриго Кортес

В ролях: Роберт Де Ниро, Сигурни Уивер, Киллиан Мёрфи, Элизабет Олсен, Тоби Джонс, Джоэли Ричардсон, Крэйг Робертс, Берн Горман, Карен Шенас-Дэвид, Жан Корнет

Описание: Ученые-скептики Маргарет Мэтисон и ее ассистент, Том Бакли, занимаются разоблачением шарлатанов. Изучение паранормального приводит их к столкновению с давним противником доктора Мэтисон — человеком по имени Сильвер. Объявив о своем возвращении, Сильвер впервые за многие годы выступает перед широкой публикой. Знавшие экстрасенса люди не забыли, что незадолго до добровольного ухода Сильвера со сцены таинственной смертью погиб основной критик его деятельности.

Качество: HDRip-AVCФормат: MKVВидео кодек: H.264Аудио кодек: АС3Видео: 1 280 x 544 (2:35:1), 23.976 кадр/сек, AVC (H.264), [email protected], ~ 2 195 Kbps, 0.131 bit/pixel Аудио: 48 kHz, AC3 Dolby Digital, 3/2 (L,C,R,l,r) + LFE ch, ~448.00 kbps avg

MatroskaFormat version : Version 2File size : 2.10 GiBDuration : 1h 53mnOverall bit rate : 2 645 KbpsEncoded date : UTC 2012-09-21 17:40:54Writing application : mkvmerge v4.9.1 ('Ich will') сборка от Aug 10 2011 09:31:20Writing library : libebml v1.2.1 + libmatroska v1.2.0

VideoID : 1Format : AVCFormat/Info : Advanced Video CodecFormat profile : [email protected] settings, CABAC : YesFormat settings, ReFrames : 8 framesCodec ID : V_MPEG4/ISO/AVCDuration : 1h 53mnBit rate : 2 195 KbpsWidth : 1 280 pixelsHeight : 544 pixelsDisplay aspect ratio : 2.35:1Frame rate mode : ConstantFrame rate : 23.976 fpsColor space : YUVChroma subsampling : 4:2:0Bit depth : 8 bitsScan type : ProgressiveBits/(Pixel*Frame) : 0.131Stream size : 1.71 GiB (81%)Writing library : x264 core 116 r2074 2641b9eEncoding settings : cabac=1 / ref=8 / deblock=1:-1:-1 / analyse=0x3:0x133 / me=umh / subme=9 / psy=1 / psy_rd=1.00:0.10 / mixed_ref=1 / me_range=32 / chroma_me=1 / trellis=2 / 8x8dct=1 / cqm=0 / deadzone=21,11 / fast_pskip=0 / chroma_qp_offset=-3 / threads=6 / sliced_threads=0 / nr=0 / decimate=1 / interlaced=0 / bluray_compat=0 / constrained_intra=0 / bframes=7 / b_pyramid=2 / b_adapt=2 / b_bias=0 / direct=3 / weightb=1 / open_gop=0 / weightp=2 / keyint=250 / keyint_min=23 / scenecut=40 / intra_refresh=0 / rc_lookahead=50 / rc=2pass / mbtree=1 / bitrate=2195 / ratetol=1.0 / qcomp=0.60 / qpmin=0 / qpmax=69 / qpstep=4 / cplxblur=20.0 / qblur=0.5 / ip_ratio=1.40 / aq=1:1.00Default : YesForced : No

AudioID : 2Format : AC-3Format/Info : Audio Coding 3Mode extension : CM (complete main)Format settings, Endianness : BigCodec ID : A_AC3Duration : 1h 53mnBit rate mode : ConstantBit rate : 448 KbpsChannel(s) : 6 channelsChannel positions : Front: L C R, Side: L R, LFESampling rate : 48.0 KHzBit depth : 16 bitsCompression mode : LossyStream size : 365 MiB (17%)Default : YesForced : No

               Скачать Красные огни через торрент http://you-logo.ru/pictures/842c8f90d4ef5b1b258e2ebfe3ef12a8.png Скачать фильм Красные огни через торрент бесплантно в хорошем качестве Описание: Ученые-скептики Маргарет Мэтисон и ее ассистент, Том Бакли, занимаются разоблачением шарлатанов. Изучение паранормального ... 2012-09-21 19:17 10 10 2

Loading...

Loading...

Последний раз редактировалось: akcent (2012-09-21 20:24), всего редактировалось 4 раз(а)

Рекламный пират

21-09-2012 19:29 Красные огни Скачать торрент  

а где звук? :doubledown:

21-09-2012 19:42 Красные огни Скачать торрент  

akcent7Выложи сэмпл.

21-09-2012 20:08 Красные огни Скачать торрент  

michael.babyak писал(а):

а где звук? :doubledown:

Проблем со звуком нет. Ищи проблему у себя.

21-09-2012 20:08 Красные огни Скачать торрент  

21-09-2012 20:15 Красные огни Скачать торрент  

100sota писал(а):

Чистый звук?

для кого я написал что лицезия

22-09-2012 07:53 Красные огни Скачать торрент  

Фильм классный(смотрел не здесь) :good2:

24-09-2012 07:45 Красные огни Скачать торрент  

хороший фильм

25-09-2012 01:20 Красные огни Скачать торрент  

Надеюсь, фильм можно посмотреть с удовольствием. Автору - спасибо.

Pекламный агент PB

02-10-2012 11:59 Красные огни Скачать торрент  

хороший фильмец,надо только внимательно смотреть!

Дорогой пользователь! Огромная просьба, поблагодарите релизера, оцените раздачу и оставьте свои комментарий, если Вы скачали Красные огни через торрент бесплатно! Внесите свою лепту в развитие PiratBit!

Комментировать посты могут только пользователи прошедшие не сложную регистрацию

Красные огни через торрент Скачать бесплатно Красные огни Красные огни скачать торрент Красные огни смотреть онлайн Cкачать фильм Красные огни бесплатно Красные огни скачать торрент в хорошем качестве Красные огни смотреть онлайн бесплатно в хорошем качестве

Вы не можете начинать темыВы не можете отвечать на сообщенияВы не можете редактировать свои сообщенияВы не можете удалять свои сообщенияВы не можете голосовать в опросахВы не можете прикреплять файлы к сообщениямВы можете скачивать файлы

piratbit.ru

Скачать фильм Красные огни через торрент в хорошем качестве бесплатно BDRip-AVC

ОбщееУникальный идентификатор : 220617491098846693866677535926232883057 (0xA5F9621BC5F0238CAB04497353151F71)Полное имя : D:\DVD\Red.Lights.2012.720p.BDRip.x264.AAC.mkvФормат : MatroskaВерсия формата : Version 2Размер файла : 2,69 ГбайтПродолжительность : 1 ч. 53 м.Общий поток : 3378 Кбит/секНазвание фильма : Red.Lights.2012.720p.BDRip.x264.AAC-26K.Дата кодирования : UTC 2012-09-22 19:04:45Программа кодирования : mkvmerge v3.4.0 ('Rapunzel') сборка от May 15 2010 09:38:20Библиотека кодирования : libebml v0.8.0 + libmatroska v0.9.0

ВидеоИдентификатор : 1Формат : AVCФормат/Информация : Advanced Video CodecПрофиль формата : [email protected]Параметр CABAC формата : ДаПараметр ReFrames формата : 12 кадровИдентификатор кодека : V_MPEG4/ISO/AVCНоминальный битрейт : 2509 Кбит/секШирина : 1280 пикселейВысота : 544 пикселяСоотношение сторон : 2,35:1Режим частоты кадров : ПеременныйЧастота кадров в оригинале : 23,976 кадра/секЦветовое пространство : YUVСубдискретизация насыщенности : 4:2:0Битовая глубина : 8 битТип развёртки : ПрогрессивнаяБит/(Пиксели*Кадры) : 0.150Заголовок : Red.Lights.2012.720p.BDRip.x264.AAC-26K.mkvБиблиотека кодирования : x264 core 125 r2200 999b753Настройки программы : cabac=1 / ref=12 / deblock=1:-1:-1 / analyse=0x3:0x133 / me=umh / subme=9 / psy=1 / psy_rd=1.00:0.15 / mixed_ref=1 / me_range=48 / chroma_me=1 / trellis=2 / 8x8dct=1 / cqm=0 / deadzone=21,11 / fast_pskip=1 / chroma_qp_offset=-3 / threads=12 / lookahead_threads=2 / sliced_threads=0 / nr=0 / decimate=1 / interlaced=0 / bluray_compat=0 / constrained_intra=0 / bframes=8 / b_pyramid=2 / b_adapt=2 / b_bias=0 / direct=3 / weightb=1 / open_gop=0 / weightp=2 / keyint=240 / keyint_min=23 / scenecut=40 / intra_refresh=0 / rc_lookahead=60 / rc=2pass / mbtree=1 / bitrate=2509 / ratetol=1.0 / qcomp=0.60 / qpmin=0 / qpmax=69 / qpstep=4 / cplxblur=20.0 / qblur=0.5 / vbv_maxrate=31250 / vbv_bufsize=31250 / nal_hrd=none / ip_ratio=1.40 / aq=1:0.90Язык : EnglishDefault : НетForced : НетОсновные цвета : BT.709Характеристики трансфера : BT.709Коэффициенты матрицы : BT.709

Аудио #1Идентификатор : 2Формат : AC-3Формат/Информация : Audio Coding 3Расширение режима : CM (complete main)Параметр Endianness формата : BigИдентификатор кодека : A_AC3Продолжительность : 1 ч. 53 м.Вид битрейта : ПостоянныйБитрейт : 448 Кбит/секКаналы : 6 каналовРасположение каналов : Front: L C R, Side: L R, LFEЧастота : 48,0 КГцБитовая глубина : 16 битМетод сжатия : С потерямиЗадержка видео : 6 с. 0 мс.Размер потока : 365 Мбайт (13%)Заголовок : DubЯзык : RussianDefault : ДаForced : Да

Аудио #2Идентификатор : 3Формат : AACФормат/Информация : Advanced Audio CodecПрофиль формата : LCИдентификатор кодека : A_AACПродолжительность : 1 ч. 53 м.Каналы : 6 каналовРасположение каналов : Front: L C R, Side: L R, LFEЧастота : 48,0 КГцМетод сжатия : С потерямиЯзык : EnglishDefault : НетForced : Нет

ТекстИдентификатор : 4Формат : UTF-8Идентификатор кодека : S_TEXT/UTF8Идентификатор кодека/Информация : UTF-8 Plain TextЯзык : EnglishDefault : ДаForced : Нет

Меню00:00:00.054 : en:00:00:00.054

piratbit.ru

Скачать фильм Красные огни через торрент в хорошем качестве бесплатно 720p

ОбщееУникальный идентификатор : 207339763593183925386535296972605269153 (0x9BFC2F998AF9D3678179F0E8B962A4A1)Полное имя : F:Красные огни.720p..mkvФормат : MatroskaВерсия формата : Version 2Размер файла : 4,62 ГбайтПродолжительность : 1 ч. 53 м.Общий поток : 5808 Кбит/секНазвание фильма : Red Lights (2012) Дата кодирования : UTC 2012-10-01 04:32:22Программа кодирования : mkvmerge v5.8.0 ('No Sleep / Pillow') built on Sep 2 2012 15:37:04Библиотека кодирования : libebml v1.2.3 + libmatroska v1.3.0

ВидеоИдентификатор : 1Формат : AVCФормат/Информация : Advanced Video CodecПрофиль формата : [email protected]Параметр CABAC формата : ДаПараметр ReFrames формата : 12 кадровИдентификатор кодека : V_MPEG4/ISO/AVCПродолжительность : 1 ч. 53 м.Битрейт : 4413 Кбит/секШирина : 1280 пикселейВысота : 544 пикселяСоотношение сторон : 2,35:1Режим частоты кадров : ПостоянныйЧастота кадров : 23,976 кадра/секЦветовое пространство : YUVСубдискретизация насыщенности : 4:2:0Битовая глубина : 8 битТип развёртки : ПрогрессивнаяБит/(Пиксели*Кадры) : 0.264Размер потока : 3,51 Гбайт (76%)Заголовок : Encode:[email protected]Библиотека кодирования : x264 core 125 r2208kMod d9d2288Настройки программы : cabac=1 / ref=12 / deblock=1:-3:-3 / analyse=0x3:0x133 / me=umh / subme=11 / psy=1 / fade_compensate=0.00 / psy_rd=1.05:0.00 / mixed_ref=1 / me_range=64 / chroma_me=1 / trellis=2 / 8x8dct=1 / cqm=0 / deadzone=21,11 / fast_pskip=0 / chroma_qp_offset=-2 / threads=6 / lookahead_threads=1 / sliced_threads=0 / nr=0 / decimate=0 / interlaced=0 / bluray_compat=0 / constrained_intra=0 / bframes=9 / b_pyramid=2 / b_adapt=2 / b_bias=0 / direct=3 / weightb=1 / open_gop=0 / weightp=2 / keyint=250 / keyint_min=23 / scenecut=60 / intra_refresh=0 / rc=crf / mbtree=0 / crf=17.0000 / qcomp=0.80 / qpmin=0 / qpmax=69 / qpstep=4 / ip_ratio=1.40 / pb_ratio=1.20 / aq=2:0.75Язык : EnglishDefault : ДаForced : Нет

Аудио #1Идентификатор : 2Формат : AC-3Формат/Информация : Audio Coding 3Расширение режима : CM (complete main)Параметр Endianness формата : BigИдентификатор кодека : A_AC3Продолжительность : 1 ч. 53 м.Вид битрейта : ПостоянныйБитрейт : 640 Кбит/секКаналы : 6 каналовРасположение каналов : Front: L C R, Side: L R, LFEЧастота : 48,0 КГцБитовая глубина : 16 битМетод сжатия : С потерямиРазмер потока : 521 Мбайт (11%)Заголовок : DUBЯзык : RussianDefault : ДаForced : Да

Аудио #2Идентификатор : 3Формат : AC-3Формат/Информация : Audio Coding 3Расширение режима : CM (complete main)Параметр Endianness формата : BigИдентификатор кодека : A_AC3Продолжительность : 1 ч. 53 м.Вид битрейта : ПостоянныйБитрейт : 640 Кбит/секКаналы : 6 каналовРасположение каналов : Front: L C R, Side: L R, LFEЧастота : 48,0 КГцБитовая глубина : 16 битМетод сжатия : С потерямиРазмер потока : 521 Мбайт (11%)Заголовок : OriginalЯзык : EnglishDefault : НетForced : Нет

Текст #1Идентификатор : 4Формат : UTF-8Идентификатор кодека : S_TEXT/UTF8Идентификатор кодека/Информация : UTF-8 Plain TextЯзык : RussianDefault : НетForced : Нет

Текст #2Идентификатор : 5Формат : UTF-8Идентификатор кодека : S_TEXT/UTF8Идентификатор кодека/Информация : UTF-8 Plain TextЯзык : EnglishDefault : НетForced : Нет

Меню00:00:00.000 : :00:00:00.00000:11:11.963 : :00:11:11.96300:19:44.308 : :00:19:44.30800:27:13.382 : :00:27:13.38200:39:42.672 : :00:39:42.67200:49:09.238 : :00:49:09.23800:59:37.324 : :00:59:37.32401:11:02.216 : :01:11:02.21601:23:46.104 : :01:23:46.10401:30:14.576 : :01:30:14.57601:37:08.322 : :01:37:08.32201:48:04.436 : :01:48:04.436

piratbit.ru


Смотрите также