Скачать фильм кто я через торрент бесплатно в хорошем качестве


Скачать фильм Кто я? (1998) через торрент

15 августа 2016 12:04 Кто я? / Ngo si seoi (1998) WEB-DLRip-AVC от NNM-CLUB | D | Uncut .torrent   [Информация о файле (нажмите для просмотра)] Перевод: ДублированныйВидео: AVC, 1024x426 (2.40:1), 23.976 fps, 1 949 Kbps (0.186 bit/pixel)Аудио #1: AC-3, 48.0 KHz, 2 ch, 224 Kbps, CBR (Russian)Аудио #2: AC-3, 48.0 KHz, 2 ch, 256 Kbps, CBR (English)Видео: Идентификатор : 1 Формат : AVC Формат/Информация : Advanced Video Codec Профиль формата : [email protected] Параметр CABAC формата : Да Параметр ReFrames формата : 9 кадров Идентификатор кодека : V_MPEG4/ISO/AVC Продолжительность : 2 ч. 0 м. Битрейт : 1949 Кбит/сек Ширина : 1024 пикселя Высота : 426 пикселей Соотношение сторон : 2,40:1 Режим частоты кадров : Постоянный Частота кадров : 23,976 кадра/сек Цветовое пространство : YUV Субдискретизация насыщенности : 4:2:0 Битовая глубина : 8 бит Тип развёртки : Прогрессивная Бит/(Пиксели*Кадры) : 0.186 Размер потока : 1,60 Гбайт (78%) Библиотека кодирования : x264 core 146 r2538 121396c Настройки программы : cabac=1 / ref=9 / deblock=1:-3:-3 / analyse=0x3:0x133 / me=umh / subme=10 / psy=1 / psy_rd=1.00:0.15 / mixed_ref=1 / me_range=32 / chroma_me=1 / trellis=2 / 8x8dct=1 / cqm=0 / deadzone=21,11 / fast_pskip=0 / chroma_qp_offset=-3 / threads=12 / lookahead_threads=2 / sliced_threads=0 / nr=0 / decimate=0 / interlaced=0 / bluray_compat=0 / constrained_intra=0 / bframes=7 / b_pyramid=2 / b_adapt=2 / b_bias=0 / direct=3 / weightb=1 / open_gop=0 / weightp=2 / keyint=240 / keyint_min=23 / scenecut=40 / intra_refresh=0 / rc=2pass / mbtree=0 / bitrate=1949 / ratetol=1.0 / qcomp=0.60 / qpmin=0 / qpmax=69 / qpstep=4 / cplxblur=20.0 / qblur=0.5 / ip_ratio=1.40 / pb_ratio=1.30 / aq=1:1.00 Язык : English Default : Да Forced : НетАудио #1: Идентификатор : 2 Формат : AC-3 Формат/Информация : Audio Coding 3 Расширение режима : CM (complete main) Параметр Endianness формата : Big Идентификатор кодека : A_AC3 Продолжительность : 2 ч. 0 м. Вид битрейта : Постоянный Битрейт : 224 Кбит/сек Каналы : 2 канала Расположение каналов : Front: L R Частота : 48,0 КГц Битовая глубина : 16 бит Метод сжатия : С потерями Размер потока : 193 Мбайт (9%) Заголовок : Дубляж Язык : Russian Default : Да Forced : НетАудио #2: Идентификатор : 3 Формат : AC-3 Формат/Информация : Audio Coding 3 Расширение режима : CM (complete main) Параметр Endianness формата : Big Идентификатор кодека : A_AC3 Продолжительность : 2 ч. 0 м. Вид битрейта : Постоянный Битрейт : 256 Кбит/сек Каналы : 2 канала Расположение каналов : Front: L R Частота : 48,0 КГц Битовая глубина : 16 бит Метод сжатия : С потерями Размер потока : 221 Мбайт (11%) Язык : English Default : Нет Forced : Нет 2,04 Gb 4 3 15 августа 2016 12:04 Кто я? / Ngo si seoi (1998) HDTVRip 720р от SuperMin | D .torrent   [Информация о файле (нажмите для просмотра)] Перевод: Профессиональный (Дублированный)Кодек: H.264Качество: HDTVRip 720р от SuperMinВидео: 1280x712 (16:9), 5349 kbps, 29.976 fpsЗвук: Русский (AC-3, 6ch, 448 kbps) 4,37 Gb 10 3 15 августа 2016 12:03 Кто я? / Ngo si seoi (1998) DVDRip от New-Team | Полная версия .torrent   [Информация о файле (нажмите для просмотра)] Перевод: Профессиональный (полное дублирование)Качество: DVDRip [DVD9]Формат: AVIВидео: 720x304 (2.37:1), 23.976 fps, XviD build 73 ~1537 kbps avg, 0.29 bit/pixelАудио: 48 kHz, AC3 Dolby Digital, 2/0 (L,R) ch, ~192 kbps 1,46 Gb 18 3 15 августа 2016 12:03 Кто я? / Ngo si seoi (1998) HDTVRip 1080p .torrent   [Информация о файле (нажмите для просмотра)] Перевод: Профессиональный (Дублированный)Кодек: x264Формат: MKVКачество: HDTVRip 1080p (Исходник: HDTV 1080i, MPEG-2, 29.97 fps, ~12.8 Mb/s, 0.205 Bits/Pixel)Видео: AVC ([email protected]) 1904x1056 (16:9), 23.976 fps, 9842 kbps, 0.204 Bits/PixelАудио: DD (AC-3) 5.1 ch, 448 kbps 7,76 Gb 3 1 15 августа 2016 12:03 Кто я? / Ngo si seoi (1998) HDTVRip-AVC | D .torrent   [Информация о файле (нажмите для просмотра)] Перевод: Дублированный + Украинский (двухголосый ''WrongFunction'')Формат: MKVКачество: HDTVRip-AVCВидео: H.264/AVC, 23.976 fps, 800x448 (16:9), 1720 kbps, 0,200 bit/pixelАудио #1: Русский, AAC-HE, 2 chnls, 96 kbps |DUBАудио #2: Украинский, AAC-HE, 2 chnls, 96 kbps |DVO, WrongFunctionАудио #3: Английский, AAC-HE, 2 chnls, 96 kbps |Отдельно 1,45 Gb 10 3 15 августа 2016 12:03 Кто я? / Ngo si seoi (1998) DVDRip от KINOREAKTOR (Sheikn) .torrent   [Информация о файле (нажмите для просмотра)] Перевод: Дублированный / Авторский oдноголосый (Первомайский) / Профессиональный многоголосый (РТР)Кодек: XviDКачество: DVDRipВидео: 720х304, 1901 Кбит/сЗвук: ДБ (АС3, 6 ch, 384 Кбит/с) / АО (АС3, 2 ch, 192 Кбит/с) / ПМ (АС3, 2 ch, 192 Кбит/с) 2,26 Gb 3 1 15 августа 2016 12:03 Кто я? / Ngo si seoi (1998) HDTVRip от HELLYWOOD .torrent   [Информация о файле (нажмите для просмотра)] Перевод: Профессиональный (полное дублирование) + Английская звуковая дорожка + Оригинальная китайская дорожка(отдельно)Формат: AVIКачество: BDRip (источник: HDTV /1080i/)Видео: 720x400 (1.80:1), 23.976 fps, XviD build 50 ~2055 kbps avg, 0.30 bit/pixelАудио #1: 48 kHz, AC3 Dolby Digital, 3/2 (L,C,R,l,r) + LFE ch, ~448 kbps avgАудио #2: 48 kHz, AC3 Dolby Digital, 3/2 (L,C,R,l,r) + LFE ch, ~384 kbps avgАудио #3: 48 kHz, AC3 Dolby Digital, 3/2 (L,C,R,l,r) + LFE ch, ~384 kbps avg(отдельно) 2,47 Gb 3 4 15 августа 2016 12:03 Кто я? / Ngo si seoi (1998) [Extended] DVDRip от sergeorg .torrent   [Информация о файле (нажмите для просмотра)] Перевод: профессиональный.ДУБЛЯЖ 1,91 Gb 4 2

gig-torrent.net

Скачать торрент Кто я / Who Am I - Kein System ist sicher (2014) HDRip

ГLГLГLГLГLГLГI 13-Сен-2015 22:50 (2 года 1 месяц назад) Apple_tini, то, что написал ты - это, в отличие от фильма, суровая правда жизни. Glazvidelvas 10-Сен-2015 16:15 (2 года 1 месяц назад) Оценил на: 10 Раздающему спасибо! Фильм - не шедевр, но смотрится легко и с интересом. ПуЗлой 07-Сен-2015 11:10 (2 года 1 месяц назад) Оценил на: 10 Отличное кинцо! Рекомендуется к просмотру. Раздающему домо аригато! )) 4eL155 03-Сен-2015 07:35 (2 года 1 месяц назад) Оценил на: 9 Совсем бредовый фильм, с натягом пытался посмотреть, не вышло, хотя такой жанр вроде люблю) Качество релиза ок! СерегаВДВ 27-Авг-2015 17:20 (2 года 1 месяц назад) Оценил на: 10 Достойное кино про хакеров. С неожиданной концовкой. И без +100500 миллионов долларов заставляет сидеть в напряжении весь фильм. Советую!!! maksimich 26-Авг-2015 18:35 (2 года 1 месяц назад) Оценил на: 10 порадовал фильмец. Последний раз такое видел в "Подозрительные лица" Весь фильм в последних минутах смотришь, и еще раз пересмотреть охота. Смотрите, не пожалеете!!! .:FreeLanser:. 21-Авг-2015 02:40 (2 года 2 месяца назад) Оценил на: 10 Аху... ой, афигенская замута! И правда в том, что тама правда за хаккеров, а не бздеш, типа я такой дома сижу и ломаю... Valentosio007 20-Авг-2015 17:00 (2 года 2 месяца назад) Оценил на: 10 Фильм отличный, мне понравился ибо сюжет запутан и до самого конца ты так и будешь гадать что же дальше, в итоге всё равно окажешься не прав и концовка удивит нереально))) Единственный момент где я поржал, это русский перевод бабы мента которой глав.гер всё рассказывает: когда она его видит, она спрашивает "ты ВХУЭМАЙ ?" аахаххахахахахах, я так никогда ещё не смеялся)))) Гостинец 19-Авг-2015 10:45 (2 года 2 месяца назад) Оценил на: 10 10 кудахтеров из 10. Фильм годный pupkin dermidon 18-Авг-2015 23:15 (2 года 2 месяца назад) Оценил на: 4 Даже рядом не стоял с " бойцовским клубом " ! ничего особенного на разок !  Dewswimmer 18-Авг-2015 02:40 (2 года 2 месяца назад) ЯRИК, нет-нет, я немного о другом. pedagog 16-Авг-2015 21:35 (2 года 2 месяца назад) Оценил на: 10 мне фильм понравился, очень добротный сценарий и реализация не подкачала MATROSOVVV 16-Авг-2015 18:45 (2 года 2 месяца назад) Оценил на: 10 Спасибо!Фильм понравился.ОбожЖжаю такие концовки!! jukrut 16-Авг-2015 11:00 (2 года 2 месяца назад) Оценил на: 10 отличный фильм Murmus 16-Авг-2015 10:55 (2 года 2 месяца назад) Оценил на: 8 напоминает "бойцовский клуб" Nitroscan 15-Авг-2015 19:20 (2 года 2 месяца назад) Фильм интересный, тёлка стрёмная. romarios.s 13-Авг-2015 23:50 (2 года 2 месяца назад) Оценил на: 10 реальный рейтинг -- 5 Lelik ne Bolik 13-Авг-2015 00:40 (2 года 2 месяца назад) Оценил на: 9 Давненько не видел хорошего фильма, этот очень даже. Концовка зачет!!  Fidga 11-Авг-2015 17:10 (2 года 2 месяца назад) Оценил на: 8 Хороший, не скучный фильм, порадовал) Zuzuzu 11-Авг-2015 12:50 (2 года 2 месяца назад) Оценил на: 10 С удовольствием посиотрела ! и вам советую ! захватывающе интересно ! и актерский состав порадовал !  suselman 07-Авг-2015 23:55 (2 года 2 месяца назад) я бы купил это за шиллинг nyha007 07-Авг-2015 23:20 (2 года 2 месяца назад) Оценил на: 10 Хорошее кино + музыка.. поддерживаю vidyss 07-Авг-2015 20:45 (2 года 2 месяца назад) Оценил на: 10 да действительно имя режиссера-Баран biguho 07-Авг-2015 20:45 (2 года 2 месяца назад) По описанию - бойцовский клуб. Только род деятельности героев сменили. vaganess 07-Авг-2015 18:15 (2 года 2 месяца назад) Оценил на: 7 Хорошее кино, я впечатлен )) немецкое кино умеет радовать Адмирал 07-Авг-2015 14:00 (2 года 2 месяца назад) хороший фильм, спасибо. ApolloOne 07-Авг-2015 13:55 (2 года 2 месяца назад) Оценил на: 3 7.6? что-то нереально завышенно. 3, не больше за эту поделку. Metan99 07-Авг-2015 13:05 (2 года 2 месяца назад) режиссёр смущает ))) 

Файлы для обмена предоставлены пользователями сайта. Администрация не несёт ответственности за их содержание. На сервере хранятся только торрент-файлы. Это значит, что мы не храним никаких нелегальных материалов, а так же материалов охраняемых авторским правом.

krutor.org

? 2010 hd, 1080

!

: ? : 2010: , : : , , , , , , , , ,

IMDB: 6.5/10 (111 ) : 6.9/10 (2 953 )

:- , . . ? ? ?

: : 1 38 :

: XviD 73: HDTVRip

?

317

628

udp://shubt.net:2710

25 26 14

udp://tracker.leechers-paradise.org:6969

12 24 48

udp://tracker.coppersurfer.tk:6969

12 96 2229

udp://ipv6.leechers-paradise.org:6969

67 31 32

udp://explodie.org:6969

7 28 34

udp://tracker.zer0day.to:1337

8 24 18

udp://tracker.opentrackr.org:1337

6 97 82

udp://tracker.sktorrent.net:6969

73 99 56

http://mgtracker.org:2710/announce

5 12 158

http://open.touki.ru/announce.php

42 71 98

http://p4p.arenabg.ch:1337/announce

9 1 236

http://torrentsmd.com:8080/announce

1 35 59

udp://tracker.kuroy.me:5944

40 50 29

udp://open.stealth.si:80

10 34 22

1,44 Gb

2259

.(2010).HDVRIP.[-=DoMiNo=-].avi (1,44 Gb)

411

701

udp://shubt.net:2710

8 31 1

http://announce.opensharing.org:2710/announce

44 19 82

udp://tracker.coppersurfer.tk:6969

2 29 235

udp://tracker.leechers-paradise.org:6969

2 24 4

udp://open.demonii.com:1337

65 65 84

udp://ipv6.leechers-paradise.org:6969

87 71 28

udp://explodie.org:6969

1 26 69

udp://tracker.zer0day.to:1337

2 24 1

udp://tracker.opentrackr.org:1337

2 38 8

udp://tracker.sktorrent.net:6969

76 65 73

http://mgtracker.org:2710/announce

62 76 55

http://open.touki.ru/announce.php

27 88 92

http://p4p.arenabg.ch:1337/announce

2 1 11

http://torrentsmd.com:8080/announce

1 79 12

udp://tracker.kuroy.me:5944

28 19 69

udp://open.stealth.si:80

2 46 2

6,22 Gb

79

Kto.ja.2010.HDTV.(1080i).Nikolspup.ts (6,22 Gb)

vtorrents.net

Скачать фильм Кто я через торрент в хорошем качестве бесплатно 1080p

GeneralUnique ID : 206695894938442496119113585303300347169 (0x9B802E6C95F11DCFA8EBD6A0F6681521)Complete name : D:\Торенты\Who.Am.I.Kein.System.ist.sicher.2014.BDRip.1080p.BLUEBIRD.mkvFormat : MatroskaFormat version : Version 2File size : 11.0 GiBDuration : 1h 41mnOverall bit rate : 15.4 MbpsMovie name : Who.Am.I.Kein.System.ist.sicher.2014.BDRip.720p.BLUEBIRDEncoded date : UTC 2015-09-13 14:51:26Writing application : mkvmerge v7.9.0 ('Birds') 64bitWriting library : libebml v1.3.1 + libmatroska v1.4.2

VideoID : 1Format : AVCFormat/Info : Advanced Video CodecFormat profile : [email protected] settings, CABAC : YesFormat settings, ReFrames : 5 framesCodec ID : V_MPEG4/ISO/AVCDuration : 1h 41mnBit rate : 11.5 MbpsWidth : 1 920 pixelsHeight : 804 pixelsDisplay aspect ratio : 2.40:1Frame rate : 25.000 fpsColor space : YUVChroma subsampling : 4:2:0Bit depth : 8 bitsScan type : ProgressiveBits/(Pixel*Frame) : 0.298Stream size : 8.16 GiB (74%)Writing library : x264 core 146 r0+2584 6cf85c6 t_mod_Custom [[email protected] ]Encoding settings : cabac=1 / ref=5 / deblock=1:-3:-3 / analyse=0x3:0x133 / me=umh / subme=10 / psy=1 / fade_compensate=0.00 / psy_rd=1.00:0.00 / mixed_ref=1 / me_range=24 / chroma_me=1 / trellis=2 / 8x8dct=1 / cqm=0 / deadzone=21,11 / fast_pskip=0 / chroma_qp_offset=-2 / threads=12 / lookahead_threads=3 / sliced_threads=0 / nr=0 / decimate=0 / interlaced=0 / bluray_compat=0 / constrained_intra=0 / fgo=0 / bframes=11 / b_pyramid=2 / b_adapt=2 / b_bias=0 / direct=3 / weightb=1 / open_gop=0 / weightp=2 / keyint=250 / keyint_min=25 / scenecut=40 / intra_refresh=0 / rc_lookahead=60 / rc=crf / mbtree=0 / crf=17.4000 / qcomp=0.60 / qpmin=0:0:0 / qpmax=69:69:69 / qpstep=4 / vbv_maxrate=62500 / vbv_bufsize=78125 / crf_max=0.0 / nal_hrd=none / filler=0 / ip_ratio=1.40 / pb_ratio=1.30 / aq=3:0.85 / aq-sensitivity=10.00 / aq-factor=1.00:1.00:1.00 / aq2=0 / aq3=0Language : EnglishDefault : YesForced : NoMatrix coefficients : BT.709-5, BT.1361, IEC 61966-2-4 709, SMPTE RP177

Audio #1ID : 2Format : DTSFormat/Info : Digital Theater SystemsCodec ID : A_DTSDuration : 1h 41mnBit rate mode : ConstantBit rate : 1 510 KbpsChannel(s) : 6 channelsChannel positions : Front: L C R, Side: L R, LFESampling rate : 48.0 KHzBit depth : 16 bitsCompression mode : LossyStream size : 1.07 GiB (10%)Title : DUB,BD_RUSLanguage : RussianDefault : YesForced : No

Audio #2ID : 3Format : AC-3Format/Info : Audio Coding 3Mode extension : CM (complete main)Codec ID : A_AC3Duration : 1h 41mnBit rate mode : ConstantBit rate : 640 KbpsChannel(s) : 6 channelsChannel positions : Front: L C R, Side: L R, LFESampling rate : 48.0 KHzBit depth : 16 bitsCompression mode : LossyStream size : 466 MiB (4%)Title : DUB,BD_RUSLanguage : RussianDefault : NoForced : No

Audio #3ID : 4Format : DTSFormat/Info : Digital Theater SystemsCodec ID : A_DTSDuration : 1h 41mnBit rate mode : ConstantBit rate : 1 510 KbpsChannel(s) : 6 channelsChannel positions : Front: L C R, Side: L R, LFESampling rate : 48.0 KHzBit depth : 24 bitsCompression mode : LossyStream size : 1.07 GiB (10%)Language : EnglishDefault : NoForced : No

TextID : 5Format : UTF-8Codec ID : S_TEXT/UTF8Codec ID/Info : UTF-8 Plain TextLanguage : EnglishDefault : NoForced : No

Menu00:00:00.000 : en:00:00:00.00000:04:27.080 : en:00:04:27.08000:11:11.240 : en:00:11:11.24000:18:06.320 : en:00:18:06.32000:24:45.840 : en:00:24:45.84000:29:37.960 : en:00:29:37.96000:36:23.040 : en:00:36:23.04000:41:53.920 : en:00:41:53.92000:48:30.000 : en:00:48:30.00000:55:18.920 : en:00:55:18.92001:01:10.960 : en:01:01:10.96001:06:13.920 : en:01:06:13.92001:09:59.280 : en:01:09:59.28001:17:00.160 : en:01:17:00.16001:23:37.360 : en:01:23:37.36001:37:55.440 : en:01:37:55.440

piratbit.ru


Смотрите также