Скачать фильм лалаленд бесплатно в хорошем качестве торрент


Скачать торрент Ла-Ла Ленд / La La Land (2016) BDRip 720p от Scarabey

Мы "В КОНТАКТЕ" =)

Год выпуска: 2016Страна: США, ГонконгЖанр: мюзикл, драма, мелодрама, комедия, музыкаПродолжительность: 02:08:05Перевод: Профессиональный (полное дублирование) [Лицензия]Cубтитры: русские (форсированные) - на текст и песни

Режиссер: Дэмьен Шазелл / Damien Chazelle

В ролях: Райан Гослинг, Эмма Стоун, Джон Ледженд, Дж.К. Симмонс, Розмари ДеУитт, Финн Уиттрок, Калли Эрнандес, Соноя Мидзуно, Джессика Рот, Том Эверетт Скотт

Описание: Это история любви старлетки, которая между прослушиваниями подает кофе состоявшимся кинозвездам, и фанатичного джазового музыканта, вынужденного подрабатывать в заштатных барах. Но пришедший к влюбленным успех начинает подтачивать их отношения.

Качество видео: BDRip 720pФормат видео: MKV

Видео: 1280х502, 23.976 fps, AVC ~4133 kbps avgАудио: 48 kHz, AC3 Dolby Digital, 3/2 (L,C,R,l,r) + LFE ch, ~448.00 kbps avg

Релиз от:

АНОНСЫ МОИХ РАЗДАЧ!

МедиаИнфо

Ла ла лэндLa.La.Land.2016.720p_BDRip_[scarabey.org].mkv Format : Matroska Format version : Version 4 / Version 2 File size : 4.11 GiB Duration : 2h 7mn Overall bit rate : 4 608 Kbps Movie name : La La Land 2016 720p BluRay DTS x264-HDS Encoded date : UTC 2017-04-19 22:35:05 Writing application : mkvmerge v6.1.0 ('Old Devil') built on Mar 4 2013 09:10:42 Writing library : libebml v1.3.0 + libmatroska v1.4.0

Video ID : 1 Format : AVC Format/Info : Advanced Video Codec Format profile : [email protected] Format settings, CABAC : Yes Format settings, ReFrames : 12 frames Codec ID : V_MPEG4/ISO/AVC Duration : 2h 7mn Bit rate : 4 133 Kbps Width : 1 280 pixels Height : 502 pixels Display aspect ratio : 2.550 Frame rate mode : Constant Frame rate : 23.976 fps Color space : YUV Chroma subsampling : 4:2:0 Bit depth : 8 bits Scan type : Progressive Bits/(Pixel*Frame) : 0.268 Stream size : 3.69 GiB (90%) Title : [email protected] Writing library : x264 core 148 r2705+45 bdacf7a 7mod [[email protected] X86_64] Encoding settings : cabac=1 / ref=12 / deblock=1:-3:-3 / analyse=0x3:0x113 / me=umh / subme=11 / psy=1 / fade_compensate=0.00 / psy_rd=1.00:0.05 / mixed_ref=1 / me_range=32 / chroma_me=1 / trellis=2 / 8x8dct=1 / cqm=0 / deadzone=21,11 / fast_pskip=0 / chroma_qp_offset=-2 / threads=12 / lookahead_threads=2 / sliced_threads=0 / nr=0 / decimate=1 / interlaced=0 / bluray_compat=0 / constrained_intra=0 / fgo=0 / bframes=8 / b_pyramid=2 / b_adapt=2 / b_bias=0 / direct=3 / weightb=1 / open_gop=0 / weightp=2 / keyint=250 / keyint_min=23 / scenecut=40 / intra_refresh=0 / rc=crf / mbtree=0 / crf=17.5000 / qcomp=0.60 / qpmin=0:0:0 / qpmax=69:69:69 / qpstep=4 / ip_ratio=1.40 / pb_ratio=1.30 / aq=4:0.90 / aq-sensitivity=10.00 / aq-factor=1.00:1.00:1.00 / aq2=0 / aq3=0 Default : Yes Forced : No

Audio ID : 2 Format : AC-3 Format/Info : Audio Coding 3 Mode extension : CM (complete main) Format settings, Endianness : Big Codec ID : A_AC3 Duration : 2h 7mn Bit rate mode : Constant Bit rate : 384 Kbps Channel(s) : 6 channels Channel positions : Front: L C R, Side: L R, LFE Sampling rate : 48.0 KHz Bit depth : 16 bits Compression mode : Lossy Stream size : 351 MiB (8%) Title : Дубляж - iTunes Language : Russian Default : Yes Forced : No

Text ID : 3 Format : UTF-8 Codec ID : S_TEXT/UTF8 Codec ID/Info : UTF-8 Plain Text Title : русские, форсированные Language : Russian Default : Yes Forced : No

Menu 00:00:00.000 : en:00:00:00.000 00:07:06.926 : en:00:07:06.926 00:17:30.883 : en:00:17:30.883 00:26:05.855 : en:00:26:05.855 00:31:14.038 : en:00:31:14.038 00:39:29.074 : en:00:39:29.074 00:46:17.566 : en:00:46:17.566 00:52:11.169 : en:00:52:11.169 00:58:50.360 : en:00:58:50.360 01:05:58.579 : en:01:05:58.579 01:13:01.293 : en:01:13:01.293 01:24:16.301 : en:01:24:16.301 01:31:50.880 : en:01:31:50.880 01:41:10.981 : en:01:41:10.981 01:46:07.611 : en:01:46:07.611 01:56:19.597 : en:01:56:19.597

krutor.org

Ла-Ла Ленд (2016) HD 1080p скачать торрент в хорошем качестве

Информация о фильмеНазвание: Ла-Ла ЛендОригинальное название: La La LandГод выхода: 2016Жанр: Драма, комедия, мелодрама, мьюзиклРежиссер: Дэмьен ШазеллВ ролях: Райан Гослинг, Эмма Стоун, Джон Ледженд, Дж.К. Симмонс, Розмари ДеУитт, Финн Уиттрок, Калли Эрнандес, Соноя Мидзуно, Джессика Рот, Том Эверетт Скотт, Джошуа Пенс, Терри Уолтерс

О фильме: Комедийная мелодрама описывает историю отношений старлетки, которая на протяжении многих лет подает кофе участникам прослушиваний. В ее обязанности входит гостеприимность по отношению к звездам и послушание относительно руководства. Ей прекрасно удается справляться со своими обязанностями, ведь главная героиня является простым, добродушным человеком, который всегда может закрыть глаза на слова жестоких людей. Ее жизнь резко меняется после визита известного джазового музыканта. Он вынужден найти подработку, и решает устроиться в бар. Влюбленные быстро находят свою музу и начинают вместе покорять сердца фанатов. Однако нежданный успех быстро превращает их отношения в драму. Оказывается ни она, ни он не могут мириться с популярностью самых дорогих людей. Быть может все дело в ревности

Страна: СШАСтудия: Black Label Media, Gilbert Films, Impostor Pictures, Marc Platt ProductionsПродолжительность: 02:07:48Перевод: Дублированный | Чистый звук

ФайлКачество: BDRip 1080pВидео: MPEG-4 AVC, 1920x752, 14.0 Mbit/s, 23.976 fpsЗвук: Аудио #01: 48 kHz, AC3, 5.1, 384 Kbps | Дублированный | RUS |Аудио #02: 48 kHz, AC3, 5.1, 640 Kbps | Оригинал | ENG |Субтитры: Русские, английские

GeneralUnique ID : 209004008416814518281672057666926699794 (0x9D3CB5346462C8FEB0DB808F4C426512)Complete name : F:VideoLa.La.Land.2016.BDRip.1080p.ExKinoRay.mkvFormat : MatroskaFormat version : Version 4 / Version 2File size : 13.4 GiBDuration : 2 h 8 minOverall bit rate : 15.0 Mb/sEncoded date : UTC 2017-04-15 00:45:19Writing application : mkvmerge v10.0.0 ('To Drown In You') 64bitWriting library : libebml v1.3.4 + libmatroska v1.4.5

VideoID : 1Format : AVCFormat/Info : Advanced Video CodecFormat profile : [email protected] settings, CABAC : YesFormat settings, ReFrames : 5 framesCodec ID : V_MPEG4/ISO/AVCDuration : 2 h 7 minBit rate : 14.0 Mb/sWidth : 1 920 pixelsHeight : 752 pixelsDisplay aspect ratio : 2.553Frame rate mode : ConstantFrame rate : 23.976 (24000/1001) FPSColor space : YUVChroma subsampling : 4:2:0Bit depth : 8 bitsScan type : ProgressiveBits/(Pixel*Frame) : 0.404Stream size : 12.5 GiB (93%)Writing library : x264 core 148 r2665kMod a01e339Encoding settings : cabac=1 / ref=5 / deblock=1:-3:-3 / analyse=0x3:0x133 / me=umh / subme=11 / psy=1 / fade_compensate=0.00 / psy_rd=1.05:0.00 / mixed_ref=1 / me_range=48 / chroma_me=1 / trellis=2 / 8x8dct=1 / cqm=0 / deadzone=21,11 / fast_pskip=0 / chroma_qp_offset=-2 / threads=23 / lookahead_threads=3 / sliced_threads=0 / nr=0 / decimate=0 / interlaced=0 / bluray_compat=0 / constrained_intra=0 / fgo=0 / bframes=8 / b_pyramid=2 / b_adapt=2 / b_bias=0 / direct=3 / weightb=1 / open_gop=0 / weightp=2 / keyint=240 / keyint_min=24 / scenecut=40 / intra_refresh=0 / rc=2pass / mbtree=0 / bitrate=14000 / ratetol=1.0 / qcomp=0.70 / qpmin=0 / qpmax=69 / qpstep=4 / cplxblur=20.0 / qblur=0.5 / ip_ratio=1.20 / pb_ratio=1.20 / aq=3:0.80Language : EnglishDefault : YesForced : No

Audio #1ID : 2Format : AC-3Format/Info : Audio Coding 3Format settings, Endianness : BigCodec ID : A_AC3Duration : 2 h 8 minBit rate mode : ConstantBit rate : 384 kb/sChannel(s) : 6 channelsChannel positions : Front: L C R, Side: L R, LFESampling rate : 48.0 kHzFrame rate : 31.250 FPS (1536 spf)Bit depth : 16 bitsCompression mode : LossyStream size : 352 MiB (3%)Title : LineLanguage : RussianService kind : Complete MainDefault : YesForced : No

Audio #2ID : 3Format : AC-3Format/Info : Audio Coding 3Format settings, Endianness : BigCodec ID : A_AC3Duration : 2 h 7 minBit rate mode : ConstantBit rate : 640 kb/sChannel(s) : 6 channelsChannel positions : Front: L C R, Side: L R, LFESampling rate : 48.0 kHzFrame rate : 31.250 FPS (1536 spf)Bit depth : 16 bitsCompression mode : LossyStream size : 585 MiB (4%)Title : OriginalLanguage : EnglishService kind : Complete MainDefault : NoForced : No

Text #1ID : 4Format : UTF-8Codec ID : S_TEXT/UTF8Codec ID/Info : UTF-8 Plain TextDuration : 1 h 59 minBit rate : 67 b/sCount of elements : 1028Stream size : 59.3 KiB (0%)Language : RussianDefault : NoForced : No

Text #2ID : 5Format : UTF-8Codec ID : S_TEXT/UTF8Codec ID/Info : UTF-8 Plain TextDuration : 1 h 59 minBit rate : 36 b/sCount of elements : 1091Stream size : 31.6 KiB (0%)Language : EnglishDefault : NoForced : No

Menu00:00:00.000 : en:00:00:00.00000:07:06.926 : en:00:07:06.92600:17:30.883 : en:00:17:30.88300:26:05.856 : en:00:26:05.85600:31:14.039 : en:00:31:14.03900:39:29.075 : en:00:39:29.07500:46:17.566 : en:00:46:17.56600:52:11.170 : en:00:52:11.17000:58:50.360 : en:00:58:50.36001:05:58.580 : en:01:05:58.58001:13:01.293 : en:01:13:01.29301:24:16.301 : en:01:24:16.30101:31:50.880 : en:01:31:50.88001:41:10.981 : en:01:41:10.98101:46:07.611 : en:01:46:07.61101:56:19.598 : en:01:56:19.598

rutorg2.ru

Скачать фильм Ла-Ла Ленд через торрент в хорошем качестве бесплатно Ла-Ла Ленд / La La Land (Дэмьен Шазелл) [2016 г.

Раздают: 1 [ 0 KB/s ]
Размер: 2.05 GB | Добавлен: 9 мес. назад | Торрент скачан:667 раз
Реклама Дарим 3000 рублей за регистрацию, не упусти свой шанс получить шикарный бонус!!!

21-01-2017 07:21 Ла-Ла Ленд Скачать торрент  

Ла-Ла Ленд / La La Land

Год выпуска: 2016Страна: СШАЖанр: мюзикл, драма, мелодрама, комедияПродолжительность: 02:08:05Перевод: Профессиональный (полное дублирование) чистый звукСубтитры: русские (на песни) вшитые

Режиссер: Дэмьен Шазелл

В ролях:

Райан Гослинг, Эмма Стоун, Джон Ледженд, Дж.К. Симмонс, Розмари ДеУитт, Финн Уиттрок, Калли Эрнандес, Соноя Мидзуно, Джессика Рот, Том Эверетт Скотт

Описание:

Это история любви старлетки, которая между прослушиваниями подает кофе состоявшимся кинозвездам, и фанатичного джазового музыканта, вынужденного подрабатывать в заштатных барах. Но пришедший к влюбленным успех начинает подтачивать их отношения.

Качество: DVDScrФормат: AVIВидео кодек: XviDАудио кодек: AC3

Видео: 720x304 (2.37:1), 23.976 fps, XviD build 50 ~1903 kbps, 0.36 bit/pixelАудио#1: 48 kHz, AC3 Dolby Digital, 2/0 (L,R) ch, ~384 kbps

Скачать Ла-Ла Ленд через торрент http://pic1.pb.wtf/images/11/g65fi.jpg Скачать фильм Ла-Ла Ленд через торрент бесплантно в хорошем качестве Описание: Это история любви старлетки, которая между прослушиваниями подает кофе состоявшимся кинозвездам, и фанатичного джазового ... 2017-01-21 07:21 8.2 10 17

Loading...

Loading...

% Раздел Тема Автор DL S | L
Фильмы 2016 [DVDrip, WEB-DLRip, HDrip] (DUB, MVO) [ 1.46 GB ] Ла-Ла Ленд / La La Land [2016 мюзикл BDRip] [] Twi7ter Скачать
Фильмы 2016 [DVDrip, WEB-DLRip, HDrip] (DUB, MVO) [ 2.18 GB ] Ла-Ла Ленд / La La Land [2016 мюзикл BDRip] [] Twi7ter Скачать
Ultra HD (UHD: 2K, 4K, 8K) — видео сверхвысокой чёткости [ 71.85 GB ] Ла-Ла Ленд / La La Land [2016 мюзикл музыка UHD BDRemux 2160p] DUB [] bober100 Скачать
Зарубежные сериалы [ 6.66 GB ] Мгла / Туман / The Mist / Сезон: 1 / Серии 1-10 из 10 [2017 WEBRip-AVC WEB-DLRip-AVC] MVO [BaibaKo] GEKADOL Скачать
Фильмы без перевода [ 28.74 GB ] Ла-Ла Ленд / La La Land [2016 мюзикл BD Remux] [Оригинал-ENG] smaster Скачать
Фильмы без перевода [ 88.38 GB ] Ла-Ла Ленд / La La Land [2016 Мюзикл BluRay-HEVC 2160p] [ENG] killermax2013 Скачать
Фильмы [HD 720p, 1080p] (Хороший звук DUB, MVO) [ 8.11 GB ] Ла-Ла Ленд / La La Land [2016 мюзикл BDRip 720p / DUB] Ворон Скачать

Рекламный пират

07-02-2017 15:10 Ла-Ла Ленд Скачать торрент  

люди вроде хвалили-качаем-спасибо-да еще с такими оценками-однозначно забираем-реклама нас не раздражает

07-02-2017 15:30 Ла-Ла Ленд Скачать торрент  

SASHA66, смотри на здоровье)

16-02-2017 08:56 Ла-Ла Ленд Скачать торрент  

На Оскар номинирован фильм)) Думаю он же его и получит, если какой-нибудь политиканский фильм не номинируют... Очень атмосферно снято и как-то воздушно чтоли, а с девушкой в кино, так вообще шоколадно)) 10 из 10 А то что это мюзикл пусть вас не пугает, потому что музыка в этом фильме офигительная!

Дорогой пользователь! Огромная просьба, поблагодарите релизера, оцените раздачу и оставьте свои комментарий, если Вы скачали Ла-Ла Ленд через торрент бесплатно! Внесите свою лепту в развитие PiratBit!

Комментировать посты могут только пользователи прошедшие не сложную регистрацию

Ла-Ла Ленд через торрент Скачать бесплатно Ла-Ла Ленд Ла-Ла Ленд скачать торрент Ла-Ла Ленд смотреть онлайн Cкачать фильм Ла-Ла Ленд бесплатно Ла-Ла Ленд скачать торрент в хорошем качестве Ла-Ла Ленд смотреть онлайн бесплатно в хорошем качестве

Вы можете начинать темыВы можете отвечать на сообщенияВы не можете редактировать свои сообщенияВы не можете удалять свои сообщенияВы не можете голосовать в опросахВы не можете прикреплять файлы к сообщениямВы можете скачивать файлы

piratbit.ru

Малиса в Лалаландии через торрент

Раздают: 2 [ 0 KB/s ]
Размер: 1.57 GB | Добавлен: 2 года 4 мес. назад | Торрент скачан:680 раз
Реклама Дарим 3000 рублей за регистрацию, не упусти свой шанс получить шикарный бонус!!!

09-06-2015 14:42 Малиса в Лалаландии Скачать торрент  

Малиса в Лалаландии / Malice in Lalaland

Год выпуска: 2010Страна: USAЖанр: Feature, Parody, Fantasy, Action, Big Budget, Avn Award Nominees, AnalПродолжительность: 01:33:41

Субтитры: английскиеПеревод: Субтитры русские

Режиссер: Lew XypherСтудия: Vivid / Miss Lucifer Productions film

В ролях: Sasha Grey, Andy San Dimas, Kagney Linn Karter, Phoenix Marie, Kristina Rose, Alyssa Reece, Chayse Evans, Jesse Capelli, Juelz Ventura, MacKenzee Pierce, Sadie West, Alan Stafford, Billy Glide, Chris Johnson, Danny Mountain, Keni Styles, Tommy Gunn, Ron Jeremy

Описание: "Малиса в Лалаландии" является новым необычным проектом студии "Miss Lucifer Productions film". Основанный на двух книгах Льюиса Кэрролла: «Алиса в стране чудес" и "Алиса в Зазеркалье", мы остаемся верны странному миру и его не менее странным персонажам. Малисе (Саша Грей) удается бежать из психиатрической больницы с помощью Кролика (Стивен Пауэрс). Во время побега от Куини (Энди Сан Димас) и Джаббовски (Грязный Фред), с ней происходят самые невероятные сексуальные приключения."Давайте трахаться и Рок Н Ролл!"

Доп. информация: Фильм отмечен наградами:AVN Awards, 2010 - Nominee: Best FeatureRopey Volley, 2010 - Nominee: To Some People, Sex Is Thought-Provoking AwardXRCO Awards, 2010 - Nominee: Best ReleaseПереключение на другую звуковую дорожку осуществляется на плеере нажатием кнопки "Audio" или "Language",включение - отключение субтитров - нажатием кнопки - "Subtitle".

Scene BreakdownsScene 1. Andy San Dimas, Chayse Evans, Chris Johnson, Danny MountainScene 2. Kagney Linn Karter, Alan StaffordScene 3. Sasha Grey, Keni StylesScene 4. Jesse Capelli, MacKenzee PierceScene 5. Alyssa Reece, Kristina Rose, Sasha GreyScene 6. Juelz Ventura, Sadie West, Keni StylesScene 7. Phoenix Marie, Billy Glide, Tommy Gunn

Качество: DVDRipФормат: MKVВидео кодек: H.264Аудио кодек: AC3Видео: Dolby AC3 48000Hz stereo 192 kbps (ENG)Аудио#1: Dolby AC3 48000Hz stereo 192 kbps (ITA)

Жми на картинки Скачать Малиса в Лалаландии через торрент http://pic.pb.wtf/images/11/dcipr.jpg Скачать фильм Малиса в Лалаландии через торрент бесплантно в хорошем качестве Описание: "Малиса в Лалаландии" является новым необычным проектом студии "Miss Lucifer Productions film". Основанный на двух книгах Льюиса ... 2015-06-09 14:42 9.1 10 24

Loading...

Loading...

Рекламный пират

Дорогой пользователь! Огромная просьба, поблагодарите релизера, оцените раздачу и оставьте свои комментарий, если Вы скачали Малиса в Лалаландии через торрент бесплатно! Внесите свою лепту в развитие PiratBit!

Комментировать посты могут только пользователи прошедшие не сложную регистрацию

Малиса в Лалаландии через торрент Скачать бесплатно Малиса в Лалаландии Малиса в Лалаландии скачать торрент Малиса в Лалаландии смотреть онлайн Cкачать фильм Малиса в Лалаландии бесплатно Малиса в Лалаландии скачать торрент в хорошем качестве Малиса в Лалаландии смотреть онлайн бесплатно в хорошем качестве

Вы не можете начинать темыВы не можете отвечать на сообщенияВы не можете редактировать свои сообщенияВы не можете удалять свои сообщенияВы не можете голосовать в опросахВы не можете прикреплять файлы к сообщениямВы можете скачивать файлы

piratbit.ru


Смотрите также