Скачать фильм лес призраков через торрент бесплатно в хорошем качестве


Скачать торрент Лес призраков / The Forest (2016) BDRip 1080p от ExKinoRay

Информация о фильмеНазвание: Лес призраковОригинальное название: The ForestГод выхода: 2016Жанр: УжасыРежиссер: Джейсон ЗадаВ ролях: Натали Дормер, Оуэн Мэкен, Стефани Вогт, Осаму Танпопо, Ясуо Тобисима, Ибуки Канеда, Акико Ивасе, Кикуо Ичикава, Норико Сакура, Йозеф Аоки

О фильме: Юная американка Сара отправляется на поиски сестры-близняшки, которая таинственным образом исчезла на японском острове Хонсю. Поиски приводят к подножью горы Фудзи, в таинственный лес, который пользуется дурной славой. Сара не подозревала, что она вступает в мрачный мир призраков, злых и измученных душ, которые охотятся на любого, кто блуждает по их мрачному лесу…

Страна: СШАСтудия: AI-Film, Lava Bear FilmsПродолжительность: 01:33:17Перевод: Дублированный | iTunes

ФайлКодек: MPEG-4Качество: BDRip 1080pВидео: 1920x1040, 14.4 Mbit/s, 23.976 fpsЗвук: Аудио #01: 48 kHz, AC3, 5.1, 384 Kbps | Дублированный, iTunes | Аудио #02: 48 kHz, DTS, 5.1, 1510 kbps | Оригинал | Субтитры: Английские

Релиз от: Автор релиза:

MI

Общее Уникальный идентификатор : 249005898489315231883056921799981432973 (0xBB54CAA7CD6CCD528B165F7C572A808D) Полное имя : G:VideoThe.Forest.2016.BDRip.1080p.ExKinoRay.mkv Формат : Matroska Версия формата : Version 4 / Version 2 Размер файла : 10,6 Гбайт Продолжительность : 1 ч. 33 м. Общий поток : 16,3 Мбит/сек Название фильма : The.Forest.2016.BDRip.1080p.ExKinoRay Дата кодирования : UTC 2016-05-10 13:28:05 Программа кодирования : mkvmerge v8.3.0 ('Over the Horizon') 64bit Библиотека кодирования : libebml v1.3.1 + libmatroska v1.4.2

Видео Идентификатор : 1 Формат : AVC Формат/Информация : Advanced Video Codec Профиль формата : [email protected] Параметр CABAC формата : Да Параметр ReFrames формата : 4 кадра Идентификатор кодека : V_MPEG4/ISO/AVC Продолжительность : 1 ч. 33 м. Битрейт : 14,4 Мбит/сек Ширина : 1920 пикселей Высота : 1040 пикселей Соотношение сторон : 1,85:1 Режим частоты кадров : Постоянный Частота кадров : 23,976 (24000/1001) кадра/сек Цветовое пространство : YUV Субдискретизация насыщенности : 4:2:0 Битовая глубина : 8 бит Тип развёртки : Прогрессивная Бит/(Пиксели*Кадры) : 0.301 Размер потока : 9,40 Гбайт (88%) Заголовок : The.Forest.2016.BDRip.1080p.ExKinoRay.***селезень*** Библиотека кодирования : x264 core 148 r2665+53 6629127 t_mod_Custom [[email protected] X86_64] Настройки программы : cabac=1 / ref=4 / deblock=1:-3:-3 / analyse=0x3:0x133 / me=umh / subme=10 / psy=1 / fade_compensate=0.00 / psy_rd=1.00:0.00 / mixed_ref=1 / me_range=32 / chroma_me=1 / trellis=2 / 8x8dct=1 / cqm=0 / deadzone=21,11 / fast_pskip=0 / chroma_qp_offset=-2 / threads=8 / lookahead_threads=1 / sliced_threads=0 / nr=0 / decimate=0 / interlaced=0 / bluray_compat=0 / constrained_intra=0 / fgo=0 / bframes=8 / b_pyramid=2 / b_adapt=2 / b_bias=0 / direct=3 / weightb=1 / open_gop=0 / weightp=2 / keyint=250 / keyint_min=23 / scenecut=40 / intra_refresh=0 / rc_lookahead=150 / rc=crf / mbtree=0 / crf=17.0000 / qcomp=0.60 / qpmin=0:0:0 / qpmax=69:69:69 / qpstep=4 / vbv_maxrate=50000 / vbv_bufsize=62500 / crf_max=0.0 / nal_hrd=none / filler=0 / ip_ratio=1.40 / pb_ratio=1.30 / aq=3:0.75 / aq-sensitivity=10.00 / aq-factor=1.00:1.00:1.00 / aq2=0 / aq3=0 Язык : English Default : Да Forced : Нет

Аудио #1 Идентификатор : 2 Формат : AC-3 Формат/Информация : Audio Coding 3 Расширение режима : CM (complete main) Параметр Endianness формата : Big Идентификатор кодека : A_AC3 Продолжительность : 1 ч. 33 м. Вид битрейта : Постоянный Битрейт : 384 Кбит/сек Каналы : 6 каналов Расположение каналов : Front: L C R, Side: L R, LFE Частота : 48,0 КГц Частота кадров : 31,250 кадров/сек (1536 spf) Метод сжатия : С потерями Размер потока : 256 Мбайт (2%) Заголовок : DUB [iTunes] Язык : Russian Default : Да Forced : Нет

Аудио #2 Идентификатор : 3 Формат : DTS Формат/Информация : Digital Theater Systems Режим : 16 Параметр Endianness формата : Big Идентификатор кодека : A_DTS Продолжительность : 1 ч. 33 м. Вид битрейта : Постоянный Битрейт : 1509 Кбит/сек Каналы : 6 каналов Расположение каналов : Front: L C R, Side: L R, LFE Частота : 48,0 КГц Частота кадров : 93,750 кадра/сек (512 spf) Битовая глубина : 24 бит Метод сжатия : С потерями Размер потока : 1007 Мбайт (9%) Язык : English Default : Нет Forced : Нет

Текст #1 Идентификатор : 4 Формат : UTF-8 Идентификатор кодека : S_TEXT/UTF8 Идентификатор кодека/Информация : UTF-8 Plain Text Продолжительность : 1 ч. 24 м. Битрейт : 33 бит/сек Count of elements : 828 Размер потока : 20,8 Кбайт (0%) Язык : English Default : Нет Forced : Нет

Текст #2 Идентификатор : 5 Формат : UTF-8 Идентификатор кодека : S_TEXT/UTF8 Идентификатор кодека/Информация : UTF-8 Plain Text Продолжительность : 1 ч. 25 м. Битрейт : 40 бит/сек Count of elements : 1039 Размер потока : 25,4 Кбайт (0%) Заголовок : SDH Язык : English Default : Нет Forced : Нет

Меню 00:00:00.000 : en:Chapter 1 00:05:31.998 : en:Chapter 2 00:09:30.236 : en:Chapter 3 00:15:37.353 : en:Chapter 4 00:19:23.954 : en:Chapter 5 00:23:38.375 : en:Chapter 6 00:28:57.194 : en:Chapter 7 00:34:14.970 : en:Chapter 8 00:36:58.258 : en:Chapter 9 00:40:25.673 : en:Chapter 10 00:43:56.133 : en:Chapter 11 00:48:47.633 : en:Chapter 12 00:53:20.489 : en:Chapter 13 00:59:39.117 : en:Chapter 14 01:02:35.085 : en:Chapter 15 01:07:20.161 : en:Chapter 16 01:11:33.331 : en:Chapter 17 01:16:26.999 : en:Chapter 18 01:21:35.057 : en:Chapter 19 01:26:54.334 : en:Chapter 20

krutor.org

Скачать фильм Лес призраков через торрент в хорошем качестве бесплатно BDRip от Twi7ter

Раздают: 1 [ 3 KB/s ]
Размер: 1.42 GB | Добавлен: 1 год 6 мес. назад | Торрент скачан:1436 раз
Реклама Дарим 3000 рублей за регистрацию, не упусти свой шанс получить шикарный бонус!!!

31-03-2016 10:18 Лес призраков Скачать торрент  

Лес призраков / The Forest

«Каждый приходит сюда в поиске выхода»

Год выпуска: 2016Страна: СШАЖанр: ужасы, детективПродолжительность: 01:33:17Перевод: Профессиональный (полное дублирование) [iTunes]Субтитры: НетРежиссер: Джейсон Зада / Jason ZadaВ ролях: Натали Дормер (Sara / Jess Price), Оуэн Мэкен (Rob), Стефани Вогт (Valerie), Осаму Танпопо (Homeless Man), Ясуо Тобисима (Sushi Chef), Ибуки Канеда (Mei (Schoolgirl)), Акико Ивасе (Head Teacher), Кикуо Ичикава (Businessman), Норико Сакура (Mayumi), Йозеф Аоки (Visitor Center Morgue Man), Юхо Ямасита (Sakura), Тейлор Кинни (Aiden)Описание: Юная американка Сара отправляется на поиски сестры-близняшки, которая таинственным образом исчезла на японском острове Хонсю. Поиски приводят к подножью горы Фудзи, в таинственный лес, который пользуется дурной славой. Сара не подозревала, что она вступает в мрачный мир призраков, злых и измученных душ, которые охотятся на любого, кто блуждает по их мрачному лесу...Рейтинг:

MPAA: PG-13 - Детям до 13 лет просмотр не желателен

Качество: BDRip | исх. The.Forest.2016.1080p.BluRay.AVC.DTS-HD.MA.5.1 |Формат: AVIВидео кодек: XviDАудио кодек: AC3Видео: 704x384 (1.83:1), 23.976 fps, XviD build 73 ~1786 kbps avg, 0.28 bit/pixelАудио: 48 kHz, AC3 Dolby Digital, 3/2 (L,C,R,l,r) + LFE ch, ~384 kbps

Релиз:

Скачать Лес призраков через торрент http://s42.radikal.ru/i096/1603/27/0cab6a3ff10c.png Скачать фильм Лес призраков через торрент бесплантно в хорошем качестве Описание: Юная американка Сара отправляется на поиски сестры-близняшки, которая таинственным образом исчезла на японском острове Хонсю. ... 2016-03-31 10:18 9.1 10 39

Loading...

Loading...

% Раздел Тема Автор DL S | L
Фильмы [HD 720p, 1080p] (Хороший звук DUB, MVO) [ 5.24 GB ] Лес призраков / The Forest [2016 BDRip 720p] $-DRON-$ Скачать
Фильмы 2016 [DVDrip, WEB-DLRip, HDrip] (DUB, MVO) [ 745 MB ] Лес призраков / The Forest [2016 HDRip-AVC hkets1980 Скачать
Фильмы 2016 [DVDrip, WEB-DLRip, HDrip] (DUB, MVO) [ 2.14 GB ] Лес призраков / The Forest [2016 / AI-Film Lava Bear Films BDRip-AVC] potroks Скачать
Фильмы 2016 [DVDrip, WEB-DLRip, HDrip] (DUB, MVO) [ 1.45 GB ] Лес призраков / The Forest [2016 / AI-Film Lava Bear Films BDRip-AVC] potroks Скачать
T Фильмы [HD 720p, 1080p] (Хороший звук DUB, MVO) [ 7.9 GB ] Лес призраков / The Forest [2016 BDRip 1080p / ] Ворон Скачать

Последний раз редактировалось: Twi7ter (2016-03-31 19:00), всего редактировалось 1 раз

Рекламный пират

31-03-2016 15:30 Лес призраков Скачать торрент  

пойдёт кинчик автору благодарность!

01-04-2016 02:21 Лес призраков Скачать торрент  

На раз неболее.автору спасибо

02-04-2016 06:12 Лес призраков Скачать торрент  

Судя по трейлеру фильм стоящий... Должен быть хороший ужастик. И сколько народу качает, так что заценим)

24-04-2016 20:20 Лес призраков Скачать торрент  

фильм на один раз, чем дальше в лес тем больше дров, на их месте и подростки были бы поумней )))

29-09-2016 16:40 Лес призраков Скачать торрент  

Спасибо! Посмотрю!

Дорогой пользователь! Огромная просьба, поблагодарите релизера, оцените раздачу и оставьте свои комментарий, если Вы скачали Лес призраков через торрент бесплатно! Внесите свою лепту в развитие PiratBit!

Комментировать посты могут только пользователи прошедшие не сложную регистрацию

Лес призраков через торрент Скачать бесплатно Лес призраков Лес призраков скачать торрент Лес призраков смотреть онлайн Cкачать фильм Лес призраков бесплатно Лес призраков скачать торрент в хорошем качестве Лес призраков смотреть онлайн бесплатно в хорошем качестве

Вы не можете начинать темыВы не можете отвечать на сообщенияВы не можете редактировать свои сообщенияВы не можете удалять свои сообщенияВы не можете голосовать в опросахВы не можете прикреплять файлы к сообщениямВы можете скачивать файлы

piratbit.ru

Скачать фильм Лес призраков через торрент в хорошем качестве бесплатно HDRip

Размер: 1.36 GB | Добавлен: 1 год 6 мес. назад | Торрент скачан:177 раз
Реклама Дарим 3000 рублей за регистрацию, не упусти свой шанс получить шикарный бонус!!!

31-03-2016 03:09 Лес призраков Скачать торрент  

Лес призраков / The Forest ««Каждый приходит сюда в поиске выхода»» ИНФОРМАЦИЯ: Год выпуска:2016 Страна: США Жанр: ужасы, детектив Продолжительность: 01:33:17 Перевод: Дубляж - [Лицензия / iTunes] Режиссер: Джейсон ЗадаВ Ролях: Натали Дормер (Sara / Jess Price), Оуэн Мэкен (Rob), Стефани Вогт (Valerie), Осаму Танпопо (Homeless Man), Ясуо Тобисима (Sushi Chef), Ибуки Канеда (Mei (Schoolgirl)), Акико Ивасе (Head Teacher), Кикуо Ичикава (Businessman), Норико Сакура (Mayumi), Йозеф Аоки (Visitor Center Morgue Man), Юхо Ямасита (Sakura), Тейлор Кинни (Aiden)Описание: Юная американка Сара отправляется на поиски сестры-близняшки, которая таинственным образом исчезла на японском острове Хонсю. Поиски приводят к подножью горы Фудзи, в таинственный лес, который пользуется дурной славой. Сара не подозревала, что она вступает в мрачный мир призраков, злых и измученных душ, которые охотятся на любого, кто блуждает по их мрачному лесу...
  • Мировая премьера:7 января 2016 ТЕХ.ДАННЫЕ: Качество: HDRip Формат: AVI Видео: XviD, 720x384 (1.875), 1617 kbps, 23,976 fps, 0,244 bpp Аудио: AC3 / 5.1 / 48 kHz / 384 kbps / 16 bit GeneralComplete name : H:\Раздачи\Les.PrizRakoFF.2O16.D.HDRip.14OOMB.aviFormat : AVIFormat/Info : Audio Video InterleaveFile size : 1.36 GiBDuration : 1h 33mnOverall bit rate : 2 093 KbpsWriting application : VirtualDubMod 1.5.10.2 (build 2540/release)Writing library : VirtualDubMod build 2540/release

    VideoID : 0Format : MPEG-4 VisualFormat profile : Advanced [email protected] settings, BVOP : 2Format settings, QPel : NoFormat settings, GMC : No warppointsFormat settings, Matrix : Default (MPEG)Codec ID : XVIDCodec ID/Hint : XviDDuration : 1h 33mnBit rate : 1 617 KbpsWidth : 720 pixelsHeight : 384 pixelsDisplay aspect ratio : 1.875Frame rate : 23.976 fpsColor space : YUVChroma subsampling : 4:2:0Bit depth : 8 bitsScan type : ProgressiveCompression mode : LossyBits/(Pixel*Frame) : 0.244Stream size : 1.05 GiB (77%)Writing library : XviD 1.2.1 (UTC 2008-12-04)

    AudioID : 1Format : AC-3Format/Info : Audio Coding 3Mode extension : CM (complete main)Codec ID : 2000Duration : 1h 33mnBit rate mode : ConstantBit rate : 384 KbpsChannel(s) : 6 channelsChannel positions : Front: L C R, Side: L R, LFESampling rate : 48.0 KHzBit depth : 16 bitsCompression mode : LossyStream size : 256 MiB (18%)Alignment : Split accross interleaves

    Скриншоты: © Оформление by .::Ворон::.
  • Скачать Лес призраков через торрент http://pic.pb.wtf/images/6/ordi9.jpg Скачать фильм Лес призраков через торрент бесплантно в хорошем качестве Описание: Юная американка Сара отправляется на поиски сестры-близняшки, которая таинственным образом исчезла на японском острове Хонсю. ... 2016-03-31 03:09 8.5 10 11

    Loading...

    Loading...

    % Раздел Тема Автор DL S | L
    Фильмы 2016 [DVDrip, WEB-DLRip, HDrip] (DUB, MVO) [ 1.42 GB ] Лес призраков / The Forest [2016 BDRip ] Twi7ter Скачать
    Фильмы [HD 720p, 1080p] (Хороший звук DUB, MVO) [ 5.24 GB ] Лес призраков / The Forest [2016 BDRip 720p] $-DRON-$ Скачать
    Фильмы 2016 [DVDrip, WEB-DLRip, HDrip] (DUB, MVO) [ 745 MB ] Лес призраков / The Forest [2016 HDRip-AVC hkets1980 Скачать
    Фильмы 2016 [DVDrip, WEB-DLRip, HDrip] (DUB, MVO) [ 2.14 GB ] Лес призраков / The Forest [2016 / AI-Film Lava Bear Films BDRip-AVC] potroks Скачать
    Фильмы 2016 [DVDrip, WEB-DLRip, HDrip] (DUB, MVO) [ 1.45 GB ] Лес призраков / The Forest [2016 / AI-Film Lava Bear Films BDRip-AVC] potroks Скачать
    T Фильмы [HD 720p, 1080p] (Хороший звук DUB, MVO) [ 7.9 GB ] Лес призраков / The Forest [2016 BDRip 1080p / ] Ворон Скачать

    Рекламный пират

    Дорогой пользователь! Огромная просьба, поблагодарите релизера, оцените раздачу и оставьте свои комментарий, если Вы скачали Лес призраков через торрент бесплатно! Внесите свою лепту в развитие PiratBit!

    Комментировать посты могут только пользователи прошедшие не сложную регистрацию

    Лес призраков через торрент Скачать бесплатно Лес призраков Лес призраков скачать торрент Лес призраков смотреть онлайн Cкачать фильм Лес призраков бесплатно Лес призраков скачать торрент в хорошем качестве Лес призраков смотреть онлайн бесплатно в хорошем качестве

    Вы можете начинать темыВы можете отвечать на сообщенияВы не можете редактировать свои сообщенияВы не можете удалять свои сообщенияВы не можете голосовать в опросахВы не можете прикреплять файлы к сообщениямВы можете скачивать файлы

    piratbit.ru

    Скачать фильм Лес призраков через торрент в хорошем качестве бесплатно WEB-DLRip от Twi7ter

    Раздают: 2 [ 0 KB/s ]
    Размер: 1.47 GB | Добавлен: 1 год 7 мес. назад | Торрент скачан:533 раза
    Реклама Дарим 3000 рублей за регистрацию, не упусти свой шанс получить шикарный бонус!!!

    22-03-2016 20:15 Лес призраков Скачать торрент  

    Лес призраков / The Forest

    «Каждый приходит сюда в поиске выхода»

    Год выпуска: 2015Страна: СШАЖанр: ужасы, детективПродолжительность: 01:33:17Перевод: Профессиональный (полное дублирование) [Line] ОфициальныйСубтитры: НетРежиссер: Джейсон Зада / Jason ZadaВ ролях: Натали Дормер (Sara / Jess Price), Оуэн Мэкен (Rob), Стефани Вогт (Valerie), Осаму Танпопо (Homeless Man), Ясуо Тобисима (Sushi Chef), Ибуки Канеда (Mei (Schoolgirl)), Акико Ивасе (Head Teacher), Кикуо Ичикава (Businessman), Норико Сакура (Mayumi), Йозеф Аоки (Visitor Center Morgue Man), Юхо Ямасита (Sakura), Тейлор Кинни (Aiden)Описание: Юная американка Сара отправляется на поиски сестры-близняшки, которая таинственным образом исчезла на японском острове Хонсю. Поиски приводят к подножью горы Фудзи, в таинственный лес, который пользуется дурной славой. Сара не подозревала, что она вступает в мрачный мир призраков, злых и измученных душ, которые охотятся на любого, кто блуждает по их мрачному лесу...Рейтинг:

    MPAA: PG-13 - Детям до 13 лет просмотр не желателен

    Качество: WEB-DLRip | исх. WEB-DL 1080p |Формат: AVIВидео кодек: XviDАудио кодек: AC3Видео: 704x384 (1.83:1), 23.976 fps, XviD build 73 ~1850 kbps avg, 0.28 bit/pixelАудио №1: 48 kHz, AC3 Dolby Digital, 2/0 (L,R) ch, ~192 kbps - RUSАудио №2: 48 kHz, AC3 Dolby Digital, 2/0 (L,R) ch, ~192 kbps - ENG

    Релиз:

    Скачать Лес призраков через торрент http://s019.radikal.ru/i619/1603/fa/16e72e032174.png Скачать фильм Лес призраков через торрент бесплантно в хорошем качестве Описание: Юная американка Сара отправляется на поиски сестры-близняшки, которая таинственным образом исчезла на японском острове Хонсю. ... 2016-03-22 20:15 9.4 10 12

    Loading...

    Loading...

    % Раздел Тема Автор DL S | L
    Фильмы 2016 [DVDrip, WEB-DLRip, HDrip] (DUB, MVO) [ 1.42 GB ] Лес призраков / The Forest [2016 BDRip ] Twi7ter Скачать
    Фильмы [HD 720p, 1080p] (Хороший звук DUB, MVO) [ 5.24 GB ] Лес призраков / The Forest [2016 BDRip 720p] $-DRON-$ Скачать
    Фильмы 2016 [DVDrip, WEB-DLRip, HDrip] (DUB, MVO) [ 745 MB ] Лес призраков / The Forest [2016 HDRip-AVC hkets1980 Скачать
    Фильмы 2016 [DVDrip, WEB-DLRip, HDrip] (DUB, MVO) [ 2.14 GB ] Лес призраков / The Forest [2016 / AI-Film Lava Bear Films BDRip-AVC] potroks Скачать
    Фильмы 2016 [DVDrip, WEB-DLRip, HDrip] (DUB, MVO) [ 1.45 GB ] Лес призраков / The Forest [2016 / AI-Film Lava Bear Films BDRip-AVC] potroks Скачать
    T Фильмы [HD 720p, 1080p] (Хороший звук DUB, MVO) [ 7.9 GB ] Лес призраков / The Forest [2016 BDRip 1080p / ] Ворон Скачать

    Рекламный пират

    23-03-2016 11:14 Лес призраков Скачать торрент  

    Во спасибо,теперь глянем

    23-03-2016 12:27 Лес призраков Скачать торрент  

    Как фильм? Рейтинги не очень, но актриса нравится еще из игры престолов, по ходу придется посмотреть)

    Дорогой пользователь! Огромная просьба, поблагодарите релизера, оцените раздачу и оставьте свои комментарий, если Вы скачали Лес призраков через торрент бесплатно! Внесите свою лепту в развитие PiratBit!

    Комментировать посты могут только пользователи прошедшие не сложную регистрацию

    Лес призраков через торрент Скачать бесплатно Лес призраков Лес призраков скачать торрент Лес призраков смотреть онлайн Cкачать фильм Лес призраков бесплатно Лес призраков скачать торрент в хорошем качестве Лес призраков смотреть онлайн бесплатно в хорошем качестве

    Вы можете начинать темыВы можете отвечать на сообщенияВы не можете редактировать свои сообщенияВы не можете удалять свои сообщенияВы не можете голосовать в опросахВы не можете прикреплять файлы к сообщениямВы можете скачивать файлы

    piratbit.ru

    Скачать фильм Лес призраков через торрент в хорошем качестве бесплатно HDRip-AVC

    GeneralUnique ID                                : 234618299693450751852656977331188095772 (0xB081D74471026B06B5094CB9DD235B1C)Complete name                            : C:\Users\1\Pictures\Les.Prizrakov.2016.x264.HDRip.480p.-AllFilms.mkvFormat                                   : MatroskaFormat version                           : Version 2File size                                : 745 MiBDuration                                 : 1h 33mnOverall bit rate                         : 1 116 KbpsMovie name                               : Лес призраков / The Forest [2016] HDRip 480p -AllFilmsEncoded date                             : UTC 2016-04-18 18:30:09Writing application                      : mkvmerge v3.4.0 ('Rapunzel') сборка от May 15 2010 09:38:20Writing library                          : libebml v0.8.0 + libmatroska v0.9.0

    VideoID                                       : 1Format                                   : AVCFormat/Info                              : Advanced Video CodecFormat profile                           : [email protected] settings, CABAC                   : YesFormat settings, ReFrames                : 12 framesCodec ID                                 : V_MPEG4/ISO/AVCDuration                                 : 1h 33mnWidth                                    : 740 pixelsHeight                                   : 400 pixelsDisplay aspect ratio                     : 1.850Frame rate                               : 23.976 fpsColor space                              : YUVChroma subsampling                       : 4:2:0Bit depth                                : 8 bitsScan type                                : ProgressiveTitle                                    : Лес призраков / The Forest [2016] HDRip 480p -AllFilmsWriting library                          : x264 core 148 r2665kMod a01e339Encoding settings                        : cabac=1 / ref=12 / deblock=1:-3:-2 / analyse=0x3:0x133 / me=umh / subme=11 / psy=1 / fade_compensate=0.00 / psy_rd=1.00:0.05 / mixed_ref=1 / me_range=48 / chroma_me=1 / trellis=2 / 8x8dct=1 / cqm=0 / deadzone=21,11 / fast_pskip=0 / chroma_qp_offset=-3 / threads=6 / lookahead_threads=1 / sliced_threads=0 / nr=0 / decimate=1 / interlaced=0 / bluray_compat=0 / constrained_intra=0 / fgo=0 / bframes=13 / b_pyramid=2 / b_adapt=2 / b_bias=0 / direct=1 / weightb=1 / open_gop=0 / weightp=2 / keyint=240 / keyint_min=24 / scenecut=40 / intra_refresh=0 / rc_lookahead=60 / rc=crf / mbtree=1 / crf=17.3000 / qcomp=0.65 / qpmin=10 / qpmax=69 / qpstep=4 / vbv_maxrate=14000 / vbv_bufsize=14000 / crf_max=0.0 / nal_hrd=none / filler=0 / ip_ratio=1.40 / aq=1:0.90 / zones=128295,134204,q=33Language                                 : EnglishDefault                                  : YesForced                                   : YesColor primaries                          : BT.709-5, BT.1361, IEC 61966-2-4, SMPTE RP177Transfer characteristics                 : BT.709-5, BT.1361Matrix coefficients                      : BT.709-5, BT.1361, IEC 61966-2-4 709, SMPTE RP177

    AudioID                                       : 2Format                                   : AACFormat/Info                              : Advanced Audio CodecFormat profile                           : LCCodec ID                                 : A_AACDuration                                 : 1h 33mnChannel(s)                               : 2 channelsChannel positions                        : Front: L RSampling rate                            : 48.0 KHzCompression mode                         : LossyTitle                                    : Dub [AAC [email protected] kbps]Language                                 : RussianDefault                                  : YesForced                                   : No

    TextID                                       : 3Format                                   : UTF-8Codec ID                                 : S_TEXT/UTF8Codec ID/Info                            : UTF-8 Plain TextLanguage                                 : EnglishDefault                                  : NoForced                                   : No

    piratbit.ru


    Смотрите также